osu file format v14

[General]
AudioFilename: hanatan.mp3
AudioLeadIn: 0
PreviewTime: 56494
Countdown: 0
SampleSet: Soft
StackLeniency: 0.3
Mode: 0
LetterboxInBreaks: 0
WidescreenStoryboard: 0

[Editor]
DistanceSpacing: 1.6
BeatDivisor: 4
GridSize: 4
TimelineZoom: 1

[Metadata]
Title:Junshin Always
TitleUnicode:純真Always
Artist:Azusa Tadokoro
ArtistUnicode:田所あずさ
Creator:handsome
Version:Insane
Source:無彩限のファントム・ワールド
Tags:myriad colors phantom world colours musaigen no tv size opening anime kawakami mai izumi reina ichijou haruhiko
BeatmapID:874746
BeatmapSetID:402187

[Difficulty]
HPDrainRate:7
CircleSize:4
OverallDifficulty:8
ApproachRate:9
SliderMultiplier:1.4
SliderTickRate:1

[Events]
//Background and Video events
Video,-50,"hanatan.flv"
0,0,"hanatan.jpg",0,0
//Break Periods
//Storyboard Layer 0 (Background)
//Storyboard Layer 1 (Fail)
//Storyboard Layer 2 (Pass)
//Storyboard Layer 3 (Foreground)
//Storyboard Sound Samples

[TimingPoints]
1245,333.333333333333,4,2,1,55,1,0
1245,-166.666666666667,4,2,1,55,0,0
1911,-166.666666666667,4,2,1,30,0,0
2578,-166.666666666667,4,2,1,55,0,0
3244,-166.666666666667,4,2,1,30,0,0
3911,-166.666666666667,4,2,1,55,0,0
4578,-166.666666666667,4,2,1,30,0,0
5244,-125,4,2,1,50,0,0
6911,-125,4,2,1,35,0,0
7244,-125,4,2,1,45,0,0
7578,-125,4,2,1,55,0,0
7911,-125,4,2,1,65,0,0
8578,-83.3333333333333,4,2,1,65,0,0
18744,-83.3333333333333,4,2,1,45,0,0
19911,-100,4,2,1,45,0,0
25244,-83.3333333333333,4,2,1,60,0,0
30578,-100,4,2,1,45,0,0
35911,-83.3333333333333,4,2,1,60,0,0
57244,-71.4285714285714,4,2,1,65,0,0
77911,-71.4285714285714,4,2,1,45,0,0
78578,-71.4285714285714,4,2,1,60,0,0
83911,-71.4285714285714,4,2,1,70,0,0
86911,-71.4285714285714,4,2,1,50,0,0
87911,-71.4285714285714,4,2,1,60,0,0
88578,-71.4285714285714,4,2,1,70,0,0

[Colours]
Combo1 : 94,174,255
Combo2 : 138,248,126
Combo3 : 255,164,233
Combo4 : 255,215,130

[HitObjects]
28,173,1245,6,0,B|80:164|80:164|140:176|140:176|210:161,1,167.999994873047,4|0,0:0|0:0,0:0:0:0:
429,49,2578,6,0,B|462:82|461:130|440:157|440:157|395:135,1,167.999994873047,4|0,0:0|0:0,0:0:0:0:
166,317,3911,6,0,P|172:268|95:302,1,167.999994873047,4|0,0:0|0:0,0:0:0:0:
411,227,5244,6,0,L|422:305,1,56,4|0,0:0|0:0,0:0:0:0:
284,223,5578,2,0,L|346:174,1,56,4|0,0:0|0:0,0:0:0:0:
344,335,5911,2,0,L|270:305,1,56,4|0,0:0|0:0,0:0:0:0:
207,276,6244,5,8,0:3:0:0:
202,262,6328,1,8,0:3:0:0:
198,249,6411,1,8,0:3:0:0:
194,235,6494,1,8,0:3:0:0:
190,222,6578,1,4,0:0:0:0:
9,322,6911,5,8,0:3:0:0:
103,328,7078,1,0,0:0:0:0:
5,238,7244,5,8,0:3:0:0:
119,247,7411,1,0,0:0:0:0:
2,156,7578,5,8,0:3:0:0:
135,166,7744,1,0,0:0:0:0:
0,73,7911,5,8,1:3:0:0:
151,85,8078,1,0,1:3:0:0:
151,85,8578,6,0,L|142:52,6,20.9999993591309,2|0|0|0|0|0|0,0:0|0:0|0:0|0:0|0:0|0:0|0:0,0:0:0:0:
210,140,8911,1,8,0:3:0:0:
235,135,8994,1,8,0:3:0:0:
261,130,9078,1,8,0:3:0:0:
287,125,9161,1,8,0:3:0:0:
313,120,9244,6,0,P|351:164|349:213,1,83.9999974365235,4|0,1:2|0:0,0:0:0:0:
423,283,9578,2,0,L|506:271,1,83.9999974365235,8|0,1:2|0:0,0:0:0:0:
331,351,9911,2,0,L|247:362,1,83.9999974365235,0|0,1:0|0:0,0:0:0:0:
89,287,10244,2,0,P|65:239|95:156,1,125.999996154785,8|0,1:2|0:0,0:0:0:0:
114,176,10578,6,0,P|158:187|212:166,1,83.9999974365235,0|0,1:0|0:0,0:0:0:0:
297,146,10911,1,8,1:2:0:0:
153,97,11078,1,0,0:0:0:0:
153,97,11161,1,0,0:0:0:0:
153,97,11244,1,0,1:0:0:0:
281,22,11411,1,0,0:0:0:0:
281,22,11578,2,0,L|298:149,1,125.999996154785,8|0,1:2|0:0,0:0:0:0:
377,189,11911,6,0,L|483:176,1,83.9999974365235,0|0,1:0|0:0,0:0:0:0:
290,270,12244,2,0,P|299:321|274:371,1,83.9999974365235,8|0,1:2|0:0,0:0:0:0:
179,215,12578,2,0,P|170:164|195:114,1,83.9999974365235,0|0,1:0|0:0,0:0:0:0:
327,26,12911,2,0,L|184:15,1,125.999996154785,8|0,1:2|0:0,0:0:0:0:
158,13,13244,6,0,P|115:26|90:88,1,83.9999974365235,0|0,1:0|0:0,0:0:0:0:
19,265,13578,2,0,L|1:182,1,83.9999974365235,4|0,1:2|0:0,0:0:0:0:
111,156,13911,1,8,3:0:0:0:
131,157,13994,1,8,3:0:0:0:
152,159,14077,1,8,3:0:0:0:
173,161,14161,1,8,3:0:0:0:
194,163,14244,1,8,3:0:0:0:
215,164,14327,1,8,3:0:0:0:
236,166,14411,2,0,L|245:220,1,41.9999987182618,8|0,3:0|0:0,0:0:0:0:
287,366,14578,6,0,L|297:244,1,83.9999974365235,4|0,1:2|0:0,0:0:0:0:
378,217,14911,2,0,P|430:204|484:241,1,83.9999974365235,8|0,1:2|0:0,0:0:0:0:
236,166,15244,2,0,P|184:179|130:142,1,83.9999974365235,0|0,1:0|0:0,0:0:0:0:
342,23,15578,2,0,L|352:117,1,83.9999974365235,8|0,1:2|0:0,0:0:0:0:
129,247,15911,6,0,P|81:206|117:98,1,167.999994873047,0|8,1:0|1:2,0:0:0:0:
156,169,16411,1,0,0:0:0:0:
222,62,16578,2,0,L|336:68,1,83.9999974365235,0|0,1:0|0:0,0:0:0:0:
342,254,16911,2,0,L|258:249,1,83.9999974365235,8|0,1:2|0:0,0:0:0:0:
150,243,17244,5,0,1:0:0:0:
295,156,17411,1,0,0:0:0:0:
289,333,17578,2,0,P|234:337|195:305,1,83.9999974365235,4|0,1:2|0:0,0:0:0:0:
8,286,17911,5,0,1:0:0:0:
98,165,18078,1,0,0:0:0:0:
94,316,18244,1,0,1:0:0:0:
10,193,18411,1,0,1:0:0:0:
150,243,18578,1,0,1:0:0:0:
72,241,18744,5,2,0:2:0:0:
72,241,18911,1,2,0:2:0:0:
301,148,19244,5,2,0:2:0:0:
301,148,19411,1,2,0:2:0:0:
243,90,19578,1,8,0:3:0:0:
222,88,19661,1,8,0:3:0:0:
201,86,19744,1,8,0:3:0:0:
180,85,19827,1,8,0:3:0:0:
158,83,19911,6,0,P|134:135|171:208,1,140,4|0,1:2|1:0,0:0:0:0:
244,238,20411,1,0,0:0:0:0:
301,148,20578,2,0,L|390:148,1,70,0|0,1:0|0:0,0:0:0:0:
512,194,20911,2,0,L|423:194,1,70,0|0,1:0|0:0,0:0:0:0:
424,50,21244,6,0,P|450:108|440:139,1,70,0|0,1:0|0:0,0:0:0:0:
389,292,21577,2,0,P|363:234|373:203,1,70,0|0,1:0|0:0,0:0:0:0:
488,282,21911,1,0,1:0:0:0:
488,282,22078,1,0,0:0:0:0:
367,378,22244,1,0,1:0:0:0:
367,378,22411,1,0,0:0:0:0:
277,265,22578,6,0,P|199:239|139:285,1,140,4|0,1:2|1:0,0:0:0:0:
215,323,23078,1,0,0:0:0:0:
273,171,23244,2,0,L|265:91,1,70,0|0,1:0|0:0,0:0:0:0:
172,42,23578,2,0,L|180:122,1,70,0|0,1:0|0:0,0:0:0:0:
346,70,23911,6,0,P|314:28|270:18,1,70,4|0,1:2|0:0,0:0:0:0:
99,143,24245,2,0,P|131:185|175:195,1,70,4|0,1:2|0:0,0:0:0:0:
273,171,24578,1,4,1:2:0:0:
172,42,24744,1,0,0:0:0:0:
172,42,24828,1,0,0:0:0:0:
172,42,24911,1,8,1:2:0:0:
240,326,25244,6,0,P|254:288|232:229,1,83.9999974365235,4|0,1:2|0:0,0:0:0:0:
274,71,25578,2,0,L|381:69,1,83.9999974365235,8|0,1:2|0:0,0:0:0:0:
191,154,25911,2,0,L|84:156,1,83.9999974365235,0|0,1:0|0:0,0:0:0:0:
8,33,26244,1,8,1:2:0:0:
149,76,26411,1,0,0:0:0:0:
38,204,26578,6,0,P|23:165|30:124,1,83.9999974365235,0|0,1:0|0:0,0:0:0:0:
140,264,26911,2,0,L|254:250,1,83.9999974365235,8|0,1:2|0:0,0:0:0:0:
351,314,27244,1,0,1:0:0:0:
474,198,27411,1,0,0:0:0:0:
358,131,27578,2,0,L|359:232,1,83.9999974365235,8|0,1:2|0:0,0:0:0:0:
455,359,27911,5,0,1:0:0:0:
351,314,28078,1,0,0:0:0:0:
474,198,28244,2,0,P|492:266|468:306,1,83.9999974365235,8|0,1:2|0:0,0:0:0:0:
283,254,28578,2,0,L|188:247,1,83.9999974365235,0|0,1:0|0:0,0:0:0:0:
83,175,28911,2,0,L|-12:168,1,83.9999974365235,8|0,1:2|0:0,0:0:0:0:
149,20,29244,5,0,1:0:0:0:
211,139,29411,1,0,1:0:0:0:
286,28,29578,2,0,P|345:19|386:42,1,83.9999974365235,4|0,1:2|0:0,0:0:0:0:
366,27,29828,1,0,0:0:0:0:
366,27,29911,1,0,1:0:0:0:
443,91,30078,2,0,L|491:91,2,41.9999987182618,0|0|0,0:0|0:0|1:0,0:0:0:0:
375,165,30411,1,0,1:0:0:0:
485,287,30578,6,0,P|426:333|347:305,1,140,4|0,1:2|1:0,0:0:0:0:
300,268,31078,1,0,0:0:0:0:
235,367,31244,2,0,L|149:362,1,70,0|0,1:0|0:0,0:0:0:0:
18,322,31578,2,0,L|87:326,1,70,0|0,1:0|0:0,1:0:0:0:
25,171,31911,6,0,P|16:204|22:238,1,70,0|0,1:0|0:0,0:0:0:0:
165,362,32244,2,0,P|173:328|167:294,1,70,0|0,1:0|0:0,0:0:0:0:
105,211,32578,1,0,1:0:0:0:
67,325,32744,1,0,0:0:0:0:
105,211,32911,1,0,1:0:0:0:
67,325,33078,1,0,0:0:0:0:
69,329,33161,1,0,0:0:0:0:
71,333,33244,6,0,P|117:362|212:323,1,140,4|0,1:2|1:0,0:0:0:0:
283,347,33744,1,0,0:0:0:0:
338,208,33911,2,0,L|327:121,1,70,0|0,1:0|0:0,0:0:0:0:
389,11,34244,2,0,L|397:80,1,70,0|0,1:0|0:0,0:0:0:0:
415,259,34578,6,0,P|371:294|334:291,1,70,4|0,1:2|0:0,0:0:0:0:
196,368,34911,2,0,P|161:324|164:287,1,70,4|0,1:2|0:0,0:0:0:0:
194,174,35244,1,4,1:2:0:0:
102,213,35411,1,8,0:3:0:0:
85,217,35494,1,8,0:3:0:0:
68,221,35577,1,8,0:3:0:0:
51,225,35661,1,8,0:3:0:0:
33,229,35744,2,0,L|19:185,1,35,8|0,0:3|0:0,0:0:0:0:
61,62,35911,6,0,P|118:56|159:78,1,83.9999974365235,4|0,1:2|0:0,0:0:0:0:
194,174,36244,2,0,L|179:278,1,83.9999974365235,8|0,1:2|0:0,0:0:0:0:
268,83,36578,2,0,L|256:0,1,83.9999974365235,0|0,1:0|0:0,0:0:0:0:
100,146,36911,1,8,1:2:0:0:
286,173,37078,1,0,0:0:0:0:
182,90,37244,6,0,L|193:173,1,83.9999974365235,0|0,1:0|0:0,0:0:0:0:
373,206,37578,2,0,P|374:149|335:100,1,83.9999974365235,8|0,1:2|0:0,0:0:0:0:
283,254,37911,1,0,1:0:0:0:
460,177,38078,1,0,0:0:0:0:
357,44,38244,2,0,P|312:59|283:115,1,83.9999974365235,8|0,1:2|0:0,0:0:0:0:
113,162,38578,6,0,L|24:149,1,83.9999974365235,0|0,1:2|0:0,0:0:0:0:
283,254,38911,2,0,L|372:241,1,83.9999974365235,8|0,1:2|0:0,0:0:0:0:
194,110,39244,1,0,1:0:0:0:
196,268,39411,1,0,0:0:0:0:
196,268,39494,1,0,0:0:0:0:
196,268,39578,1,8,1:2:0:0:
423,303,39744,6,0,P|448:264|415:176,1,125.999996154785,4|0,1:2|0:0,0:0:0:0:
410,169,40078,1,0,1:0:0:0:
283,254,40244,2,0,L|193:247,1,83.9999974365235,0|0,1:0|1:0,0:0:0:0:
65,281,40578,1,0,1:0:0:0:
18,139,40744,1,8,0:3:0:0:
23,118,40827,1,8,0:3:0:0:
28,98,40910,1,8,0:3:0:0:
33,77,40994,1,8,0:3:0:0:
38,57,41077,1,8,0:3:0:0:
44,37,41160,1,8,0:3:0:0:
49,16,41244,6,0,L|147:6,1,83.9999974365235,4|0,1:2|0:0,0:0:0:0:
237,47,41578,2,0,L|320:38,1,83.9999974365235,0|0,1:0|0:0,0:0:0:0:
512,118,41911,2,0,L|414:108,1,83.9999974365235,4|0,1:2|0:0,0:0:0:0:
324,149,42245,2,0,L|240:140,1,83.9999974365235,0|0,1:0|0:0,0:0:0:0:
59,177,42578,6,0,P|45:123|64:78,1,83.9999974365235,0|0,1:0|0:0,0:0:0:0:
271,230,42911,2,0,P|285:284|266:329,1,83.9999974365235,0|0,1:0|0:0,0:0:0:0:
96,255,43244,1,0,1:0:0:0:
173,158,43411,1,0,0:0:0:0:
197,344,43578,2,0,L|99:341,1,83.9999974365235,0|0,1:0|0:0,0:0:0:0:
34,363,43828,1,0,0:0:0:0:
34,363,43911,6,0,P|12:312|27:265,1,83.9999974365235,0|0,1:0|0:0,0:0:0:0:
190,235,44244,2,0,P|192:193|172:157,1,83.9999974365235,0|0,1:0|0:0,0:0:0:0:
44,83,44578,2,0,L|58:197,1,83.9999974365235,0|0,1:0|0:0,0:0:0:0:
270,272,44911,2,0,L|280:355,1,83.9999974365235,0|0,1:0|0:0,0:0:0:0:
123,280,45244,6,0,P|150:248|189:234,1,83.9999974365235,0|0,1:0|0:0,0:0:0:0:
358,307,45578,1,0,1:0:0:0:
202,318,45744,1,0,0:0:0:0:
275,188,45911,2,0,L|269:271,1,83.9999974365235,0|0,1:0|0:0,0:0:0:0:
451,120,46244,2,0,L|456:36,1,83.9999974365235,4|0,1:2|0:0,0:0:0:0:
280,90,46578,5,0,1:0:0:0:
390,205,46744,1,0,0:0:0:0:
240,239,46911,1,8,0:2:0:0:
280,90,47078,5,0,0:0:0:0:
280,90,47161,1,0,0:0:0:0:
280,90,47244,1,0,1:0:0:0:
390,205,47411,2,0,L|435:222,2,41.9999987182618,0|0|8,0:0|0:0|0:2,0:0:0:0:
240,239,47744,5,0,0:0:0:0:
240,239,47827,1,0,0:0:0:0:
240,239,47910,1,0,1:0:0:0:
130,124,48078,2,0,L|90:109,2,41.9999987182618,0|0|8,0:0|0:0|0:2,0:0:0:0:
152,214,48411,1,0,0:0:0:0:
280,90,48578,5,8,0:3:0:0:
300,87,48661,1,8,0:3:0:0:
321,84,48744,1,8,0:3:0:0:
342,81,48828,1,8,0:3:0:0:
363,78,48911,1,8,0:3:0:0:
383,75,48994,1,8,0:3:0:0:
404,72,49078,1,8,0:3:0:0:
425,69,49161,1,8,0:3:0:0:
446,66,49244,6,0,P|464:127|448:165,1,83.9999974365235,4|0,0:0|0:0,0:0:0:0:
366,285,49578,2,0,P|348:224|364:186,1,83.9999974365235,0|0,1:0|0:0,0:0:0:0:
444,233,49911,1,0,1:0:0:0:
266,247,50078,1,0,0:0:0:0:
377,117,50244,1,0,1:0:0:0:
447,322,50411,1,0,0:0:0:0:
447,322,50494,1,0,0:0:0:0:
447,322,50578,6,0,L|354:324,1,83.9999974365235,0|0,1:0|0:0,0:0:0:0:
182,248,50911,2,0,L|266:247,1,83.9999974365235,4|0,1:2|0:0,0:0:0:0:
115,333,51244,1,0,1:0:0:0:
81,231,51411,1,8,0:3:0:0:
86,211,51494,1,8,0:3:0:0:
96,192,51577,1,8,0:3:0:0:
109,176,51661,1,8,0:3:0:0:
126,163,51744,1,8,0:3:0:0:
144,154,51827,1,8,0:3:0:0:
165,148,51911,5,0,0:0:0:0:
253,116,52078,1,0,0:0:0:0:
122,0,52244,2,0,P|99:45|105:87,1,83.9999974365235,4|0,1:2|0:0,0:0:0:0:
253,116,52578,5,0,0:0:0:0:
180,57,52745,1,0,0:0:0:0:
145,228,52911,2,0,P|195:225|228:199,1,83.9999974365235,4|0,1:2|0:0,0:0:0:0:
330,63,53244,5,8,0:3:0:0:
350,64,53327,1,8,0:3:0:0:
371,66,53410,1,8,0:3:0:0:
392,67,53494,1,8,0:3:0:0:
413,69,53577,1,8,0:3:0:0:
434,71,53660,1,8,0:3:0:0:
455,72,53744,1,8,0:3:0:0:
476,74,53827,1,8,0:3:0:0:
498,75,53911,6,8,L|490:31,3,41.9999987182618,12|8|8|8,0:3|0:3|0:3|0:3,0:3:0:0:
512,161,54244,1,8,0:3:0:0:
502,201,54327,1,8,0:3:0:0:
475,233,54410,1,8,0:3:0:0:
437,249,54494,1,8,0:3:0:0:
395,246,54578,6,0,L|287:241,1,83.9999974365235,4|0,1:2|0:0,0:0:0:0:
219,236,54911,1,0,0:0:0:0:
398,161,55078,2,0,L|289:155,1,83.9999974365235,4|0,1:2|0:0,0:0:0:0:
221,150,55411,1,0,0:0:0:0:
284,5,55578,6,0,P|292:55|274:93,1,83.9999974365235,4|0,1:2|0:0,0:0:0:0:
144,196,55911,2,0,P|131:156|140:116,1,83.9999974365235,4|0,1:2|0:0,0:0:0:0:
38,75,56244,2,8,L|24:14,3,41.9999987182618,8|8|8|8,0:3|0:3|0:3|0:3,0:3:0:0:
12,163,56578,6,0,L|40:193,1,41.9999987182618,2|0,0:2|0:0,0:0:0:0:
62,282,56744,2,0,L|102:294,1,41.9999987182618,2|0,0:2|0:0,0:0:0:0:
165,360,56911,2,0,L|205:350,1,41.9999987182618,2|0,0:2|0:0,0:0:0:0:
293,376,57078,2,0,L|323:347,1,41.9999987182618,2|0,0:2|0:0,0:0:0:0:
390,204,57244,6,0,P|325:182|277:221,1,97.9999970092774,4|0,1:2|0:0,0:0:0:0:
242,264,57578,1,8,1:2:0:0:
411,292,57744,1,0,0:0:0:0:
411,292,57828,1,0,0:0:0:0:
411,292,57911,1,0,1:0:0:0:
450,142,58078,2,0,L|436:35,2,97.9999970092774,0|8|0,0:0|1:2|0:0,0:0:0:0:
512,4,58578,5,0,1:0:0:0:
366,111,58744,1,0,0:0:0:0:
499,210,58911,1,8,1:2:0:0:
437,44,59078,1,0,0:0:0:0:
287,189,59244,2,0,B|199:220|155:151|155:151|214:122,1,195.999994018555,0|8,1:0|1:2,0:0:0:0:
319,270,59744,1,0,0:0:0:0:
295,97,59911,5,0,1:0:0:0:
228,270,60078,1,0,0:0:0:0:
408,289,60244,2,0,P|404:241|376:201,1,97.9999970092774,8|0,1:2|0:0,0:0:0:0:
344,356,60578,5,0,1:0:0:0:
476,189,60744,1,0,0:0:0:0:
269,199,60911,1,8,1:2:0:0:
408,289,61078,1,0,0:0:0:0:
385,104,61244,6,0,L|375:215,1,97.9999970092774,0|0,1:0|0:0,0:0:0:0:
278,102,61578,2,0,L|268:213,1,97.9999970092774,8|0,1:2|0:0,0:0:0:0:
171,100,61911,2,0,L|161:211,1,97.9999970092774,0|0,1:0|0:0,0:0:0:0:
64,98,62244,1,8,0:3:0:0:
61,122,62327,1,8,0:3:0:0:
59,146,62410,1,8,0:3:0:0:
57,171,62494,1,8,0:3:0:0:
55,195,62577,5,0,1:0:0:0:
111,275,62744,1,0,0:0:0:0:
248,179,62911,2,0,L|185:103,1,97.9999970092774,4|0,1:2|0:0,0:0:0:0:
166,354,63244,5,0,1:0:0:0:
207,266,63411,1,0,0:0:0:0:
55,195,63577,2,0,L|20:286,1,97.9999970092774,4|0,1:2|0:0,0:0:0:0:
248,179,63910,5,0,1:0:0:0:
151,187,64077,1,0,0:0:0:0:
166,354,64244,2,0,L|262:338,1,97.9999970092774,4|0,1:2|0:0,0:0:0:0:
379,317,64578,5,0,1:0:0:0:
297,232,64744,1,8,0:3:0:0:
290,208,64828,1,8,0:3:0:0:
291,184,64910,1,8,1:2:0:0:
299,161,64994,1,8,0:3:0:0:
313,141,65077,1,8,0:3:0:0:
333,127,65160,1,8,0:3:0:0:
357,120,65244,6,0,L|242:94,1,97.9999970092774,4|0,1:2|0:0,0:0:0:0:
100,97,65578,2,0,P|108:49|138:11,1,97.9999970092774,8|0,1:2|0:0,0:0:0:0:
95,216,65911,2,0,L|0:238,1,97.9999970092774,0|0,1:0|0:0,0:0:0:0:
270,297,66245,2,0,P|302:259|313:210,1,97.9999970092774,8|0,1:2|0:0,0:0:0:0:
170,135,66578,6,0,B|215:155|263:135|263:135|317:102|385:146,1,195.999994018555,0|8,1:0|1:2,0:0:0:0:
217,54,67078,1,0,0:0:0:0:
99,233,67244,2,0,L|160:221,1,48.9999985046387,4|8,1:2|0:3,0:0:0:0:
311,266,67411,1,8,0:3:0:0:
335,268,67494,1,8,0:3:0:0:
359,270,67578,1,8,0:3:0:0:
383,272,67661,1,8,0:3:0:0:
407,274,67744,1,8,0:3:0:0:
432,277,67827,1,8,0:3:0:0:
456,279,67911,6,0,P|463:326|437:372,1,97.9999970092774,4|0,1:2|0:0,0:0:0:0:
345,384,68244,1,8,1:2:0:0:
275,221,68411,1,0,0:0:0:0:
275,221,68494,1,0,0:0:0:0:
275,221,68578,1,0,1:0:0:0:
171,330,68744,2,0,L|57:342,2,97.9999970092774,0|8|0,0:0|1:2|0:0,0:0:0:0:
287,318,69244,5,0,1:0:0:0:
369,212,69411,1,0,0:0:0:0:
263,130,69578,1,8,1:2:0:0:
181,236,69744,1,0,0:0:0:0:
386,305,69911,2,0,P|433:282|433:146,1,195.999994018555,0|8,1:0|1:2,0:0:0:0:
275,225,70411,1,0,0:0:0:0:
422,132,70578,5,0,1:0:0:0:
287,318,70744,1,0,0:0:0:0:
167,192,70911,2,0,L|48:191,1,97.9999970092774,8|0,1:2|0:0,0:0:0:0:
51,105,71244,5,0,1:0:0:0:
22,282,71411,1,0,0:0:0:0:
188,109,71578,1,8,1:2:0:0:
216,285,71745,1,0,0:0:0:0:
22,282,71911,6,0,L|140:282,1,97.9999970092774,0|0,1:0|0:0,0:0:0:0:
416,261,72244,2,0,P|405:195|359:159,1,97.9999970092774,4|0,1:2|0:0,0:0:0:0:
249,208,72578,1,8,1:3:0:0:
310,345,72744,1,8,0:3:0:0:
310,345,72828,1,8,0:3:0:0:
310,345,72911,1,8,1:2:0:0:
306,139,73078,1,0,1:0:0:0:
181,275,73244,6,0,P|110:281|68:249,1,97.9999970092774,4|0,1:2|0:0,0:0:0:0:
306,139,73578,2,0,L|422:151,1,97.9999970092774,8|0,1:2|0:0,0:0:0:0:
139,196,73911,2,0,P|120:155|129:90,1,97.9999970092774,0|0,1:0|0:0,0:0:0:0:
290,266,74244,2,0,L|280:363,1,97.9999970092774,8|0,1:2|0:0,0:0:0:0:
127,275,74578,5,0,1:0:0:0:
289,178,74744,1,0,0:0:0:0:
361,315,74911,1,4,1:2:0:0:
205,319,75078,1,0,0:0:0:0:
218,139,75244,2,0,P|262:98|315:97,1,97.9999970092774,0|0,1:0|0:0,0:0:0:0:
361,315,75578,1,8,0:3:0:0:
361,315,75661,1,8,0:3:0:0:
361,315,75744,1,8,0:3:0:0:
361,315,75828,1,8,0:3:0:0:
361,315,75911,6,0,L|467:296,1,97.9999970092774,4|0,1:2|0:0,0:0:0:0:
297,93,76244,2,0,L|191:112,1,97.9999970092774,0|0,1:0|0:0,0:0:0:0:
486,195,76578,2,0,L|499:86,1,97.9999970092774,0|0,1:0|0:0,0:0:0:0:
81,171,76911,2,0,L|92:268,1,97.9999970092774,4|0,1:2|0:0,0:0:0:0:
67,32,77244,5,4,1:0:0:0:
81,171,77911,2,8,L|89:244,7,48.9999985046387,12|8|8|8|8|8|8|8,1:3|0:3|0:3|0:3|0:3|0:3|0:3|0:3,0:3:0:0:
96,265,78578,6,0,L|226:274,1,97.9999970092774,4|0,1:2|0:0,0:0:0:0:
323,333,78911,2,0,L|309:236,1,97.9999970092774,0|0,1:0|0:0,0:0:0:0:
444,92,79244,2,0,L|430:189,1,97.9999970092774,0|0,1:0|0:0,0:0:0:0:
266,159,79578,2,0,P|215:188|156:169,1,97.9999970092774,0|0,1:0|0:0,0:0:0:0:
178,182,79828,1,0,0:0:0:0:
178,182,79911,5,0,1:0:0:0:
260,69,80078,1,0,0:0:0:0:
348,215,80244,2,0,L|335:313,1,97.9999970092774,0|0,1:0|0:0,0:0:0:0:
213,371,80578,1,2,1:2:0:0:
422,311,80744,1,2,0:2:0:0:
266,159,80911,1,2,1:2:0:0:
379,384,81078,1,2,0:2:0:0:
479,155,81244,6,0,L|366:132,1,97.9999970092774,0|0,1:0|0:0,0:0:0:0:
184,112,81578,2,0,P|174:56|201:3,1,97.9999970092774,0|0,1:0|0:0,0:0:0:0:
337,206,81911,2,0,P|347:262|320:315,1,97.9999970092774,0|0,1:0|0:0,0:0:0:0:
118,233,82244,2,0,L|225:216,1,97.9999970092774,0|0,1:0|0:0,0:0:0:0:
268,69,82578,5,0,1:0:0:0:
74,51,82744,1,0,0:0:0:0:
266,155,82911,1,0,1:0:0:0:
72,137,83077,1,0,0:0:0:0:
346,114,83244,2,0,P|355:161|339:207,1,97.9999970092774,0|0,1:0|0:0,0:0:0:0:
65,230,83578,2,0,P|55:182|71:136,1,97.9999970092774,4|0,1:2|0:0,0:0:0:0:
183,367,83911,6,0,L|71:352,1,97.9999970092774,4|0,1:2|0:0,0:0:0:0:
129,89,84244,2,0,L|240:103,1,97.9999970092774,0|0,1:0|0:0,0:0:0:0:
17,255,84578,2,0,L|31:143,1,97.9999970092774,0|0,1:0|0:0,0:0:0:0:
294,201,84911,2,0,L|279:312,1,97.9999970092774,0|0,1:0|0:0,0:0:0:0:
47,69,85244,6,0,P|75:20|137:6,1,97.9999970092774,0|0,1:0|0:0,0:0:0:0:
146,191,85578,2,0,L|42:179,1,97.9999970092774,0|0,1:0|0:0,0:0:0:0:
292,148,85911,1,2,1:2:0:0:
102,283,86078,1,2,0:2:0:0:
128,84,86244,1,2,1:2:0:0:
266,347,86411,1,2,0:2:0:0:
364,100,86578,6,0,P|321:65|227:93,1,146.999995513916,4|0,1:2|0:0,0:0:0:0:
224,100,86911,1,0,1:0:0:0:
294,230,87078,1,0,1:0:0:0:
364,100,87244,1,0,1:0:0:0:
224,100,87411,1,0,1:0:0:0:
374,206,87578,1,0,1:0:0:0:
291,39,87744,1,0,1:0:0:0:
157,166,87911,6,0,L|173:280,1,97.9999970092774,0|0,1:0|1:0,0:0:0:0:
387,303,88244,2,0,L|373:205,1,97.9999970092774,0|0,1:0|1:0,0:0:0:0:
241,43,88578,5,0,1:0:0:0:
80,215,88744,1,0,1:0:0:0:
246,209,88911,1,0,1:0:0:0:
74,48,89077,1,4,1:2:0:0:
