osu file format v14

[General]
AudioFilename: hanatan.mp3
AudioLeadIn: 0
PreviewTime: 56494
Countdown: 0
SampleSet: Soft
StackLeniency: 0.6
Mode: 0
LetterboxInBreaks: 0
WidescreenStoryboard: 0

[Editor]
DistanceSpacing: 1.6
BeatDivisor: 4
GridSize: 4
TimelineZoom: 1

[Metadata]
Title:Junshin Always
TitleUnicode:純真Always
Artist:Azusa Tadokoro
ArtistUnicode:田所あずさ
Creator:handsome
Version:Hard
Source:無彩限のファントム・ワールド
Tags:myriad colors phantom world colours musaigen no tv size opening anime kawakami mai izumi reina ichijou haruhiko
BeatmapID:874745
BeatmapSetID:402187

[Difficulty]
HPDrainRate:5.5
CircleSize:4
OverallDifficulty:6.5
ApproachRate:8
SliderMultiplier:1.4
SliderTickRate:1

[Events]
//Background and Video events
Video,-50,"hanatan.flv"
0,0,"hanatan.jpg",0,0
//Break Periods
//Storyboard Layer 0 (Background)
//Storyboard Layer 1 (Fail)
//Storyboard Layer 2 (Pass)
//Storyboard Layer 3 (Foreground)
//Storyboard Sound Samples

[TimingPoints]
1245,333.333333333333,4,2,1,55,1,0
1245,-166.666666666667,4,2,1,55,0,0
1911,-166.666666666667,4,2,1,30,0,0
2578,-166.666666666667,4,2,1,55,0,0
3244,-166.666666666667,4,2,1,30,0,0
3911,-166.666666666667,4,2,1,55,0,0
4578,-166.666666666667,4,2,1,30,0,0
5244,-125,4,2,1,50,0,0
6578,-100,4,2,1,50,0,0
6911,-100,4,2,1,35,0,0
7244,-100,4,2,1,45,0,0
7578,-100,4,2,1,55,0,0
7911,-100,4,2,1,65,0,0
9244,-100,4,2,1,65,0,0
18744,-100,4,2,1,45,0,0
19911,-125,4,2,1,45,0,0
25244,-100,4,2,1,60,0,0
30578,-125,4,2,1,45,0,0
35911,-100,4,2,1,60,0,0
57244,-83.3333333333333,4,2,1,65,0,0
77911,-83.3333333333333,4,2,1,45,0,0
78578,-83.3333333333333,4,2,1,60,0,0
83911,-83.3333333333333,4,2,1,70,0,0
86911,-83.3333333333333,4,2,1,50,0,0
87911,-83.3333333333333,4,2,1,60,0,0
88578,-83.3333333333333,4,2,1,70,0,0

[Colours]
Combo1 : 94,174,255
Combo2 : 138,248,126
Combo3 : 255,164,233
Combo4 : 255,215,130

[HitObjects]
115,182,1245,6,0,P|159:146|127:198,1,167.999994873047,4|0,0:0|0:0,0:0:0:0:
103,71,2578,2,0,P|170:63|248:139,1,167.999994873047,4|0,0:0|0:0,0:0:0:0:
355,8,3911,2,0,L|346:186,1,167.999994873047,4|0,0:0|0:0,0:0:0:0:
268,296,5244,6,0,L|350:292,1,56,4|0,0:0|0:0,0:0:0:0:
434,316,5578,2,0,L|389:246,1,56,4|0,0:0|0:0,0:0:0:0:
369,163,5911,2,0,L|331:236,1,56,4|0,0:0|0:0,0:0:0:0:
264,211,6244,2,0,L|219:213,3,28,8|8|8|8,0:3|0:3|0:3|0:3,0:0:0:0:
192,236,6578,6,0,P|181:206|156:178,1,70,4|0,0:0|0:0,0:0:0:0:
75,120,6911,2,0,L|-15:128,1,70,8|0,0:3|0:0,0:0:0:0:
127,33,7244,2,0,L|217:41,1,70,8|0,0:3|0:0,0:0:0:0:
296,16,7578,2,0,P|332:37|352:80,1,70,8|0,0:3|0:0,0:0:0:0:
304,153,7911,5,8,1:3:0:0:
304,153,8078,1,0,1:3:0:0:
419,299,8578,2,0,L|381:305,7,35,2|0|0|0|8|8|8|8,0:0|0:0|0:0|0:0|0:3|0:3|0:3|0:3,0:0:0:0:
343,284,9244,6,0,L|250:282,1,70,4|0,1:2|0:0,0:0:0:0:
187,332,9578,2,0,L|94:334,1,70,8|0,1:2|0:0,0:0:0:0:
14,281,9911,2,0,P|7:315|19:348,1,70,0|0,1:0|0:0,0:0:0:0:
101,241,10244,2,0,P|108:207|96:174,1,70,8|0,1:2|0:0,0:0:0:0:
18,87,10578,6,0,P|63:60|154:76,1,140,0|8,1:0|1:2,0:0:0:0:
241,44,11078,1,0,0:0:0:0:
241,44,11161,1,0,0:0:0:0:
241,44,11244,2,0,L|252:130,1,70,0|0,1:0|0:0,0:0:0:0:
330,242,11578,2,0,L|319:156,1,70,8|0,1:2|0:0,0:0:0:0:
200,209,11911,6,0,P|156:187|115:195,1,70,0|0,1:0|0:0,0:0:0:0:
61,260,12244,2,0,L|71:354,1,70,8|0,1:2|0:0,0:0:0:0:
196,297,12578,2,0,P|247:284|269:258,1,70,0|0,1:0|0:0,0:0:0:0:
329,350,12911,2,0,L|432:355,1,70,8|0,1:2|0:0,0:0:0:0:
512,357,13244,5,0,1:0:0:0:
512,357,13411,1,0,0:0:0:0:
489,240,13578,2,0,L|386:245,1,70,4|0,1:2|0:0,0:0:0:0:
331,216,13911,2,0,L|341:183,3,35,8|8|8|8,3:0|3:0|3:0|3:0,0:0:0:0:
347,134,14244,2,0,L|337:100,3,35,8|8|8|0,3:0|3:0|3:0|0:0,0:0:0:0:
316,55,14578,6,0,P|266:36|226:53,1,70,4|0,1:2|0:0,0:0:0:0:
154,20,14911,2,0,L|51:27,1,70,8|0,1:2|0:0,0:0:0:0:
195,169,15244,2,0,L|298:162,1,70,0|0,1:0|0:0,0:0:0:0:
117,131,15578,2,0,P|107:175|122:218,1,70,8|0,1:2|0:0,0:0:0:0:
191,263,15911,6,0,P|142:295|51:280,1,140,0|8,1:0|1:2,0:0:0:0:
0,213,16411,1,0,0:0:0:0:
75,132,16578,2,0,L|70:45,1,70,0|0,1:0|0:0,0:0:0:0:
170,163,16911,2,0,P|231:180|268:171,1,70,8|0,1:2|0:0,0:0:0:0:
371,135,17244,6,0,L|280:130,1,70,0|0,1:0|0:0,0:0:0:0:
335,30,17578,2,0,L|426:25,1,70,4|0,1:2|0:0,0:0:0:0:
483,97,17911,5,0,1:0:0:0:
489,195,18078,1,0,1:0:0:0:
432,274,18244,1,0,1:0:0:0:
334,281,18411,1,0,1:0:0:0:
253,224,18578,1,0,1:0:0:0:
253,224,18744,6,0,L|150:222,1,70,2|2,0:2|0:2,0:0:0:0:
26,34,19244,2,0,L|129:32,1,70,2|2,0:2|0:2,0:0:0:0:
178,91,19578,2,0,L|231:83,3,35,8|8|8|8,0:3|0:3|0:3|0:3,0:3:0:0:
255,79,19911,6,0,L|267:201,1,112,4|0,1:2|1:0,0:0:0:0:
276,268,20411,1,0,0:0:0:0:
339,221,20578,2,0,P|404:232|449:195,1,112,0|0,1:0|1:0,0:0:0:0:
382,154,21078,1,0,0:0:0:0:
435,97,21244,6,0,L|442:26,1,56,0|0,1:0|0:0,0:0:0:0:
366,12,21578,2,0,L|360:67,1,56,0|0,1:0|0:0,0:0:0:0:
283,84,21911,2,0,L|290:13,1,56,0|0,1:0|0:0,0:0:0:0:
214,0,22245,2,0,L|208:55,1,56,0|0,1:0|0:0,0:0:0:0:
101,117,22578,6,0,L|112:236,1,112,4|0,1:2|1:0,0:0:0:0:
123,306,23078,1,0,0:0:0:0:
163,372,23244,2,0,P|92:379|53:341,1,112,0|0,1:0|1:0,0:0:0:0:
43,280,23744,1,0,0:0:0:0:
111,228,23911,6,0,L|174:223,1,56,4|0,1:2|0:0,0:0:0:0:
236,259,24244,2,0,L|291:263,1,56,4|0,1:2|0:0,0:0:0:0:
332,176,24578,2,0,L|387:171,1,56,4|0,1:2|0:0,0:0:0:0:
463,228,24911,1,8,1:2:0:0:
343,372,25244,6,0,L|191:367,1,140,4|8,1:2|1:2,0:0:0:0:
116,320,25744,1,0,0:0:0:0:
224,269,25911,2,0,P|238:227|174:142,1,140,0|8,1:0|1:2,0:0:0:0:
111,203,26411,1,0,0:0:0:0:
54,108,26578,6,0,L|63:18,1,70,0|0,1:0|0:0,0:0:0:0:
159,35,26911,2,0,P|198:15|246:28,1,70,8|0,1:2|0:0,0:0:0:0:
287,91,27244,2,0,L|373:102,1,70,0|0,1:0|0:0,0:0:0:0:
416,178,27578,2,0,P|427:218|411:259,1,70,8|0,1:2|0:0,0:0:0:0:
326,318,27911,5,0,1:0:0:0:
335,218,28078,1,0,0:0:0:0:
246,259,28244,2,0,L|158:247,1,70,8|0,1:2|0:0,0:0:0:0:
78,241,28578,2,0,P|57:281|46:328,2,70,0|0|8,1:0|0:0|1:2,0:0:0:0:
140,165,29078,1,0,0:0:0:0:
75,56,29244,6,0,P|125:34|212:59,1,140,0|4,1:0|1:2,0:0:0:0:
246,145,29744,1,0,0:0:0:0:
246,145,29828,1,0,0:0:0:0:
246,145,29911,1,0,1:0:0:0:
349,169,30078,2,0,L|447:156,2,70,0|0|0,0:0|1:0|1:0,0:0:0:0:
282,248,30578,6,0,L|154:237,1,112,4|0,1:2|1:0,0:0:0:0:
92,228,31078,1,0,0:0:0:0:
35,282,31244,2,0,P|28:346|79:370,1,112,0|0,1:0|1:0,0:0:0:0:
131,332,31744,1,0,0:0:0:0:
199,369,31911,6,0,L|264:364,1,56,0|0,1:0|0:0,0:0:0:0:
332,373,32244,2,0,L|327:308,1,56,0|0,1:0|0:0,0:0:0:0:
336,240,32578,2,0,L|271:245,1,56,0|0,1:0|0:0,0:0:0:0:
203,236,32911,2,0,L|208:301,1,56,0|0,1:0|0:0,0:0:0:0:
254,364,33244,6,0,P|296:372|371:327,1,112,4|0,1:2|1:0,0:0:0:0:
405,282,33744,1,0,0:0:0:0:
483,290,33911,2,0,L|495:158,1,112,0|0,1:0|1:0,0:0:0:0:
501,100,34411,1,0,0:0:0:0:
446,43,34578,6,0,P|403:31|374:35,1,56,4|0,1:2|0:0,0:0:0:0:
301,4,34911,2,0,P|269:35|258:62,1,56,4|0,1:2|0:0,0:0:0:0:
194,110,35244,2,0,P|205:153|223:176,1,56,4|8,1:2|0:3,0:0:0:0:
300,170,35578,1,8,0:3:0:0:
285,265,35744,1,8,0:3:0:0:
285,265,35828,1,8,0:3:0:0:
285,265,35911,6,0,L|436:284,1,140,4|8,1:2|1:2,0:0:0:0:
508,231,36411,1,0,0:0:0:0:
510,329,36578,2,0,P|474:364|373:359,1,140,0|8,1:0|1:2,0:0:0:0:
315,301,37078,1,0,0:0:0:0:
232,367,37244,6,0,L|155:375,1,70,0|0,1:0|0:0,0:0:0:0:
25,323,37578,2,0,L|94:315,1,70,8|0,1:2|0:0,0:0:0:0:
221,237,37911,2,0,L|144:245,1,70,0|0,1:0|0:0,0:0:0:0:
14,193,38245,2,0,L|83:185,1,70,8|0,1:2|0:0,0:0:0:0:
127,78,38578,5,0,1:2:0:0:
211,126,38744,1,0,0:0:0:0:
290,68,38911,2,0,P|340:67|380:85,1,70,8|0,1:2|0:0,0:0:0:0:
456,67,39244,2,0,L|453:164,1,70,0|0,1:0|0:0,0:0:0:0:
453,136,39494,1,0,0:0:0:0:
453,136,39578,1,8,1:2:0:0:
493,226,39744,6,0,B|447:256|447:256|337:226,1,140,4|0,1:2|1:0,0:0:0:0:
284,170,40244,1,0,1:0:0:0:
284,170,40411,2,0,P|249:209|239:250,1,70,0|0,1:0|1:0,0:0:0:0:
241,336,40744,2,0,L|203:354,5,35,8|8|8|8|8|8,0:3|0:3|0:3|0:3|0:3|0:3,0:0:0:0:
168,337,41244,5,4,1:2:0:0:
3,304,41578,1,0,1:0:0:0:
35,138,41911,1,4,1:2:0:0:
202,171,42244,1,0,1:0:0:0:
233,19,42578,2,0,P|303:44|398:25,2,140,0|0|0,1:0|1:0|1:0,0:0:0:0:
363,164,43578,1,0,1:0:0:0:
212,204,43911,6,0,L|220:115,1,70,0|0,1:0|0:0,0:0:0:0:
133,89,44244,2,0,L|126:158,1,70,0|0,1:0|0:0,0:0:0:0:
131,256,44578,2,0,P|69:274|37:258,1,70,0|0,1:0|0:0,0:0:0:0:
212,204,44911,2,0,P|274:186|306:202,1,70,0|0,1:0|0:0,0:0:0:0:
334,285,45244,2,0,P|373:250|379:146,1,140,0|0,1:0|1:0,0:0:0:0:
336,74,45744,1,0,0:0:0:0:
237,113,45911,2,0,L|152:119,1,70,0|0,1:0|0:0,0:0:0:0:
5,54,46244,2,0,L|74:49,1,70,4|0,1:2|0:0,0:0:0:0:
35,173,46578,6,0,P|27:253|69:308,1,140,0|8,1:0|0:2,0:0:0:0:
161,323,47078,2,0,L|169:367,2,35,0|0|0,0:0|0:0|1:0,0:0:0:0:
199,225,47411,2,0,L|192:190,2,35,0|0|8,0:0|0:0|0:2,0:0:0:0:
272,305,47744,2,0,L|280:349,2,35,0|0|0,0:0|0:0|1:0,0:0:0:0:
310,207,48077,2,0,L|303:172,2,35,0|0|8,0:0|0:0|0:2,0:0:0:0:
380,285,48411,1,0,0:0:0:0:
445,214,48578,2,0,L|441:169,3,35,8|8|8|8,0:3|0:3|0:3|0:3,0:0:0:0:
463,140,48911,2,0,L|466:95,3,35,8|8|8|8,0:3|0:3|0:3|0:3,0:0:0:0:
432,71,49244,6,0,P|395:43|295:56,1,140,4|0,0:0|1:0,0:0:0:0:
236,127,49744,1,0,0:0:0:0:
304,201,49911,2,0,L|315:279,1,70,0|0,1:0|0:0,0:0:0:0:
207,304,50244,2,0,L|216:234,1,70,0|0,1:0|0:0,0:0:0:0:
236,127,50578,2,0,P|277:104|327:115,2,70,0|0|4,1:0|0:0|1:2,0:0:0:0:
148,186,51078,1,0,0:0:0:0:
54,139,51244,1,0,1:0:0:0:
61,243,51411,1,8,0:3:0:0:
61,243,51494,1,8,0:3:0:0:
61,243,51578,2,0,L|50:307,3,35,8|8|8|8,0:3|0:3|0:3|0:3,0:0:0:0:
44,329,51911,6,0,L|144:324,1,70,0|0,0:0|0:0,0:0:0:0:
223,258,52244,2,0,P|241:224|242:185,1,70,4|0,1:2|0:0,0:0:0:0:
407,172,52578,2,0,L|307:167,1,70,0|0,0:0|0:0,0:0:0:0:
228,101,52911,2,0,P|210:67|209:28,1,70,4|0,1:2|0:0,0:0:0:0:
127,136,53244,2,0,P|120:193|33:243,1,140,8|8,0:3|0:3,0:0:0:0:
32,146,53744,1,8,0:3:0:0:
73,47,53911,2,0,L|130:34,3,35,12|8|8|8,0:3|0:3|0:3|0:3,0:0:0:0:
157,52,54244,2,0,L|191:59,3,35,8|8|8|8,0:3|0:3|0:3|0:3,0:0:0:0:
237,32,54578,6,0,L|385:22,1,140,4|0,1:2|0:0,0:0:0:0:
458,118,55078,2,0,L|310:108,1,140,4|0,1:2|0:0,0:0:0:0:
282,198,55578,2,0,L|351:193,1,70,4|0,1:2|0:0,0:0:0:0:
410,281,55911,2,0,L|341:276,1,70,4|0,1:2|0:0,0:0:0:0:
320,363,56244,2,0,L|367:359,3,35,8|8|8|8,0:3|0:3|0:3|0:3,0:0:0:0:
395,369,56578,2,0,P|453:359|476:331,1,70,2|2,0:2|0:2,0:0:0:0:
475,265,56911,2,0,P|417:275|394:303,1,70,2|2,0:2|0:2,0:0:0:0:
320,363,57244,6,0,L|137:349,1,167.999994873047,4|8,1:2|1:2,0:0:0:0:
52,335,57744,1,0,0:0:0:0:
120,260,57911,2,0,P|138:212|133:169,1,83.9999974365235,0|0,1:0|0:0,0:0:0:0:
25,77,58244,2,0,P|7:125|12:168,1,83.9999974365235,8|0,1:2|0:0,0:0:0:0:
199,90,58578,6,0,L|101:96,2,83.9999974365235,0|0|8,1:0|0:0|1:2,0:0:0:0:
299,84,59078,1,0,0:0:0:0:
261,177,59244,2,0,L|270:260,1,83.9999974365235,0|0,1:0|0:0,0:0:0:0:
376,321,59578,2,0,L|366:237,1,83.9999974365235,8|0,1:2|0:0,0:0:0:0:
442,170,59911,6,0,P|421:123|494:34,1,167.999994873047,0|8,1:0|1:2,0:0:0:0:
350,53,60411,1,0,0:0:0:0:
350,53,60578,2,0,L|256:44,1,83.9999974365235,0|0,1:0|0:0,0:0:0:0:
148,13,60911,2,0,P|90:28|58:62,1,83.9999974365235,8|0,1:2|0:0,0:0:0:0:
57,192,61244,5,0,1:0:0:0:
57,192,61411,1,0,0:0:0:0:
146,144,61578,1,8,1:2:0:0:
146,144,61745,1,0,0:0:0:0:
217,216,61911,2,0,B|258:208|258:208|312:221,1,83.9999974365235,0|0,1:0|0:0,0:0:0:0:
426,259,62244,1,8,0:3:0:0:
411,124,62410,1,8,0:3:0:0:
411,124,62494,1,8,0:3:0:0:
411,124,62578,6,0,L|312:101,1,83.9999974365235,0|0,1:0|0:0,0:0:0:0:
187,72,62911,1,4,1:2:0:0:
254,292,63244,6,0,L|323:217,1,83.9999974365235,0|0,1:0|0:0,0:0:0:0:
411,124,63577,1,4,1:2:0:0:
186,72,63911,6,0,L|216:169,1,83.9999974365235,0|0,1:0|0:0,0:0:0:0:
254,292,64244,2,0,L|284:389,1,83.9999974365235,4|0,1:2|0:0,0:0:0:0:
432,366,64578,2,0,L|444:317,3,41.9999987182618,0|0|8|8,1:0|0:0|0:3|0:3,0:0:0:0:
466,288,64911,2,0,L|454:239,3,41.9999987182618,8|8|8|8,1:2|0:3|0:3|0:3,0:0:0:0:
441,200,65244,6,0,L|340:195,1,83.9999974365235,4|0,1:2|0:0,0:0:0:0:
237,143,65578,2,0,P|222:100|237:48,1,83.9999974365235,8|0,1:2|0:0,0:0:0:0:
279,245,65911,2,0,L|191:265,1,83.9999974365235,0|0,1:0|0:0,0:0:0:0:
65,176,66244,2,0,P|126:178|165:211,1,83.9999974365235,8|0,1:2|0:0,0:0:0:0:
55,373,66578,6,0,L|68:274,1,83.9999974365235,0|0,1:0|0:0,0:0:0:0:
197,263,66911,2,0,L|186:346,1,83.9999974365235,8|0,1:2|0:0,0:0:0:0:
317,319,67244,2,0,L|323:267,7,41.9999987182618,4|0|0|0|8|8|8|8,1:2|0:0|0:3|0:0|0:3|0:3|0:3|0:3,0:0:0:0:
328,231,67911,6,0,P|350:181|465:169,1,167.999994873047,4|8,1:2|1:2,0:0:0:0:
501,250,68411,1,0,0:0:0:0:
436,348,68578,2,0,L|332:333,1,83.9999974365235,0|0,1:0|0:0,0:0:0:0:
226,373,68911,2,0,P|168:360|138:325,1,83.9999974365235,8|0,1:2|0:0,0:0:0:0:
42,270,69244,6,0,L|16:368,2,83.9999974365235,0|0|8,1:0|0:0|1:2,0:0:0:0:
73,174,69744,1,0,0:0:0:0:
154,233,69911,2,0,L|237:224,1,83.9999974365235,0|0,1:0|0:0,0:0:0:0:
303,101,70244,2,0,L|219:109,1,83.9999974365235,8|0,1:2|0:0,0:0:0:0:
73,174,70578,6,0,P|49:117|123:45,1,167.999994873047,0|8,1:0|1:2,0:0:0:0:
205,4,71078,1,0,0:0:0:0:
205,4,71244,2,0,L|319:18,1,83.9999974365235,0|0,1:0|0:0,0:0:0:0:
407,15,71578,2,0,P|398:70|419:111,1,83.9999974365235,8|0,1:2|0:0,0:0:0:0:
493,148,71911,6,0,L|484:249,1,83.9999974365235,0|0,1:0|0:0,0:0:0:0:
398,357,72244,2,0,L|387:171,1,167.999994873047,4|0,1:2|1:0,0:0:0:0:
289,103,72744,1,8,0:3:0:0:
289,103,72828,1,8,0:3:0:0:
289,103,72911,2,0,L|280:204,1,83.9999974365235,8|0,1:2|1:0,0:0:0:0:
208,262,73244,6,0,P|251:289|308:286,1,83.9999974365235,4|0,1:2|0:0,0:0:0:0:
185,161,73578,2,0,P|142:134|85:137,1,83.9999974365235,8|0,1:2|0:0,0:0:0:0:
40,248,73911,2,0,L|133:235,1,83.9999974365235,0|0,1:0|0:0,0:0:0:0:
62,60,74244,2,0,P|28:99|25:142,1,83.9999974365235,8|0,1:2|0:0,0:0:0:0:
185,161,74578,6,0,P|251:138|335:210,1,167.999994873047,0|4,1:0|1:2,0:0:0:0:
306,288,75078,1,0,0:0:0:0:
401,258,75244,2,0,L|492:249,1,83.9999974365235,0|0,1:0|0:0,0:0:0:0:
403,117,75578,2,8,L|336:113,3,41.9999987182618,8|8|8|8,1:3|0:3|0:3|0:3,0:3:0:0:
335,112,75911,6,0,P|307:68|299:32,1,83.9999974365235,4|0,1:2|0:0,0:0:0:0:
247,195,76244,2,0,P|275:239|283:275,1,83.9999974365235,0|0,1:0|0:0,0:0:0:0:
142,116,76578,2,0,L|238:99,1,83.9999974365235,0|0,1:0|0:0,0:0:0:0:
178,275,76911,2,0,L|82:258,1,83.9999974365235,4|0,1:2|0:0,0:0:0:0:
1,194,77244,5,4,1:0:0:0:
121,42,77911,2,0,L|137:82,7,41.9999987182618,8|8|8|8|8|8|8|8,0:3|0:3|0:3|0:3|0:3|0:3|0:3|0:3,0:0:0:0:
157,120,78578,6,0,P|218:134|267:104,1,83.9999974365235,4|0,1:2|0:0,0:0:0:0:
236,227,78911,2,0,P|295:210|325:161,1,83.9999974365235,0|0,1:0|0:0,0:0:0:0:
357,280,79244,2,0,P|399:235|401:178,1,83.9999974365235,0|0,1:0|0:0,0:0:0:0:
489,265,79578,2,0,P|503:205|476:154,1,83.9999974365235,0|0,1:0|0:0,0:0:0:0:
405,71,79911,6,0,L|292:80,1,83.9999974365235,0|0,1:0|0:0,0:0:0:0:
226,43,80244,2,0,L|113:52,1,83.9999974365235,0|0,1:0|0:0,0:0:0:0:
65,116,80578,1,2,1:2:0:0:
65,116,80744,1,2,0:2:0:0:
114,203,80911,1,2,1:2:0:0:
114,203,81078,1,2,0:2:0:0:
44,274,81244,6,0,L|56:362,1,83.9999974365235,0|0,1:0|0:0,0:0:0:0:
149,227,81578,2,0,L|137:315,1,83.9999974365235,0|0,1:0|0:0,0:0:0:0:
262,208,81911,2,0,L|228:290,1,83.9999974365235,0|0,1:0|0:0,0:0:0:0:
376,219,82244,2,0,L|322:289,1,83.9999974365235,0|0,1:0|0:0,0:0:0:0:
264,367,82578,5,0,1:0:0:0:
264,367,82744,1,0,0:0:0:0:
364,377,82911,1,0,1:0:0:0:
364,377,83078,1,0,0:0:0:0:
448,322,83244,2,0,P|467:270|447:208,1,83.9999974365235,0|0,1:0|0:0,0:0:0:0:
439,71,83578,2,0,P|420:123|440:185,1,83.9999974365235,4|0,1:2|0:0,0:0:0:0:
370,261,83911,6,0,L|262:270,1,83.9999974365235,4|0,1:2|0:0,0:0:0:0:
149,341,84244,2,0,L|140:233,1,83.9999974365235,0|0,1:0|0:0,0:0:0:0:
69,120,84578,2,0,L|177:111,1,83.9999974365235,0|0,1:0|0:0,0:0:0:0:
290,40,84911,2,0,L|299:148,1,83.9999974365235,0|0,1:0|0:0,0:0:0:0:
269,267,85244,6,0,P|316:274|363:252,1,83.9999974365235,0|0,1:0|0:0,0:0:0:0:
217,181,85578,2,0,P|169:173|122:195,1,83.9999974365235,0|0,1:0|0:0,0:0:0:0:
68,259,85911,1,2,1:2:0:0:
68,259,86078,1,2,0:2:0:0:
38,162,86244,1,2,1:2:0:0:
38,162,86411,1,2,0:2:0:0:
105,87,86578,6,0,L|273:102,1,167.999994873047,4|0,1:2|1:0,0:0:0:0:
378,43,87078,1,0,1:0:0:0:
441,121,87244,2,0,L|451:212,1,83.9999974365235,0|0,1:0|1:0,0:0:0:0:
373,304,87578,2,0,L|363:220,1,83.9999974365235,0|0,1:0|1:0,0:0:0:0:
272,101,87911,2,0,L|282:192,1,83.9999974365235,0|0,1:0|1:0,0:0:0:0:
216,327,88244,2,0,L|206:236,1,83.9999974365235,0|0,1:0|1:0,0:0:0:0:
168,137,88578,5,0,1:0:0:0:
117,223,88744,1,0,1:0:0:0:
43,121,88911,1,0,1:0:0:0:
0,247,89078,1,4,1:2:0:0:
