osu file format v14

[General]
AudioFilename: hanatan.mp3
AudioLeadIn: 0
PreviewTime: 56494
Countdown: 0
SampleSet: Soft
StackLeniency: 0.3
Mode: 0
LetterboxInBreaks: 0
WidescreenStoryboard: 1

[Editor]
DistanceSpacing: 1.6
BeatDivisor: 4
GridSize: 4
TimelineZoom: 1

[Metadata]
Title:Junshin Always
TitleUnicode:純真Always
Artist:Azusa Tadokoro
ArtistUnicode:田所あずさ
Creator:handsome
Version:Extra
Source:無彩限のファントム・ワールド
Tags:myriad colors phantom world colours musaigen no tv size opening anime kawakami mai izumi reina ichijou haruhiko
BeatmapID:876708
BeatmapSetID:402187

[Difficulty]
HPDrainRate:7.5
CircleSize:4
OverallDifficulty:9
ApproachRate:9.2
SliderMultiplier:1.4
SliderTickRate:1

[Events]
//Background and Video events
Video,-50,"hanatan.flv"
0,0,"hanatan.jpg",0,0
//Break Periods
//Storyboard Layer 0 (Background)
//Storyboard Layer 1 (Fail)
//Storyboard Layer 2 (Pass)
//Storyboard Layer 3 (Foreground)
//Storyboard Sound Samples

[TimingPoints]
1245,333.333333333333,4,2,1,55,1,0
1245,-166.666666666667,4,2,1,55,0,0
1911,-166.666666666667,4,2,1,30,0,0
2578,-166.666666666667,4,2,1,55,0,0
3244,-166.666666666667,4,2,1,30,0,0
3911,-166.666666666667,4,2,1,55,0,0
4578,-166.666666666667,4,2,1,30,0,0
5244,-100,4,2,1,50,0,0
6911,-125,4,2,1,35,0,0
7244,-125,4,2,1,45,0,0
7578,-125,4,2,1,55,0,0
7911,-125,4,2,1,65,0,0
8578,-83.3333333333333,4,2,1,65,0,0
18744,-83.3333333333333,4,2,1,45,0,0
19911,-100,4,2,1,45,0,0
25244,-83.3333333333333,4,2,1,60,0,0
30578,-100,4,2,1,45,0,0
35911,-83.3333333333333,4,2,1,60,0,0
51911,-62.5,4,2,1,60,0,0
54578,-71.4285714285714,4,2,1,60,0,0
57244,-71.4285714285714,4,2,1,65,0,0
72244,-62.5,4,2,1,75,0,0
77911,-62.5,4,2,1,45,0,0
78578,-71.4285714285714,4,2,1,60,0,0
83911,-71.4285714285714,4,2,1,70,0,0
86911,-71.4285714285714,4,2,1,50,0,0
87911,-71.4285714285714,4,2,1,60,0,0
88578,-71.4285714285714,4,2,1,70,0,0

[Colours]
Combo1 : 94,174,255
Combo2 : 138,248,126
Combo3 : 255,164,233
Combo4 : 255,215,130

[HitObjects]
71,119,1245,6,0,B|181:72|181:72|228:98,1,167.999994873047,4|0,0:0|0:0,0:0:0:0:
361,304,2578,6,0,P|386:247|375:308,1,167.999994873047,4|0,0:0|0:0,0:0:0:0:
125,229,3911,6,0,B|153:294|86:341|86:341|64:291,1,167.999994873047,4|0,0:0|0:0,0:0:0:0:
190,58,5244,6,0,P|235:63|285:49,1,70,4|0,0:0|0:0,0:0:0:0:
143,165,5578,2,0,P|124:123|87:87,1,70,4|0,0:0|0:0,0:0:0:0:
260,153,5911,2,0,P|233:189|220:239,1,70,4|0,0:0|0:0,0:0:0:0:
225,342,6244,1,8,0:3:0:0:
259,345,6327,1,8,0:3:0:0:
294,348,6410,1,8,0:3:0:0:
329,351,6493,1,8,0:3:0:0:
364,355,6577,5,4,0:0:0:0:
364,355,6744,1,0,0:0:0:0:
302,206,6911,5,8,0:3:0:0:
302,206,7078,1,0,0:0:0:0:
225,342,7244,5,8,0:3:0:0:
225,342,7411,1,0,0:0:0:0:
167,131,7578,5,8,0:3:0:0:
167,131,7745,1,0,0:0:0:0:
19,284,7911,5,8,1:3:0:0:
372,188,8078,1,0,1:3:0:0:
372,188,8578,6,0,L|378:161,6,20.9999993591309,2|0|0|0|0|0|0,0:0|0:0|0:0|0:0|0:0|0:0|0:0,0:0:0:0:
332,269,8911,1,8,0:3:0:0:
292,283,8994,1,8,0:3:0:0:
251,281,9077,1,8,0:3:0:0:
214,262,9161,1,8,0:3:0:0:
187,230,9244,6,0,L|202:93,1,125.999996154785,4|0,1:2|0:0,0:0:0:0:
205,71,9578,1,8,1:2:0:0:
280,186,9744,1,0,0:0:0:0:
280,186,9828,1,0,0:0:0:0:
280,186,9911,1,0,1:0:0:0:
101,87,10078,1,0,0:0:0:0:
320,23,10244,2,0,B|334:69|334:69|318:128,1,83.9999974365235,8|0,1:2|0:0,0:0:0:0:
58,203,10578,6,0,L|175:195,1,83.9999974365235,0|0,1:0|0:0,0:0:0:0:
280,186,10911,1,8,1:2:0:0:
137,360,11078,1,0,0:0:0:0:
137,360,11161,1,0,0:0:0:0:
137,360,11244,2,0,B|157:303|157:303|138:176,1,167.999994873047,0|8,1:0|1:2,0:0:0:0:
124,106,11744,1,0,0:0:0:0:
253,354,11911,6,0,L|395:359,1,125.999996154785,0|0,1:0|0:0,0:0:0:0:
412,360,12244,1,8,1:2:0:0:
279,261,12411,1,0,0:0:0:0:
279,261,12494,1,0,0:0:0:0:
279,261,12578,1,0,1:0:0:0:
483,165,12744,1,0,0:0:0:0:
255,261,12911,2,0,L|246:162,1,83.9999974365235,8|0,1:2|0:0,0:0:0:0:
498,0,13244,6,0,L|490:83,1,83.9999974365235,0|0,1:0|0:0,0:0:0:0:
196,103,13578,2,0,B|235:87|235:87|312:95,1,83.9999974365235,4|0,1:2|0:0,0:0:0:0:
452,319,13911,1,8,3:0:0:0:
431,318,13994,1,8,3:0:0:0:
410,317,14077,1,8,3:0:0:0:
389,317,14161,1,8,3:0:0:0:
368,316,14244,1,8,3:0:0:0:
347,316,14327,1,8,3:0:0:0:
326,315,14411,1,8,3:0:0:0:
305,315,14494,1,0,0:0:0:0:
284,314,14578,6,0,B|291:265|291:265|264:169,1,125.999996154785,4|0,1:2|0:0,0:0:0:0:
256,153,14911,1,8,1:2:0:0:
197,270,15078,1,0,0:0:0:0:
197,270,15161,1,0,0:0:0:0:
197,270,15244,1,0,1:0:0:0:
369,224,15411,1,0,0:0:0:0:
182,93,15578,2,0,P|162:144|173:191,1,83.9999974365235,8|0,1:2|0:0,0:0:0:0:
411,141,15911,6,0,B|348:125|348:125|299:158|299:158|248:152,1,167.999994873047,0|8,1:0|1:2,0:0:0:0:
182,93,16411,1,0,0:0:0:0:
386,307,16578,2,0,L|366:206,1,83.9999974365235,0|0,1:0|0:0,0:0:0:0:
476,318,16911,2,0,P|458:362|407:391,1,83.9999974365235,8|0,1:2|0:0,0:0:0:0:
454,230,17244,5,0,1:0:0:0:
454,230,17411,1,0,0:0:0:0:
256,279,17578,2,0,L|166:270,1,83.9999974365235,4|0,1:2|0:0,0:0:0:0:
53,106,17911,5,0,1:0:0:0:
247,169,18078,1,0,0:0:0:0:
53,232,18244,1,0,1:0:0:0:
173,67,18411,1,0,1:0:0:0:
173,271,18578,1,0,1:0:0:0:
268,78,18744,5,2,0:2:0:0:
268,78,18911,1,2,0:2:0:0:
395,241,19244,5,2,0:2:0:0:
395,241,19411,1,2,0:2:0:0:
465,294,19578,2,0,P|454:311|436:323,1,41.9999987182618,8|0,0:3|0:0,0:0:0:0:
317,189,19744,2,0,P|328:172|346:160,1,41.9999987182618,8|0,0:3|0:0,0:0:0:0:
477,206,19911,5,0,0:0:0:0:
494,51,20078,2,0,L|484:146,1,70,0|0,0:0|1:0,0:0:0:0:
486,120,20411,1,0,0:0:0:0:
314,159,20578,5,0,1:0:0:0:
318,77,20744,1,0,0:0:0:0:
397,168,20911,1,0,1:0:0:0:
402,84,21078,1,0,0:0:0:0:
319,228,21244,6,0,P|310:193|327:133,1,70,0|0,1:0|0:0,0:0:0:0:
378,304,21578,1,0,1:0:0:0:
226,186,21744,2,0,L|153:180,1,70,0|0,0:0|1:0,0:0:0:0:
90,77,22078,2,0,L|163:71,1,70,0|0,0:0|1:0,0:0:0:0:
253,62,22411,1,0,0:0:0:0:
37,146,22578,5,4,1:2:0:0:
24,296,22744,2,0,P|11:260|26:205,1,70,0|0,0:0|1:0,0:0:0:0:
15,230,23078,1,0,0:0:0:0:
195,194,23244,5,0,1:0:0:0:
112,202,23411,1,0,0:0:0:0:
361,179,23578,1,0,1:0:0:0:
278,186,23744,1,0,0:0:0:0:
363,32,23911,6,0,P|333:51|297:56,1,70,4|0,1:2|0:0,0:0:0:0:
454,183,24244,2,0,P|452:147|466:113,1,70,4|0,1:2|0:0,0:0:0:0:
278,186,24578,2,0,P|309:202|331:231,1,70,4|0,1:2|0:0,0:0:0:0:
255,270,24828,1,0,0:0:0:0:
255,270,24911,2,0,L|163:266,1,70,8|0,1:2|0:0,0:0:0:0:
87,72,25244,5,4,1:2:0:0:
184,176,25411,1,0,0:0:0:0:
58,247,25578,2,0,L|77:140,1,83.9999974365235,8|0,1:2|0:0,0:0:0:0:
97,33,25911,2,0,B|140:44|140:44|209:28,1,83.9999974365235,0|0,1:0|0:0,0:0:0:0:
408,82,26244,2,0,B|365:71|365:71|296:87,1,83.9999974365235,8|0,1:2|0:0,0:0:0:0:
178,206,26578,6,0,P|163:146|178:104,1,83.9999974365235,0|0,1:0|0:0,0:0:0:0:
182,314,26911,2,0,P|137:356|93:365,1,83.9999974365235,8|0,1:2|0:0,0:0:0:0:
274,257,27244,2,0,P|333:274|362:308,1,83.9999974365235,0|0,1:0|0:0,0:0:0:0:
383,135,27578,1,8,1:2:0:0:
279,353,27744,1,0,0:0:0:0:
383,135,27911,6,0,L|382:227,1,83.9999974365235,0|0,1:0|0:0,0:0:0:0:
461,296,28244,1,8,1:2:0:0:
411,45,28411,2,8,B|372:39|372:39|331:55,1,83.9999974365235,0|0,0:0|1:0,0:0:0:0:
478,137,28744,5,0,0:0:0:0:
262,213,28911,1,8,1:2:0:0:
461,296,29078,1,0,0:0:0:0:
299,127,29244,1,0,1:0:0:0:
299,341,29411,1,0,1:0:0:0:
383,135,29578,6,0,L|265:124,1,83.9999974365235,4|0,1:2|0:0,0:0:0:0:
215,117,29828,1,0,0:0:0:0:
198,115,29911,1,0,1:0:0:0:
262,213,30078,2,0,L|277:270,2,41.9999987182618,0|0|0,0:0|0:0|1:0,0:0:0:0:
210,24,30411,1,0,1:0:0:0:
173,273,30578,5,4,1:2:0:0:
198,115,30744,2,0,L|185:201,1,70,0|0,0:0|1:0,0:0:0:0:
187,185,31078,1,0,0:0:0:0:
103,136,31244,6,0,L|33:125,1,70,0|0,1:0|0:0,0:0:0:0:
280,171,31578,2,0,L|349:181,1,70,0|0,1:0|0:0,0:0:0:0:
252,82,31911,6,0,P|226:97|202:159,1,70,0|0,1:0|0:0,0:0:0:0:
338,98,32244,1,0,1:0:0:0:
358,250,32411,2,0,L|347:165,1,70,0|0,0:0|1:0,0:0:0:0:
275,318,32744,1,0,0:0:0:0:
216,219,32911,6,0,L|227:134,1,70,0|0,1:0|0:0,0:0:0:0:
237,66,33161,1,0,0:0:0:0:
239,52,33244,5,4,1:2:0:0:
385,28,33411,2,0,P|352:18|296:29,1,70,0|0,0:0|1:0,0:0:0:0:
317,21,33744,1,0,0:0:0:0:
354,175,33911,6,0,L|341:93,1,70,0|0,1:0|0:0,0:0:0:0:
371,271,34244,2,0,L|381:340,1,70,0|0,1:0|0:0,0:0:0:0:
170,345,34578,5,4,1:2:0:0:
88,326,34744,1,0,0:0:0:0:
202,202,34911,5,4,1:2:0:0:
227,283,35078,1,0,0:0:0:0:
63,245,35244,5,4,1:2:0:0:
122,184,35411,1,8,0:3:0:0:
160,202,35494,1,8,0:3:0:0:
202,202,35577,1,8,0:3:0:0:
239,184,35661,1,8,0:3:0:0:
276,165,35745,1,8,0:3:0:0:
318,164,35828,1,8,0:3:0:0:
356,182,35911,5,4,1:2:0:0:
179,106,36078,1,0,0:0:0:0:
295,332,36244,2,0,L|296:241,1,83.9999974365235,8|0,1:2|0:0,0:0:0:0:
272,0,36578,2,0,B|255:41|255:41|266:111,1,83.9999974365235,0|0,1:0|0:0,0:0:0:0:
134,278,36911,2,0,B|151:237|151:237|140:167,1,83.9999974365235,8|0,1:2|0:0,0:0:0:0:
390,144,37244,6,0,P|324:141|279:158,1,83.9999974365235,0|0,1:0|0:0,0:0:0:0:
167,63,37578,2,0,P|197:121|234:152,1,83.9999974365235,8|0,1:2|0:0,0:0:0:0:
209,297,37911,2,0,P|244:241|252:193,1,83.9999974365235,0|0,1:0|0:0,0:0:0:0:
330,63,38244,1,8,1:2:0:0:
351,231,38411,1,0,0:0:0:0:
330,63,38578,6,0,L|231:51,1,83.9999974365235,0|0,1:2|0:0,0:0:0:0:
145,39,38911,1,8,1:2:0:0:
406,123,39078,2,0,P|424:77|418:42,1,83.9999974365235,0|0,0:0|1:0,0:0:0:0:
316,159,39410,1,0,0:0:0:0:
316,159,39494,1,0,0:0:0:0:
316,159,39577,1,8,1:2:0:0:
437,229,39744,6,0,B|367:198|348:271|267:230,1,167.999994873047,4|0,1:2|1:0,0:0:0:0:
404,308,40244,1,0,1:0:0:0:
316,159,40411,1,0,1:0:0:0:
226,314,40578,1,0,1:0:0:0:
137,284,40744,1,8,0:3:0:0:
150,259,40827,1,8,0:3:0:0:
169,239,40910,1,8,0:3:0:0:
194,226,40994,1,8,0:3:0:0:
221,220,41077,1,8,0:3:0:0:
249,222,41160,1,8,0:3:0:0:
275,233,41244,5,4,1:2:0:0:
393,116,41411,1,0,0:0:0:0:
274,64,41578,1,0,1:0:0:0:
393,200,41744,1,0,0:0:0:0:
208,171,41911,5,4,1:2:0:0:
464,160,42078,1,0,0:0:0:0:
283,321,42244,1,0,1:0:0:0:
341,54,42411,1,0,0:0:0:0:
341,54,42494,1,0,0:0:0:0:
341,54,42578,6,0,L|235:47,1,83.9999974365235,0|0,1:0|0:0,0:0:0:0:
13,149,42911,2,0,L|119:142,1,83.9999974365235,0|0,1:0|0:0,0:0:0:0:
168,10,43244,2,0,B|164:70|164:70|190:117|190:117|184:197,1,167.999994873047,0|0,1:0|1:0,0:0:0:0:
173,308,43744,1,0,0:0:0:0:
173,308,43828,1,0,0:0:0:0:
173,308,43911,6,0,L|281:296,1,83.9999974365235,0|0,1:0|0:0,0:0:0:0:
447,341,44244,1,0,1:0:0:0:
360,229,44411,2,0,P|345:179|366:116,1,83.9999974365235,0|0,0:0|1:0,0:0:0:0:
500,127,44744,2,0,P|515:177|494:240,1,83.9999974365235,0|0,0:0|1:0,0:0:0:0:
430,178,45078,1,0,0:0:0:0:
289,81,45244,6,0,B|327:62|327:62|401:67,1,83.9999974365235,0|0,1:0|0:0,0:0:0:0:
500,127,45578,1,0,1:0:0:0:
349,148,45744,1,0,0:0:0:0:
502,43,45911,2,0,L|499:140,1,83.9999974365235,0|0,1:0|0:0,0:0:0:0:
268,249,46244,2,0,L|265:165,1,83.9999974365235,4|0,1:2|0:0,0:0:0:0:
400,277,46578,5,0,1:0:0:0:
127,216,46744,2,0,L|63:212,2,41.9999987182618,0|0|8,0:0|0:0|0:2,0:0:0:0:
349,148,47078,1,0,0:0:0:0:
349,148,47161,1,0,0:0:0:0:
349,148,47244,1,0,1:0:0:0:
139,95,47411,2,0,L|75:91,2,41.9999987182618,0|0|8,0:0|0:0|0:2,0:0:0:0:
298,19,47744,1,0,0:0:0:0:
298,19,47828,1,0,0:0:0:0:
298,19,47911,6,0,L|417:22,1,83.9999974365235,0|0,1:0|0:0,0:0:0:0:
470,27,48161,1,0,0:0:0:0:
493,29,48244,1,8,0:2:0:0:
428,238,48411,2,0,L|420:196,1,41.9999987182618,0|0,0:0|0:0,0:0:0:0:
493,152,48578,5,8,0:3:0:0:
462,123,48661,1,8,0:3:0:0:
422,113,48744,1,8,0:3:0:0:
382,123,48828,1,8,0:3:0:0:
351,151,48911,1,8,0:3:0:0:
320,179,48994,1,8,0:3:0:0:
280,189,49078,1,8,0:3:0:0:
240,179,49161,1,8,0:3:0:0:
210,151,49244,5,4,0:0:0:0:
152,265,49411,1,0,0:0:0:0:
279,101,49578,2,0,B|247:72|247:72|185:68,1,83.9999974365235,0|0,1:0|0:0,0:0:0:0:
122,183,49911,5,0,1:0:0:0:
255,343,50078,1,0,0:0:0:0:
67,254,50244,1,0,1:0:0:0:
280,189,50411,1,0,0:0:0:0:
151,348,50578,2,0,L|152:252,1,83.9999974365235,0|0,1:0|0:0,0:0:0:0:
74,22,50911,6,0,B|57:59|57:59|79:122,1,83.9999974365235,4|0,1:2|0:0,0:0:0:0:
101,178,51161,1,0,0:0:0:0:
101,178,51244,6,0,L|167:170,1,41.9999987182618,0|0,1:0|0:0,0:0:0:0:
192,72,51411,2,0,L|126:64,1,41.9999987182618,8|8,0:3|0:3,0:0:0:0:
211,223,51578,2,0,P|228:174|224:152,1,41.9999987182618,8|8,0:3|0:3,0:0:0:0:
30,227,51744,2,0,P|51:250|78:261,1,41.9999987182618,8|8,0:3|0:3,0:0:0:0:
148,296,51911,5,0,0:0:0:0:
148,296,52078,1,0,0:0:0:0:
115,24,52244,2,0,L|128:142,1,112,4|0,1:2|0:0,0:0:0:0:
330,372,52578,5,0,0:0:0:0:
330,372,52745,1,0,0:0:0:0:
363,100,52911,2,0,L|349:218,1,112,4|0,1:2|0:0,0:0:0:0:
256,256,53244,5,8,0:3:0:0:
247,225,53327,1,8,0:3:0:0:
230,198,53410,1,8,0:3:0:0:
206,177,53494,1,8,0:3:0:0:
177,164,53577,1,8,0:3:0:0:
146,159,53660,1,8,0:3:0:0:
114,164,53744,1,8,0:3:0:0:
86,178,53827,1,8,0:3:0:0:
120,216,53911,5,12,0:3:0:0:
170,212,53994,1,8,0:3:0:0:
206,177,54078,1,8,0:3:0:0:
227,132,54161,1,8,0:3:0:0:
268,103,54244,1,8,0:3:0:0:
318,98,54328,1,8,0:3:0:0:
358,127,54411,1,8,0:3:0:0:
375,174,54494,1,8,0:3:0:0:
346,216,54578,6,0,L|228:207,1,97.9999970092774,4|0,1:2|0:0,0:0:0:0:
97,197,54911,1,0,0:0:0:0:
415,91,55078,6,0,L|297:100,1,97.9999970092774,4|0,1:2|0:0,0:0:0:0:
166,110,55411,1,0,0:0:0:0:
416,276,55578,6,0,B|438:230|438:230|419:141,1,97.9999970092774,4|0,1:2|0:0,0:0:0:0:
166,110,55911,1,4,1:2:0:0:
162,104,55994,1,0,0:0:0:0:
159,99,56077,1,0,0:0:0:0:
157,93,56161,1,0,0:0:0:0:
156,87,56244,1,8,0:3:0:0:
155,81,56327,1,8,0:3:0:0:
155,75,56411,1,8,0:3:0:0:
156,69,56494,1,8,0:3:0:0:
158,63,56578,5,2,0:2:0:0:
124,113,56661,1,0,0:0:0:0:
113,173,56744,1,2,0:2:0:0:
128,232,56828,1,0,0:0:0:0:
165,280,56911,1,2,0:2:0:0:
218,310,56994,1,0,0:0:0:0:
278,316,57078,1,2,0:2:0:0:
336,296,57161,1,0,0:0:0:0:
381,256,57244,6,0,B|396:211|396:211|379:122,1,97.9999970092774,4|0,1:2|0:0,0:0:0:0:
347,15,57578,1,8,1:2:0:0:
209,212,57744,2,0,L|315:204,1,97.9999970092774,0|0,0:0|1:0,0:0:0:0:
87,356,58078,5,0,0:0:0:0:
22,159,58244,1,8,1:2:0:0:
193,346,58411,5,0,0:0:0:0:
222,140,58577,1,0,1:0:0:0:
82,222,58744,5,0,0:0:0:0:
175,214,58911,2,0,B|126:204|126:204|68:226,1,97.9999970092774,8|0,1:2|0:0,0:0:0:0:
206,16,59244,6,0,L|220:127,1,97.9999970092774,0|0,1:0|0:0,0:0:0:0:
480,184,59578,2,0,L|492:86,1,97.9999970092774,8|0,1:2|0:0,0:0:0:0:
352,224,59911,6,0,B|273:187|252:283|158:224,1,195.999994018555,0|8,1:0|1:2,0:0:0:0:
315,299,60411,1,0,0:0:0:0:
170,77,60578,2,0,P|213:135|211:184,1,97.9999970092774,0|0,1:0|0:0,0:0:0:0:
178,275,60911,1,8,1:2:0:0:
221,0,61078,1,0,0:0:0:0:
365,21,61244,5,0,1:0:0:0:
96,51,61411,1,0,0:0:0:0:
411,130,61578,5,8,1:2:0:0:
105,130,61744,1,0,0:0:0:0:
361,240,61911,5,0,1:0:0:0:
113,210,62078,1,0,0:0:0:0:
260,371,62244,6,0,L|253:308,1,48.9999985046387,8|0,0:3|0:3,0:0:0:0:
214,186,62411,1,8,0:3:0:0:
214,186,62494,1,8,0:3:0:0:
214,186,62578,6,0,B|220:240|193:276|193:276|213:248|266:244,1,146.999995513916,0|0,1:0|0:0,0:0:0:0:
378,355,62911,2,0,P|304:368|253:316,1,146.999995513916,4|0,1:2|0:0,0:0:0:0:
302,262,63244,6,0,B|252:240|234:198|234:198|248:230|225:278,1,146.999995513916,0|0,1:0|0:0,0:0:0:0:
73,317,63578,2,0,P|98:246|169:228,1,146.999995513916,4|0,1:2|0:0,0:0:0:0:
193,299,63911,6,0,B|236:266|281:272|281:272|247:268|217:224,1,146.999995513916,0|0,1:0|0:0,0:0:0:0:
259,72,64244,2,0,P|307:129|287:199,1,146.999995513916,4|0,1:2|0:0,0:0:0:0:
227,144,64578,5,0,1:0:0:0:
264,367,64744,1,8,0:3:0:0:
264,367,64828,1,8,0:3:0:0:
264,367,64911,1,8,1:2:0:0:
442,240,65078,1,8,0:3:0:0:
442,240,65161,1,8,0:3:0:0:
442,240,65244,6,0,L|456:358,1,97.9999970092774,4|0,1:2|0:0,0:0:0:0:
430,119,65578,1,8,1:2:0:0:
430,119,65744,1,0,0:0:0:0:
326,168,65911,6,0,L|312:286,1,97.9999970092774,0|0,1:0|0:0,0:0:0:0:
338,47,66245,1,8,1:2:0:0:
338,47,66411,1,0,0:0:0:0:
225,174,66578,5,8,1:2:0:0:
396,116,66744,1,0,0:0:0:0:
223,56,66911,5,8,1:2:0:0:
430,119,67078,1,0,0:0:0:0:
146,262,67244,6,0,P|174:263|211:250,1,48.9999985046387,4|8,1:2|0:3,0:0:0:0:
308,176,67411,2,0,P|283:162|257:133,1,48.9999985046387,8|8,0:3|0:3,0:0:0:0:
73,200,67578,1,8,0:3:0:0:
52,244,67661,1,8,0:3:0:0:
55,292,67744,1,8,0:3:0:0:
82,333,67827,1,8,0:3:0:0:
130,357,67911,6,0,L|272:345,1,97.9999970092774,4|0,1:2|0:0,0:0:0:0:
390,330,68244,1,8,1:2:0:0:
194,168,68411,2,0,B|182:218|182:218|203:279,1,97.9999970092774,0|0,0:0|1:0,0:0:0:0:
456,123,68744,5,0,0:0:0:0:
302,214,68911,1,8,1:2:0:0:
508,273,69078,5,0,0:0:0:0:
274,215,69244,1,0,1:0:0:0:
305,47,69411,5,0,0:0:0:0:
354,262,69578,2,0,B|366:212|366:212|345:151,1,97.9999970092774,8|0,1:2|0:0,0:0:0:0:
130,31,69911,6,0,P|202:15|261:44,1,97.9999970092774,0|0,1:0|0:0,0:0:0:0:
437,130,70244,2,0,P|366:152|330:206,1,97.9999970092774,8|0,1:2|0:0,0:0:0:0:
184,314,70578,6,0,B|175:248|175:248|194:196|194:196|181:85,1,195.999994018555,0|8,1:0|1:2,0:0:0:0:
367,259,71078,2,0,B|321:274|321:274|271:268,1,97.9999970092774,0|0,0:0|1:0,0:0:0:0:
0,193,71411,2,0,B|46:178|46:178|95:183,1,97.9999970092774,0|8,0:0|1:2,0:0:0:0:
193,214,71744,1,0,0:0:0:0:
178,26,71911,2,0,L|185:131,1,97.9999970092774,0|0,1:0|0:0,0:0:0:0:
367,259,72244,6,0,B|497:265|497:265|463:221,1,168,4|0,1:2|0:0,0:0:0:0:
409,175,72578,2,0,P|386:123|417:50,1,112,0|8,1:0|0:3,0:0:0:0:
468,117,72828,1,8,0:3:0:0:
477,125,72911,1,8,1:2:0:0:
317,183,73078,1,0,1:0:0:0:
233,37,73245,5,8,1:2:0:0:
260,264,73410,1,0,0:0:0:0:
217,62,73578,5,8,1:2:0:0:
137,228,73744,1,0,0:0:0:0:
201,87,73912,5,8,1:2:0:0:
448,34,74078,1,0,0:0:0:0:
313,217,74245,5,8,1:2:0:0:
145,28,74411,1,0,0:0:0:0:
371,53,74578,5,8,1:2:0:0:
292,293,74744,1,0,0:0:0:0:
455,145,74911,6,0,L|314:134,1,112,4|0,1:2|0:0,0:0:0:0:
292,293,75244,1,0,1:0:0:0:
292,293,75328,1,0,0:0:0:0:
292,293,75411,1,0,0:0:0:0:
217,203,75577,1,8,0:3:0:0:
189,205,75661,1,8,0:3:0:0:
161,207,75744,1,8,0:3:0:0:
133,209,75827,1,8,0:3:0:0:
106,212,75911,5,4,1:2:0:0:
174,91,76078,1,0,0:0:0:0:
199,334,76244,1,0,1:0:0:0:
255,72,76411,1,0,0:0:0:0:
350,354,76578,1,0,1:0:0:0:
336,53,76744,1,0,0:0:0:0:
336,53,76828,1,0,0:0:0:0:
336,53,76911,1,4,1:2:0:0:
472,262,77078,5,0,0:0:0:0:
106,212,77244,1,4,1:0:0:0:
472,262,77911,5,12,1:3:0:0:
474,237,77994,1,8,0:3:0:0:
476,213,78077,1,8,0:3:0:0:
479,188,78160,1,8,0:3:0:0:
481,164,78244,1,8,0:3:0:0:
484,140,78327,1,8,0:3:0:0:
486,115,78410,1,8,0:3:0:0:
489,91,78494,1,8,0:3:0:0:
491,67,78578,6,0,L|324:51,1,146.999995513916,4|0,1:2|0:0,0:0:0:0:
261,49,78911,2,0,B|247:97|247:97|271:177,1,97.9999970092774,0|0,1:0|0:0,0:0:0:0:
88,379,79244,2,0,B|101:330|101:330|77:250,1,97.9999970092774,0|0,1:0|0:0,0:0:0:0:
43,122,79578,1,0,1:0:0:0:
43,122,79744,1,0,0:0:0:0:
190,312,79911,6,0,L|306:319,1,97.9999970092774,0|0,1:0|0:0,0:0:0:0:
461,150,80244,2,0,L|345:157,1,97.9999970092774,0|0,1:0|0:0,0:0:0:0:
86,44,80578,5,2,1:2:0:0:
263,164,80744,1,2,0:2:0:0:
114,192,80911,1,2,1:2:0:0:
234,14,81077,1,2,0:2:0:0:
461,150,81244,6,0,P|496:229|465:305,1,146.999995513916,0|0,1:0|0:0,0:0:0:0:
431,347,81578,2,0,L|316:353,1,97.9999970092774,0|0,1:0|0:0,0:0:0:0:
53,257,81911,2,0,L|168:263,1,97.9999970092774,0|0,1:0|0:0,0:0:0:0:
286,275,82244,1,0,1:0:0:0:
286,275,82411,1,0,0:0:0:0:
122,163,82578,5,0,1:0:0:0:
218,327,82744,1,0,0:0:0:0:
199,121,82911,5,0,1:0:0:0:
139,350,83078,1,0,0:0:0:0:
361,184,83244,6,0,B|314:170|314:170|244:188,1,97.9999970092774,0|0,1:0|0:0,0:0:0:0:
478,383,83578,2,0,L|466:262,1,97.9999970092774,4|0,1:2|0:0,0:0:0:0:
208,18,83911,6,0,B|175:56|175:56|189:188,1,146.999995513916,4|0,1:2|0:0,0:0:0:0:
266,182,84244,2,0,L|403:185,1,97.9999970092774,0|0,1:0|0:0,0:0:0:0:
443,19,84578,2,0,L|306:22,1,97.9999970092774,0|0,1:0|0:0,0:0:0:0:
208,18,84911,1,0,1:0:0:0:
208,18,85078,1,0,0:0:0:0:
451,150,85244,6,0,P|396:158|345:218,1,97.9999970092774,0|0,1:0|0:0,0:0:0:0:
95,199,85578,2,0,P|149:207|201:267,1,97.9999970092774,0|0,1:0|0:0,0:0:0:0:
252,356,85911,5,2,1:2:0:0:
429,236,86077,1,2,0:2:0:0:
281,206,86244,1,2,1:2:0:0:
401,384,86410,1,2,0:2:0:0:
404,81,86578,6,0,B|420:131|420:131|377:236,1,146.999995513916,4|0,1:2|0:0,0:0:0:0:
340,295,86911,5,0,1:0:0:0:
172,347,87078,1,0,1:0:0:0:
126,220,87244,5,0,1:0:0:0:
367,298,87411,1,0,1:0:0:0:
404,81,87578,5,0,1:0:0:0:
95,220,87744,1,0,1:0:0:0:
444,244,87911,5,0,1:0:0:0:
397,49,88078,1,0,1:0:0:0:
367,298,88244,5,0,1:0:0:0:
390,17,88411,1,0,1:0:0:0:
211,229,88578,5,0,1:0:0:0:
461,114,88744,1,0,1:0:0:0:
94,51,88911,5,0,1:0:0:0:
487,116,89078,1,4,1:2:0:0:
