osu file format v14

[General]
AudioFilename: audio.mp3
AudioLeadIn: 0
PreviewTime: -1
Countdown: 1
SampleSet: Soft
StackLeniency: 0.7
Mode: 0
LetterboxInBreaks: 0
WidescreenStoryboard: 0

[Editor]
DistanceSpacing: 1
BeatDivisor: 4
GridSize: 8
TimelineZoom: 1

[Metadata]
Title:DEAREST DROP
TitleUnicode:DEAREST DROP
Artist:Azusa Tadokoro
ArtistUnicode:田所あずさ
Creator:lkx_Shore
Version:Easy
Source:終末なにしてますか?忙しいですか?救ってもらっていいですか?
Tags:WorldEnd: What do you do at the end of the world? Are you busy? Will you save us? SukaSuka
BeatmapID:1357155
BeatmapSetID:639952

[Difficulty]
HPDrainRate:7
CircleSize:4
OverallDifficulty:7
ApproachRate:9
SliderMultiplier:1.92
SliderTickRate:1

[Events]
//Background and Video events
0,0,"BG.jpg",0,0
//Break Periods
//Storyboard Layer 0 (Background)
//Storyboard Layer 1 (Fail)
//Storyboard Layer 2 (Pass)
//Storyboard Layer 3 (Foreground)
//Storyboard Sound Samples

[TimingPoints]
624,410.958904109589,4,2,0,50,1,0
624,-133.333333333333,4,2,0,50,0,0
7199,-100,4,1,0,50,0,0
18706,-76.9230769230769,4,1,0,50,0,0
19528,-133.333333333333,4,1,0,50,0,0
20350,-100,4,2,0,50,0,0
33500,-100,4,1,0,50,0,0
46651,-133.333333333333,4,1,0,50,0,0
53226,-100,4,1,0,50,0,0
58158,-100,4,1,0,50,0,0
61445,-100,4,1,0,50,0,1
66377,-76.9230769230769,4,1,0,50,0,1
68432,-100,4,1,0,50,0,1
71308,-76.9230769230769,4,1,0,50,0,1
74596,-100,4,1,0,50,0,1
79528,-76.9230769230769,4,1,0,50,0,1
81788,-100,4,1,0,50,0,1
86124,-100,4,2,0,50,0,1
86925,-76.9230769230769,4,2,0,50,0,1
87747,-100,4,2,0,50,0,0

[HitObjects]
48,320,624,5,2,0:0:0:0:
144,264,829,1,0,0:0:0:0:
144,264,932,1,0,0:0:0:0:
144,264,1034,2,0,L|136:344,1,72.0000027465821
216,312,1343,1,0,0:0:0:0:
232,328,1445,2,0,L|312:336,1,72.0000027465821,2|0,0:0|0:0,0:0:0:0:
264,240,1754,1,0,0:0:0:0:
264,240,1856,2,0,L|272:160,1,72.0000027465821
192,184,2165,1,0,0:0:0:0:
176,168,2267,6,0,L|48:160,1,108.000004119873,2|0,0:0|0:0,0:0:0:0:
24,160,2678,1,0,0:0:0:0:
128,56,2884,1,0,0:0:0:0:
128,56,2987,1,0,0:0:0:0:
128,56,3089,2,0,P|168:48|232:56,1,72.0000027465821
360,128,3500,2,0,P|320:136|256:128,1,72.0000027465821
440,40,3911,6,0,B|456:72|456:72|440:208,1,144.000005493164,2|0,0:0|0:0,0:0:0:0:
336,296,4528,1,0,0:0:0:0:
352,288,4630,1,0,0:0:0:0:
368,280,4733,1,2,0:0:0:0:
480,312,4939,1,0,0:0:0:0:
392,376,5144,1,0,0:0:0:0:
424,200,5350,1,0,0:0:0:0:
392,376,5555,6,0,P|336:376|304:368,1,72.0000027465821,2|0,0:0|0:0,0:0:0:0:
72,216,5966,2,0,P|112:224|176:216,1,72.0000027465821,2|0,0:0|0:0,0:0:0:0:
304,376,6377,2,0,P|291:361|280:344,1,36.0000013732911,2|0,0:0|0:0,0:0:0:0:
152,248,6582,1,2,0:0:0:0:
152,248,6685,2,0,P|169:233|177:217,1,36.0000013732911
240,48,6891,1,0,0:0:0:0:
232,64,6993,1,0,0:0:0:0:
232,80,7096,1,0,0:0:0:0:
256,104,7199,6,0,P|304:104|352:88,1,96,2|0,0:0|0:0,0:0:0:0:
384,56,7507,1,0,0:0:0:0:
432,48,7610,1,0,0:0:0:0:
480,64,7713,1,0,0:0:0:0:
504,104,7815,2,0,L|496:152,1,48,2|0,0:0|0:0,0:0:0:0:
400,272,8021,1,0,0:0:0:0:
352,280,8123,1,0,0:0:0:0:
304,288,8226,1,0,0:0:0:0:
256,296,8329,1,0,0:0:0:0:
208,304,8432,1,2,0:0:0:0:
208,304,8534,2,0,L|224:248,1,48
80,320,8740,1,0,0:0:0:0:
80,320,8843,6,0,L|104:224,1,96,4|0,1:2|0:0,0:0:0:0:
144,200,9151,1,0,0:0:0:0:
152,152,9254,1,0,0:0:0:0:
144,104,9356,1,0,0:0:0:0:
104,72,9459,2,0,P|86:85|72:112,1,48,2|0,0:0|0:0,0:0:0:0:
144,200,9665,1,0,0:0:0:0:
192,184,9767,1,0,0:0:0:0:
240,184,9870,1,0,0:0:0:0:
288,192,9973,1,0,0:0:0:0:
328,216,10076,1,2,0:0:0:0:
328,216,10178,2,0,L|320:264,1,48
424,64,10384,1,0,0:0:0:0:
424,64,10487,6,0,L|448:160,1,96,4|0,1:2|0:0,0:0:0:0:
480,192,10795,1,0,0:0:0:0:
480,240,10897,1,0,0:0:0:0:
456,280,11000,1,0,0:0:0:0:
408,296,11103,2,0,P|376:288|352:272,1,48,2|0,0:0|0:0,0:0:0:0:
96,208,11308,1,0,0:0:0:0:
88,256,11411,1,0,0:0:0:0:
104,304,11514,1,0,0:0:0:0:
144,328,11617,1,0,0:0:0:0:
192,328,11719,1,2,0:0:0:0:
192,328,11822,2,0,L|208:264,1,48
176,32,12028,1,0,0:0:0:0:
176,32,12130,6,0,L|152:128,1,96,4|0,1:2|0:0,0:0:0:0:
168,168,12439,1,0,0:0:0:0:
208,192,12541,1,0,0:0:0:0:
256,200,12644,1,0,0:0:0:0:
304,192,12747,2,0,P|330:180|352:176,1,48,2|0,0:0|0:0,0:0:0:0:
192,296,12952,1,0,0:0:0:0:
240,280,13055,1,0,0:0:0:0:
288,280,13158,1,0,0:0:0:0:
328,304,13260,1,0,0:0:0:0:
360,336,13363,1,2,0:0:0:0:
360,336,13466,2,0,L|416:320,1,48
296,168,13671,1,0,0:0:0:0:
296,168,13774,6,0,L|392:184,1,96,4|0,1:2|0:0,0:0:0:0:
488,200,14185,1,2,0:2:0:0:
448,112,14391,1,0,0:0:0:0:
448,112,14493,1,0,0:0:0:0:
448,112,14596,1,2,0:2:0:0:
416,272,14802,1,0,0:0:0:0:
448,112,15007,1,2,0:2:0:0:
232,200,15213,1,0,0:0:0:0:
224,192,15315,1,0,0:0:0:0:
216,184,15418,6,0,P|208:128|216:88,1,96,2|0,0:2|0:0,0:0:0:0:
415,177,15829,2,0,P|423:233|415:273,1,96,2|0,0:2|0:0,0:0:0:0:
296,320,16240,1,2,0:2:0:0:
328,72,16445,1,0,0:0:0:0:
328,72,16548,1,2,0:2:0:0:
312,192,16753,1,0,0:0:0:0:
312,192,16856,1,2,0:2:0:0:
296,320,17062,6,0,L|200:304,1,96,4|0,0:2|0:0,0:0:0:0:
80,280,17473,1,2,0:2:0:0:
96,184,17678,1,0,0:0:0:0:
144,168,17780,1,0,0:0:0:0:
192,184,17884,1,0,0:0:0:0:
272,240,18089,1,0,0:0:0:0:
320,256,18192,1,0,0:0:0:0:
368,240,18295,1,2,0:2:0:0:
400,200,18397,1,0,0:0:0:0:
400,152,18500,1,0,0:0:0:0:
376,112,18603,1,0,0:0:0:0:
336,88,18706,6,0,L|328:152,1,62.3999971435548,4|0,0:2|2:0,0:0:0:0:
312,160,19014,2,0,L|304:224,1,62.3999971435548,2|0,0:2|2:0,0:0:0:0:
288,232,19322,2,0,L|280:296,1,62.3999971435548,2|0,0:2|2:0,0:0:0:0:
280,293,19528,6,0,L|303:69,1,216.000008239746,0|0,0:0|2:0,0:0:0:0:
302,78,20247,1,0,2:0:0:0:
302,78,20350,2,0,P|352:88|416:72,1,96,2|0,0:0|0:0,0:0:0:0:
440,104,20658,2,0,P|480:64|488:24,1,96,2|0,0:0|0:0,0:0:0:0:
487,26,20966,1,2,0:0:0:0:
440,104,21171,1,0,0:0:0:0:
472,192,21377,1,2,0:0:0:0:
432,280,21582,1,0,0:0:0:0:
352,224,21788,1,0,0:0:0:0:
336,216,21891,1,0,0:0:0:0:
320,208,21993,6,0,L|224:224,1,96,2|0,0:0|0:0,0:0:0:0:
184,200,22302,2,0,P|136:200|88:192,1,96,2|0,0:0|0:0,0:0:0:0:
88,192,22610,1,2,0:0:0:0:
120,280,22815,1,0,0:0:0:0:
88,192,23021,1,2,0:0:0:0:
136,112,23226,1,0,0:0:0:0:
96,24,23432,1,0,0:0:0:0:
24,136,23637,6,0,B|64:118|64:118|144:128,1,96,2|0,0:0|0:0,0:0:0:0:
152,152,23945,2,0,L|264:128,1,96,2|2,0:0|0:0,0:0:0:0:
336,64,24254,1,0,0:0:0:0:
336,64,24459,2,0,P|328:120|336:160,1,96,2|0,0:0|0:0,0:0:0:0:
352,192,24767,1,0,0:0:0:0:
384,208,24870,1,0,0:0:0:0:
432,120,25076,1,2,0:0:0:0:
392,288,25281,5,2,0:0:0:0:
216,240,25487,1,2,0:0:0:0:
198,234,25589,1,0,0:0:0:0:
181,229,25692,1,0,0:0:0:0:
320,192,25897,1,0,0:0:0:0:
264,368,26103,2,0,L|360:352,1,96,2|0,0:0|0:0,0:0:0:0:
296,304,26411,1,0,0:0:0:0:
296,304,26514,2,0,B|368:336|368:336|464:320,1,144,2|0,0:0|0:0,0:0:0:0:
472,320,26925,5,0,3:0:0:0:
408,224,27130,1,0,0:0:0:0:
432,220,27233,1,0,0:0:0:0:
456,216,27336,1,0,0:0:0:0:
440,136,27541,1,2,0:0:0:0:
368,312,27747,1,0,0:0:0:0:
336,208,27952,1,0,0:0:0:0:
312,204,28055,1,0,0:0:0:0:
288,200,28158,1,0,0:0:0:0:
312,112,28363,1,2,0:0:0:0:
256,288,28569,6,0,B|160:328|160:328|120:320,1,144,2|0,0:0|0:0,0:0:0:0:
96,232,28980,1,0,0:0:0:0:
96,232,29185,1,0,0:0:0:0:
192,96,29391,2,0,B|176:200|176:200|192:240,1,144,2|0,0:0|0:0,0:0:0:0:
288,304,29802,2,0,L|304:200,1,96
176,48,30110,1,0,0:0:0:0:
176,48,30213,6,0,L|184:144,1,96,2|0,0:0|0:0,0:0:0:0:
160,184,30521,2,0,P|112:192|64:184,1,96
32,152,30829,1,0,0:0:0:0:
120,272,31034,1,2,0:2:0:0:
264,200,31240,1,0,0:0:0:0:
264,200,31343,2,0,P|232:184|208:184,1,48
392,224,31549,1,0,0:0:0:0:
392,224,31651,2,0,P|360:240|336:240,1,48
408,144,31856,6,2,P|456:176|472:240,1,96,0|0,1:0|1:0,1:0:0:0:
445,297,32165,2,2,P|470:256|470:209,1,96,0|0,1:2|1:0,1:0:0:0:
348,240,32473,2,0,L|396:224,1,48,0|0,3:0|3:0,0:0:0:0:
304,336,32678,1,0,1:0:0:0:
264,312,32781,1,0,1:0:0:0:
216,296,32884,1,0,1:0:0:0:
168,296,32987,1,0,1:0:0:0:
128,320,33089,1,0,3:0:0:0:
136,280,33192,1,0,3:0:0:0:
144,240,33295,2,0,L|160:176,1,48,0|0,3:0|3:0,0:0:0:0:
96,96,33500,6,0,B|144:104|144:104|192:80,1,96,4|0,1:2|0:0,0:0:0:0:
224,64,33808,1,0,0:0:0:0:
224,64,33911,1,2,1:2:0:0:
128,8,34117,1,0,0:0:0:0:
320,112,34322,2,0,L|336:8,1,96
416,168,34733,1,2,0:2:0:0:
432,280,34939,1,0,0:0:0:0:
384,296,35041,1,0,2:0:0:0:
336,296,35144,6,0,P|288:288|232:296,1,96
136,360,35452,2,2,L|184:352,1,48,0|2,0:0|0:2,0:2:0:0:
56,288,35760,1,0,0:0:0:0:
136,208,35966,2,0,L|112:112,1,96
88,24,36377,1,2,0:2:0:0:
24,168,36582,1,0,0:0:0:0:
216,112,36788,5,0,0:0:0:0:
216,112,36891,2,0,L|232:168,1,48,0|0,0:0|2:0,0:0:0:0:
360,256,37096,1,0,0:0:0:0:
360,256,37199,2,0,L|344:200,1,48,0|0,0:0|2:0,0:0:0:0:
408,64,37404,1,0,0:0:0:0:
456,224,37610,5,0,0:0:0:0:
456,224,37713,2,0,L|440:168,1,48,0|0,0:0|2:0,0:0:0:0:
312,88,37918,1,0,0:0:0:0:
312,88,38021,2,0,L|328:144,1,48,0|0,0:0|2:0,0:0:0:0:
272,280,38226,1,0,0:0:0:0:
408,64,38432,6,0,B|448:96|448:96|464:144,1,96,4|0,0:2|2:0,0:0:0:0:
360,304,38740,2,0,L|376:208,1,96,0|0,0:0|2:0,0:0:0:0:
192,136,39048,1,0,0:0:0:0:
192,136,39254,2,0,P|160:176|224:208,1,144,2|0,0:2|0:0,0:0:0:0:
296,256,39665,1,0,0:0:0:0:
312,208,39767,1,0,0:0:0:0:
352,184,39870,1,0,0:0:0:0:
400,184,39973,1,0,0:0:0:0:
448,208,40076,5,4,1:2:0:0:
416,328,40281,1,0,0:0:0:0:
416,328,40384,2,0,B|368:352|368:352|280:328,1,144,0|4,0:0|0:2,0:0:0:0:
352,376,40897,1,0,0:0:0:0:
88,272,41103,1,0,0:0:0:0:
88,272,41206,2,0,B|136:248|136:248|224:272,1,144,0|0,0:0|0:2,0:0:0:0:
152,328,41719,6,0,L|168:208,1,96,4|0,0:2|0:0,0:0:0:0:
192,192,42028,2,0,P|208:144|200:80,1,96
120,136,42336,2,0,L|72:128,1,48,4|0,0:2|2:0,0:0:0:0:
253,107,42541,2,0,L|205:99,1,48,0|0,0:0|2:0,0:0:0:0:
432,160,42747,1,0,0:0:0:0:
432,160,42850,2,0,L|336:176,1,96
328,200,43158,1,0,0:0:0:0:
320,224,43260,1,0,0:0:0:0:
312,248,43363,5,4,0:2:0:0:
464,352,43671,1,0,0:0:0:0:
464,352,43774,2,0,P|472:328|472:296,1,48,0|0,0:0|2:0,0:0:0:0:
392,312,43980,1,0,0:0:0:0:
392,312,44185,2,0,L|288:328,1,96,4|0,0:2|0:0,0:0:0:0:
224,280,44493,2,0,L|120:296,1,96
40,304,44802,1,0,0:0:0:0:
448,256,45007,5,4,0:2:0:0:
248,200,45213,1,0,0:0:0:0:
224,208,45315,1,0,0:0:0:0:
200,216,45418,1,0,0:0:0:0:
200,216,45623,2,0,B|160:248|160:248|208:272|256:256,1,144,4|0,0:2|2:0,0:0:0:0:
328,240,46034,1,0,0:0:0:0:
112,136,46240,1,0,0:0:0:0:
408,192,46445,1,0,0:0:0:0:
160,304,46651,5,4,0:2:0:0:
176,296,46959,1,0,0:0:0:0:
192,288,47267,1,0,0:0:0:0:
80,368,47473,2,0,P|56:328|64:256,1,108.000004119873,2|0,0:2|2:0,0:0:0:0:
88,224,47884,5,4,0:2:0:0:
344,160,48192,1,0,0:0:0:0:
24,88,48500,1,0,0:0:0:0:
88,224,48706,2,0,B|112:184|96:144|96:144|64:168,1,108.000004119873,2|0,0:2|2:0,0:0:0:0:
88,224,49117,2,0,L|144:232,1,36.0000013732911,0|0,0:0|2:0,0:0:0:0:
168,288,49322,2,0,L|224:296,1,36.0000013732911,0|0,0:0|2:0,0:0:0:0:
224,208,49528,2,0,L|280:216,1,36.0000013732911,0|0,0:0|2:0,0:0:0:0:
304,272,49733,2,0,L|360:280,1,36.0000013732911,0|0,0:0|2:0,0:0:0:0:
464,288,49939,5,4,0:2:0:0:
448,280,50247,1,0,0:0:0:0:
432,272,50555,1,0,0:0:0:0:
432,56,50760,2,0,B|408:80|408:80|392:152,1,108.000004119873,0|0,0:0|2:0,0:0:0:0:
384,200,51171,2,0,B|416:176|416:176|392:152,1,72.0000027465821,4|0,0:2|2:0,0:0:0:0:
280,160,51480,2,0,L|200:144,1,72.0000027465821,0|0,0:0|2:0,0:0:0:0:
104,128,51788,1,0,0:0:0:0:
144,224,51993,1,0,0:0:0:0:
176,64,52199,1,0,0:0:0:0:
168,96,52302,1,0,0:0:0:0:
160,128,52404,1,0,0:0:0:0:
160,160,52507,1,0,0:0:0:0:
152,192,52610,5,0,0:0:0:0:
192,192,52713,1,0,0:0:0:0:
224,208,52815,1,0,0:0:0:0:
248,240,52918,1,0,0:0:0:0:
256,272,53021,1,0,0:0:0:0:
248,304,53123,1,0,0:0:0:0:
224,336,53226,5,4,1:2:0:0:
72,248,53432,1,2,2:0:0:0:
64,232,53534,1,0,0:0:0:0:
56,216,53637,2,0,L|64:120,1,96
192,192,54048,1,0,0:0:0:0:
56,272,54254,1,2,2:0:0:0:
48,256,54356,1,0,0:0:0:0:
40,240,54459,2,0,L|48:144,1,96
192,192,54870,5,0,0:0:0:0:
288,320,55076,1,2,2:0:0:0:
272,328,55178,1,0,0:0:0:0:
256,336,55281,2,0,L|160:328,1,96
192,192,55692,1,0,0:0:0:0:
304,336,55897,1,2,2:0:0:0:
288,344,55999,1,0,0:0:0:0:
272,352,56102,2,0,L|176:344,1,96
120,304,56411,1,0,0:0:0:0:
56,336,56514,5,4,0:2:0:0:
200,160,56719,1,2,2:2:0:0:
200,160,56822,1,0,2:0:0:0:
200,160,56925,2,0,L|184:256,1,96,0|2,0:0|2:0,0:0:0:0:
408,104,57336,1,0,0:0:0:0:
312,40,57541,1,0,0:0:0:0:
304,48,57644,1,0,0:0:0:0:
296,56,57747,2,0,P|288:128|336:192,1,144,0|0,0:0|2:0,0:0:0:0:
304,192,58158,6,0,P|319:231|319:287,1,96,4|0,0:2|2:0,0:0:0:0:
200,256,58466,2,0,L|216:352,1,96,0|0,0:0|2:0,0:0:0:0:
80,216,58774,2,0,L|128:208,1,48,0|0,0:0|2:0,0:0:0:0:
80,216,58980,2,0,P|74:258|89:312,1,96,2|0,0:2|2:0,0:0:0:0:
248,96,59288,2,0,L|152:72,1,96,0|0,0:0|2:0,0:0:0:0:
399,177,59596,1,0,0:0:0:0:
399,177,59802,6,0,L|352:184,1,48,0|0,0:0|2:0,0:0:0:0:
352,184,60213,2,2,B|376:168|377:134|377:134|432:160|432:216|392:248,1,192,0|0,1:0|1:0,1:0:0:0:
397,242,60726,1,0,0:0:0:0:
352,224,60829,1,0,0:0:0:0:
304,216,60932,1,0,0:0:0:0:
256,232,61034,2,0,P|243:258|240:280,1,48
144,288,61240,2,0,P|144:320|152:344,1,48
248,368,61445,5,4,1:2:0:0:
168,184,61651,2,0,P|144:184|120:192,1,48,2|0,2:0|2:0,0:0:0:0:
40,336,61856,2,0,P|88:360|136:368,1,96,0|2,1:0|2:0,2:0:0:0:
408,336,62267,1,0,0:0:0:0:
200,296,62473,1,2,2:0:0:0:
248,280,62576,1,0,2:0:0:0:
296,288,62678,1,0,0:0:0:0:
408,336,62884,1,2,2:0:0:0:
248,280,63089,5,0,1:2:0:0:
328,96,63295,2,0,P|360:104|376:112,1,48,2|0,2:0|2:0,0:0:0:0:
456,248,63500,2,0,P|408:272|360:280,1,96,0|2,1:0|2:0,2:0:0:0:
88,248,63911,1,0,0:0:0:0:
296,208,64117,1,2,2:0:0:0:
248,192,64220,1,0,2:0:0:0:
200,200,64322,1,0,0:0:0:0:
88,248,64528,1,2,2:0:0:0:
224,368,64733,6,0,L|240:272,1,96,4|2,1:2|2:0,0:0:0:0:
312,112,65144,2,0,B|264:120|264:120|168:80,1,144,0|0,0:0|2:0,0:0:0:0:
136,64,65555,1,0,0:0:0:0:
144,224,65760,1,2,2:0:0:0:
192,216,65863,1,0,2:0:0:0:
240,208,65966,1,0,0:0:0:0:
376,184,66171,1,2,2:0:0:0:
376,184,66377,6,0,P|448:240|392:272,1,187.199991430664,4|0,1:2|2:0,0:0:0:0:
248,320,66788,2,0,B|264:248|264:248|240:192|240:192|248:128,1,187.199991430664,2|0,0:2|2:0,0:0:0:0:
112,112,67199,1,0,0:0:0:0:
112,112,67302,2,0,B|88:136|88:136|120:152,1,62.3999971435548,0|0,0:0|2:0,0:0:0:0:
377,220,67507,1,0,0:0:0:0:
377,220,67610,2,0,B|401:196|401:196|369:180,1,62.3999971435548,0|0,0:0|2:0,0:0:0:0:
160,296,67815,1,0,0:0:0:0:
296,352,68021,6,0,B|200:336|200:336|136:352|136:352|40:328,1,249.599988574219,4|0,1:2|0:0,0:0:0:0:
152,128,68637,1,2,2:0:0:0:
152,128,68740,1,0,2:0:0:0:
152,128,68843,2,0,L|136:224,1,96,0|2,0:0|2:0,0:0:0:0:
232,296,69151,2,0,L|224:344,1,48,0|0,2:0|0:0,0:0:0:0:
52,331,69459,1,2,2:0:0:0:
248,200,69665,6,0,P|296:192|344:200,1,96,4|2,1:2|2:0,0:0:0:0:
384,224,69973,1,0,2:0:0:0:
384,224,70076,1,0,0:0:0:0:
304,320,70281,1,2,2:0:0:0:
336,80,70487,1,0,0:0:0:0:
480,208,70692,1,0,0:0:0:0:
432,224,70795,1,0,0:0:0:0:
384,224,70897,1,0,0:0:0:0:
336,208,71000,1,0,0:0:0:0:
288,216,71103,1,0,0:0:0:0:
248,240,71206,1,0,0:0:0:0:
224,280,71308,6,0,B|304:296|328:368|328:368|336:344|368:328,1,187.199991430664,4|0,1:2|2:0,0:0:0:0:
355,335,71719,1,0,0:0:0:0:
56,312,71925,2,0,B|96:256|96:256|80:72,1,249.599988574219,0|2,0:0|2:0,0:0:0:0:
80,75,72439,1,0,2:0:0:0:
80,75,72541,1,0,0:0:0:0:
256,224,72747,1,2,2:0:0:0:
256,224,72850,1,0,2:0:0:0:
256,224,72952,6,0,P|264:192|264:160,1,62.3999971435548,0|0,0:0|2:0,0:0:0:0:
216,328,73158,2,0,P|235:350|267:366,1,62.3999971435548,2|0,0:2|2:0,0:0:0:0:
152,240,73363,1,0,0:0:0:0:
376,232,73569,2,0,B|438:271|438:271|472:226|511:198|511:198|472:135,1,249.599988574219,4|0,0:2|0:0,0:0:0:0:
473,137,74082,1,0,0:0:0:0:
473,137,74185,1,0,0:0:0:0:
352,120,74391,1,0,0:0:0:0:
400,352,74596,6,0,L|304:336,1,96,4|2,1:2|2:0,0:0:0:0:
256,344,74904,1,0,2:0:0:0:
208,352,75007,1,0,0:0:0:0:
312,176,75213,1,2,2:0:0:0:
400,352,75418,1,0,0:0:0:0:
360,328,75521,1,0,2:0:0:0:
312,320,75624,1,2,2:0:0:0:
264,320,75727,1,0,2:0:0:0:
216,328,75829,1,0,0:0:0:0:
64,280,76034,1,2,2:0:0:0:
176,168,76240,6,0,L|272:184,1,96,4|2,1:2|2:0,0:0:0:0:
312,208,76548,1,0,2:0:0:0:
352,232,76651,1,0,1:0:0:0:
448,104,76857,1,2,2:0:0:0:
216,8,77062,1,0,0:0:0:0:
184,48,77165,1,0,0:0:0:0:
176,96,77268,1,2,2:0:0:0:
200,136,77370,1,0,2:0:0:0:
192,184,77473,2,0,L|208:232,1,48,0|0,0:0|2:0,0:0:0:0:
360,344,77678,2,0,L|344:296,1,48,0|0,0:0|2:0,0:0:0:0:
448,152,77884,6,0,B|408:136|408:136|304:160,1,144,4|0,1:2|2:0,0:0:0:0:
264,176,78295,1,0,0:0:0:0:
408,256,78500,2,0,B|400:200|400:200|408:144|408:144|392:64,1,192,2|2,0:2|2:0,0:0:0:0:
392,66,79014,1,0,2:0:0:0:
392,66,79117,2,0,P|448:96|400:144,1,144,0|0,0:0|2:0,0:0:0:0:
312,120,79528,6,0,B|256:112|256:112|192:72,1,124.79999428711,4|0,0:2|2:0,0:0:0:0:
33,61,79836,2,0,L|56:184,1,124.79999428711,0|0,0:0|2:0,0:0:0:0:
184,264,80144,2,0,P|181:233|168:200,1,62.3999971435548,0|0,0:0|2:0,0:0:0:0:
104,352,80350,2,0,B|144:336|144:336|264:352,1,124.79999428711,4|0,0:2|2:0,0:0:0:0:
440,320,80658,2,0,L|312:304,1,124.79999428711,0|0,0:0|2:0,0:0:0:0:
225,346,80966,1,0,0:0:0:0:
400,384,81171,6,0,P|472:296|432:176,1,249.599988574219,4|0,1:2|2:0,0:0:0:0:
344,272,81788,2,0,B|360:208|360:208|344:144|344:144|360:56,1,192,4|0,0:2|0:0,0:0:0:0:
354,84,82404,1,0,3:0:0:0:
232,208,82610,1,0,3:0:0:0:
232,208,82815,6,0,L|208:301,1,96,4|2,0:2|2:0,0:0:0:0:
192,344,83124,1,0,2:0:0:0:
192,344,83226,1,0,0:0:0:0:
40,240,83432,1,2,2:0:0:0:
80,216,83534,1,0,2:0:0:0:
128,216,83637,1,0,0:0:0:0:
328,152,83843,1,2,2:0:0:0:
288,128,83945,1,0,2:0:0:0:
240,120,84048,1,0,0:0:0:0:
208,336,84254,1,2,2:0:0:0:
208,336,84459,6,0,B|274:313|274:313|340:326|340:326|400:304,1,192,4|0,0:2|0:0,0:0:0:0:
440,312,84973,1,0,0:0:0:0:
480,296,85076,1,0,0:0:0:0:
496,248,85178,1,0,0:0:0:0:
480,200,85281,2,0,L|472:144,1,48
344,48,85487,1,0,0:0:0:0:
344,72,85589,2,0,L|352:128,1,48
256,240,85795,1,0,0:0:0:0:
240,216,85897,2,0,L|232:160,1,48
80,48,86103,6,0,P|64:96|72:144,1,96,4|0,2:0|0:0,0:0:0:0:
136,216,86411,2,0,L|120:312,1,96,2|0,0:0|0:0,0:0:0:0:
120,310,86719,1,2,0:0:0:0:
120,310,86925,2,0,B|184:310|184:310|240:334,1,124.79999428711,4|0,1:2|2:0,0:0:0:0:
424,288,87233,2,0,B|456:232|456:232|463:172,1,124.79999428711,0|0,1:0|2:0,0:0:0:0:
320,48,87541,2,0,L|256:32,1,62.3999971435548,2|0,1:2|2:0,0:0:0:0:
70,140,87747,5,4,1:2:0:0:
