osu file format v14

[General]
AudioFilename: audio.mp3
AudioLeadIn: 0
PreviewTime: 61286
Countdown: 1
SampleSet: Normal
StackLeniency: 0.7
Mode: 0
LetterboxInBreaks: 0
WidescreenStoryboard: 0

[Editor]
Bookmarks: 7040,13615,20191,23478,25944,26355,29232,29643,32314,32725,33136,33341,33547,33958,35601,36629,37759,39095,42896,46492,48958,50807,51834,59129,61286,63958,74437,84814,85944,87588
DistanceSpacing: 1.2
BeatDivisor: 4
GridSize: 16
TimelineZoom: 3.499999

[Metadata]
Title:DEAREST DROP (TVsize)
TitleUnicode:DEAREST DROP (TVsize)
Artist:Azusa Tadokoro
ArtistUnicode:田所あずさ
Creator:hlanden
Version:Hope
Source:終末なにしてますか? 忙しいですか? 救ってもらっていいですか?
Tags:
BeatmapID:1674537
BeatmapSetID:797336

[Difficulty]
HPDrainRate:5.4
CircleSize:3.8
OverallDifficulty:9
ApproachRate:9.2
SliderMultiplier:2
SliderTickRate:1

[Events]
//Background and Video events
0,0,"817330.jpg",0,0
//Break Periods
//Storyboard Layer 0 (Background)
//Storyboard Layer 1 (Fail)
//Storyboard Layer 2 (Pass)
//Storyboard Layer 3 (Foreground)
//Storyboard Sound Samples

[TimingPoints]
465,410.958904109589,4,1,0,50,1,0
465,-200,4,1,0,50,0,0
1081,-200,4,1,0,5,0,0
1286,-200,4,1,0,50,0,0
1903,-200,4,1,0,5,0,0
2108,-200,4,1,0,50,0,0
2725,-200,4,1,0,5,0,0
2930,-200,4,1,0,50,0,0
3752,-200,4,1,0,50,0,0
4369,-200,4,1,0,5,0,0
4574,-200,4,1,0,50,0,0
5191,-200,4,1,0,5,0,0
5396,-200,4,1,0,50,0,0
5704,-200,4,1,0,5,0,0
5807,-200,4,1,0,50,0,0
6115,-200,4,1,0,5,0,0
6218,-200,4,1,0,50,0,0
6423,-200,4,1,0,5,0,0
6526,-200,4,1,0,50,0,0
6732,-200,4,1,0,5,0,0
6834,-1000,4,1,0,50,0,0
6937,-1000,4,1,0,5,0,0
7040,-133.333333333333,4,1,0,50,0,0
7656,-200,4,1,0,50,0,0
8273,-100,4,1,0,50,0,0
8684,-133.333333333333,4,1,0,50,0,0
9300,-80,4,1,0,50,0,0
10328,-100,4,1,0,50,0,0
10944,-133.333333333333,4,1,0,50,0,0
11560,-80,4,1,0,50,0,0
11971,-100,4,1,0,50,0,0
13615,-80,4,1,0,50,0,0
13923,-80,4,1,0,5,0,0
14026,-80,4,1,0,50,0,0
14437,-80,4,1,0,50,0,0
14745,-80,4,1,0,5,0,0
14848,-80,4,1,0,50,0,0
15259,-80,4,1,0,50,0,0
15567,-80,4,1,0,5,0,0
15670,-80,4,1,0,50,0,0
15978,-80,4,1,0,5,0,0
16081,-80,4,1,0,50,0,0
16286,-80,4,1,0,5,0,0
16389,-80,4,1,0,50,0,0
16595,-80,4,1,0,5,0,0
16697,-80,4,1,0,50,0,0
18547,-80,4,1,0,50,0,0
19369,-333.333333333333,4,1,0,50,0,0
20191,-200,4,1,0,50,0,0
23478,-160,4,1,0,50,0,0
23684,-160,4,1,0,5,0,0
23786,-160,4,1,0,50,0,0
23992,-160,4,1,0,5,0,0
24095,-160,4,1,0,50,0,0
24197,-160,4,1,0,5,0,0
24300,-133.333333333333,4,1,0,50,0,0
24506,-133.333333333333,4,1,0,5,0,0
24608,-133.333333333333,4,1,0,50,0,0
24814,-133.333333333333,4,1,0,5,0,0
24917,-133.333333333333,4,1,0,50,0,0
25019,-133.333333333333,4,1,0,5,0,0
25122,-114.285714285714,4,1,0,50,0,0
25328,-114.285714285714,4,1,0,5,0,0
25430,-114.285714285714,4,1,0,50,0,0
25636,-114.285714285714,4,1,0,5,0,0
25738,-114.285714285714,4,1,0,50,0,0
25841,-114.285714285714,4,1,0,5,0,0
25944,-333.333333333333,4,1,0,50,0,0
26766,-133.333333333333,4,1,0,50,0,0
26971,-133.333333333333,4,1,0,5,0,0
27074,-133.333333333333,4,1,0,50,0,0
27280,-133.333333333333,4,1,0,5,0,0
27382,-133.333333333333,4,1,0,50,0,0
27485,-133.333333333333,4,1,0,5,0,0
27588,-114.285714285714,4,1,0,50,0,0
27793,-114.285714285714,4,1,0,5,0,0
27896,-114.285714285714,4,1,0,50,0,0
28101,-114.285714285714,4,1,0,5,0,0
28204,-114.285714285714,4,1,0,50,0,0
28307,-114.285714285714,4,1,0,5,0,0
28410,-88.8888888888889,4,1,0,50,0,0
28615,-88.8888888888889,4,1,0,5,0,0
28718,-88.8888888888889,4,1,0,50,0,0
28923,-88.8888888888889,4,1,0,5,0,0
29026,-88.8888888888889,4,1,0,50,0,0
29129,-88.8888888888889,4,1,0,5,0,0
29232,-88.8888888888889,4,1,0,50,0,0
29334,-88.8888888888889,4,1,0,50,0,0
29951,-88.8888888888889,4,1,0,5,0,0
30054,-113.636363636364,4,1,0,50,0,0
30259,-113.636363636364,4,1,0,5,0,0
30362,-113.636363636364,4,1,0,50,0,0
30567,-113.636363636364,4,1,0,5,0,0
30670,-113.636363636364,4,1,0,50,0,0
30773,-113.636363636364,4,1,0,5,0,0
30875,-100,4,1,0,50,0,0
31081,-100,4,1,0,5,0,0
31184,-100,4,1,0,50,0,0
31389,-100,4,1,0,5,0,0
31492,-100,4,1,0,50,0,0
31595,-100,4,1,0,5,0,0
31697,-133.333333333333,4,1,0,50,0,0
31903,-133.333333333333,4,1,0,5,0,0
32006,-133.333333333333,4,1,0,50,0,0
32211,-133.333333333333,4,1,0,5,0,0
32314,-133.333333333333,4,1,0,50,0,0
32519,-133.333333333333,4,1,0,50,0,0
32622,-133.333333333333,4,1,0,50,0,0
33341,-133.333333333333,4,1,0,50,0,0
33547,-133.333333333333,4,1,0,5,0,0
33958,-100,4,1,0,50,0,0
34060,-100,4,1,0,5,0,0
34163,-100,4,1,0,50,0,0
34266,-100,4,1,0,5,0,0
34369,-100,4,1,0,50,0,0
34471,-100,4,1,0,5,0,0
34574,-100,4,1,0,50,0,0
34677,-100,4,1,0,5,0,0
34780,-100,4,1,0,50,0,0
34882,-100,4,1,0,5,0,0
34985,-200,4,1,0,50,0,0
35601,-100,4,1,0,50,0,0
35704,-100,4,1,0,5,0,0
35807,-100,4,1,0,50,0,0
35910,-100,4,1,0,5,0,0
36012,-100,4,1,0,50,0,0
36115,-100,4,1,0,5,0,0
36218,-100,4,1,0,50,0,0
36321,-100,4,1,0,5,0,0
36423,-100,4,1,0,50,0,0
36526,-100,4,1,0,5,0,0
36629,-88.4955752212389,4,1,0,50,0,0
36834,-88.4955752212389,4,1,0,5,0,0
36937,-88.4955752212389,4,1,0,50,0,0
37143,-88.4955752212389,4,1,0,5,0,0
37245,-88.4955752212389,4,1,0,50,0,0
37348,-88.4955752212389,4,1,0,5,0,0
37451,-80,4,1,0,50,0,0
37656,-80,4,1,0,5,0,0
37759,-80,4,1,0,50,0,0
37964,-80,4,1,0,5,0,0
38067,-33.3333333333333,4,1,0,50,0,0
38170,-33.3333333333333,4,1,0,5,0,0
38273,-50,4,1,0,50,0,0
38478,-50,4,1,0,5,0,0
38581,-50,4,1,0,50,0,0
38786,-50,4,1,0,5,0,0
38889,-50,4,1,0,50,0,0
38992,-50,4,1,0,5,0,0
39095,-50,4,1,0,50,0,0
43204,-66.6666666666667,4,1,0,50,0,0
43410,-66.6666666666667,4,1,0,5,0,0
43512,-66.6666666666667,4,1,0,50,0,0
44026,-66.6666666666667,4,1,0,50,0,0
44232,-66.6666666666667,4,1,0,5,0,0
44334,-66.6666666666667,4,1,0,50,0,0
44848,-80,4,1,0,50,0,0
45054,-80,4,1,0,5,0,0
45156,-133.333333333333,4,1,0,50,0,0
45259,-133.333333333333,4,1,0,5,0,0
45464,-80,4,1,0,50,0,0
45773,-80,4,1,0,5,0,0
45875,-80,4,1,0,50,0,0
45978,-80,4,1,0,5,0,0
46081,-200,4,1,0,50,0,0
46184,-200,4,1,0,5,0,0
46286,-400,4,1,0,50,0,0
46389,-400,4,1,0,5,0,0
46492,-66.6666666666667,4,1,0,50,0,0
46697,-66.6666666666667,4,1,0,5,0,0
46800,-66.6666666666667,4,1,0,50,0,0
47006,-66.6666666666667,4,1,0,5,0,0
47108,-66.6666666666667,4,1,0,50,0,0
47417,-66.6666666666667,4,1,0,5,0,0
47519,-66.6666666666667,4,1,0,25,0,0
47622,-66.6666666666667,4,1,0,5,0,0
47725,-66.6666666666667,4,1,0,50,0,0
47930,-66.6666666666667,4,1,0,5,0,0
48033,-66.6666666666667,4,1,0,50,0,0
48238,-66.6666666666667,4,1,0,5,0,0
48341,-66.6666666666667,4,1,0,50,0,0
48649,-66.6666666666667,4,1,0,5,0,0
48958,-66.6666666666667,4,1,0,50,0,0
49060,-66.6666666666667,4,1,0,5,0,0
49163,-66.6666666666667,4,1,0,50,0,0
49266,-66.6666666666667,4,1,0,5,0,0
49369,-66.6666666666667,4,1,0,50,0,0
49471,-66.6666666666667,4,1,0,5,0,0
49574,-66.6666666666667,4,1,0,50,0,0
49677,-66.6666666666667,4,1,0,5,0,0
49780,-66.6666666666667,4,1,0,50,0,0
49985,-66.6666666666667,4,1,0,5,0,0
50088,-66.6666666666667,4,1,0,50,0,0
50293,-66.6666666666667,4,1,0,5,0,0
50396,-66.6666666666667,4,1,0,50,0,0
50704,-66.6666666666667,4,1,0,5,0,0
50807,-66.6666666666667,4,1,0,25,0,0
50910,-66.6666666666667,4,1,0,5,0,0
51012,-61.3496932515337,4,1,0,50,0,0
51218,-61.3496932515337,4,1,0,5,0,0
51321,-61.3496932515337,4,1,0,50,0,0
51526,-61.3496932515337,4,1,0,5,0,0
51629,-61.3496932515337,4,1,0,50,0,0
51732,-61.3496932515337,4,1,0,5,0,0
51834,-61.3496932515337,4,1,0,50,0,0
52040,-66.6666666666667,4,1,0,50,0,0
56766,-66.6666666666667,4,1,0,5,0,0
56971,-80,4,1,0,50,0,0
57074,-80,4,1,0,5,0,0
57177,-66.6666666666667,4,1,0,50,0,0
57280,-66.6666666666667,4,1,0,5,0,0
57382,-57.1428571428571,4,1,0,50,0,0
57485,-57.1428571428571,4,1,0,5,0,0
57588,-57.1428571428571,4,1,0,50,0,0
58204,-57.1428571428571,4,1,0,5,0,0
58307,-50,4,1,0,50,0,0
58512,-50,4,1,0,5,0,0
58615,-44.4444444444445,4,1,0,50,0,0
58718,-44.4444444444445,4,1,0,5,0,0
58821,-40,4,1,0,50,0,0
59026,-40,4,1,0,5,0,0
59129,-33.3333333333333,4,1,0,50,0,0
59129,-36.3636363636364,4,1,0,50,0,0
59334,-33.3333333333333,4,1,0,5,0,0
59437,-30.7692307692308,4,1,0,50,0,0
59540,-30.7692307692308,4,1,0,5,0,0
59643,-1000,4,1,0,50,0,0
61286,-50,4,1,0,50,0,1
61595,-50,4,1,0,5,0,1
61697,-50,4,1,0,50,0,1
61903,-50,4,1,0,5,0,1
62006,-50,4,1,0,50,0,1
62108,-57.1428571428571,4,1,0,50,0,1
62519,-57.1428571428571,4,1,0,50,0,1
62828,-57.1428571428571,4,1,0,50,0,1
62930,-50,4,1,0,50,0,1
63238,-50,4,1,0,50,0,1
63649,-50,4,1,0,50,0,1
63752,-66.6666666666667,4,1,0,50,0,1
63855,-66.6666666666667,4,1,0,5,0,1
63958,-66.6666666666667,4,1,0,50,0,1
64060,-66.6666666666667,4,1,0,5,0,1
64163,-66.6666666666667,4,1,0,50,0,1
64266,-66.6666666666667,4,1,0,5,0,1
64369,-66.6666666666667,4,1,0,50,0,1
64471,-66.6666666666667,4,1,0,5,0,1
64574,-80,4,1,0,50,0,1
64780,-66.6666666666667,4,1,0,50,0,1
66012,-80,4,1,0,50,0,1
66218,-50,4,1,0,50,0,1
66423,-50,4,1,0,5,0,1
66526,-50,4,1,0,50,0,1
66834,-50,4,1,0,5,0,1
66937,-50,4,1,0,50,0,1
67245,-50,4,1,0,5,0,1
67348,-50,4,1,0,50,0,1
67554,-50,4,1,0,5,0,1
67656,-50,4,1,0,50,0,1
67759,-50,4,1,0,5,0,1
67862,-50,4,1,0,50,0,1
68889,-50,4,1,0,5,0,1
68992,-50,4,1,0,50,0,1
69197,-50,4,1,0,5,0,1
69300,-50,4,1,0,50,0,1
69403,-50,4,1,0,5,0,1
69506,-50,4,1,0,50,0,1
69711,-50,4,1,0,5,0,1
69814,-50,4,1,0,50,0,1
70019,-50,4,1,0,5,0,1
70122,-50,4,1,0,50,0,1
70225,-50,4,1,0,5,0,1
70328,-50,4,1,0,50,0,1
70430,-50,4,1,0,5,0,1
70533,-50,4,1,0,50,0,1
71458,-50,4,1,0,5,0,1
71560,-50,4,1,0,50,0,1
71663,-50,4,1,0,5,0,1
71766,-133.333333333333,4,1,0,50,0,1
72074,-133.333333333333,4,1,0,5,0,1
72177,-50,4,1,0,50,0,1
74848,-47.6190476190476,4,1,0,50,0,1
75259,-40,4,1,0,50,0,1
75670,-36.3636363636364,4,1,0,50,0,1
76097,-40,4,1,0,50,0,1
76492,-50,4,1,0,50,0,1
76903,-50,4,1,0,50,0,1
77006,-50,4,1,0,5,0,1
77108,-50,4,1,0,50,0,1
77211,-50,4,1,0,5,0,1
77314,-50,4,1,0,50,0,1
77417,-50,4,1,0,5,0,1
77519,-50,4,1,0,50,0,1
77622,-50,4,1,0,5,0,1
77725,-80,4,1,0,50,0,1
78033,-80,4,1,0,5,0,1
78136,-50,4,1,0,50,0,1
78238,-50,4,1,0,5,0,1
78341,-50,4,1,0,50,0,1
78958,-100,4,1,0,50,0,1
79266,-100,4,1,0,5,0,1
79369,-44.4444444444445,4,1,0,50,0,1
79574,-44.4444444444445,4,1,0,5,0,1
79677,-50,4,1,0,50,0,1
79882,-50,4,1,0,5,0,1
79985,-66.6666666666667,4,1,0,50,0,1
80088,-66.6666666666667,4,1,0,5,0,1
80191,-50,4,1,0,50,0,1
80396,-50,4,1,0,5,0,1
80499,-57.1428571428571,4,1,0,50,0,1
80704,-57.1428571428571,4,1,0,5,0,1
80807,-66.6666666666667,4,1,0,50,0,1
80910,-66.6666666666667,4,1,0,5,0,1
81012,-50,4,1,0,50,0,1
85944,-57.1428571428571,4,1,0,50,0,1
86149,-57.1428571428571,4,1,0,55,0,1
86252,-50,4,1,0,50,0,1
86458,-50,4,1,0,5,0,1
86560,-44.4444444444445,4,1,0,50,0,1
86663,-44.4444444444445,4,1,0,5,0,1
86766,-40,4,1,0,50,0,1
86971,-40,4,1,0,5,0,1
87074,-44.4444444444445,4,1,0,50,0,1
87280,-44.4444444444445,4,1,0,5,0,1
87382,-50,4,1,0,50,0,1
87485,-50,4,1,0,5,0,1
87588,-1000,4,1,0,50,0,1
88410,-50,4,1,0,5,0,0
88410,-50,4,1,0,50,0,0
91533,-25,4,1,0,50,0,0

[HitObjects]
32,136,465,6,0,P|101:107|180:124,1,150
256,78,1286,2,0,P|246:152|192:212,1,150
192,302,2108,2,0,P|132:256|107:179,1,150
33,141,2930,6,0,P|58:116|89:104,1,50
142,55,3341,2,0,P|126:36|105:24,1,50
75,112,3752,6,0,P|156:143|216:97,1,150
143,57,4574,2,0,P|208:26|273:58,1,150
295,136,5396,6,0,P|332:116|349:83,1,75
376,140,5807,2,0,P|398:104|396:67,1,75
440,96,6218,6,0,P|443:62|427:31,1,50
488,44,6526,2,0,P|473:13|444:-5,1,50
509,114,6834,2,0,L|509:120,1,5
512,208,7040,5,0,0:0:0:0:
471,194,7142,1,0,0:0:0:0:
434,211,7245,1,0,0:0:0:0:
393,197,7347,1,0,0:0:0:0:
356,214,7451,2,0,L|305:215,1,37.5000014305115
289,299,7656,5,0,0:0:0:0:
269,283,7758,1,0,0:0:0:0:
254,263,7861,1,0,0:0:0:0:
244,240,7964,1,0,0:0:0:0:
240,215,8067,2,0,P|239:195|242:179,1,25
149,203,8273,5,0,0:0:0:0:
181,125,8375,1,0,0:0:0:0:
264,108,8478,1,0,0:0:0:0:
324,167,8581,1,0,0:0:0:0:
287,192,8684,5,0,0:0:0:0:
235,183,8786,1,0,0:0:0:0:
201,209,8889,1,0,0:0:0:0:
154,202,8991,1,0,0:0:0:0:
116,227,9095,2,0,L|60:237,1,37.5000014305115
67,137,9300,5,0,0:0:0:0:
17,172,9402,1,0,0:0:0:0:
0,231,9505,1,0,0:0:0:0:
24,288,9608,1,0,0:0:0:0:
78,317,9710,1,0,0:0:0:0:
139,306,9813,1,0,0:0:0:0:
179,260,9917,5,0,0:0:0:0:
211,182,10019,1,0,0:0:0:0:
294,165,10122,1,0,0:0:0:0:
354,224,10225,1,0,0:0:0:0:
340,304,10328,5,0,0:0:0:0:
296,280,10430,1,0,0:0:0:0:
274,237,10533,1,0,0:0:0:0:
281,188,10636,1,0,0:0:0:0:
316,152,10738,2,0,P|344:138|380:141,1,50
354,224,10944,5,0,0:0:0:0:
390,218,11046,1,0,0:0:0:0:
422,198,11149,1,0,0:0:0:0:
442,167,11252,1,0,0:0:0:0:
448,130,11355,2,0,L|453:63,1,37.5000014305115
510,27,11560,5,0,0:0:0:0:
427,10,11663,1,0,0:0:0:0:
344,27,11766,1,0,0:0:0:0:
258,9,11869,1,0,0:0:0:0:
301,18,11972,5,0,0:0:0:0:
344,27,12074,1,0,0:0:0:0:
387,18,12177,1,0,0:0:0:0:
427,10,12280,1,0,0:0:0:0:
467,18,12382,2,0,L|515:29,1,50
472,112,12588,5,0,0:0:0:0:
500,165,12690,1,0,0:0:0:0:
488,225,12793,1,0,0:0:0:0:
440,266,12896,1,0,0:0:0:0:
380,267,12999,1,0,0:0:0:0:
330,229,13101,1,0,0:0:0:0:
306,169,13205,5,0,0:0:0:0:
252,91,13307,1,0,0:0:0:0:
159,91,13409,1,0,0:0:0:0:
118,176,13512,1,0,0:0:0:0:
211,176,13615,6,0,B|173:273|241:272|201:368,1,187.5
287,235,14026,1,0,0:0:0:0:
127,306,14232,1,0,0:0:0:0:
287,235,14437,6,0,B|322:147|269:144|296:46,1,187.5
376,98,14848,1,0,0:0:0:0:
211,176,15054,1,0,0:0:0:0:
380,178,15259,6,0,L|385:374,1,187.5
422,298,15670,2,0,L|427:109,1,187.5
391,14,16081,6,0,L|398:148,1,125
428,186,16389,2,0,L|431:54,1,125
352,256,16697,1,0,0:0:0:0:
272,192,16903,6,0,P|261:263|279:317,1,125
183,202,17314,1,0,0:0:0:0:
288,320,17519,5,0,0:0:0:0:
288,320,17622,1,0,0:0:0:0:
288,320,17725,1,0,0:0:0:0:
272,192,17930,5,0,0:0:0:0:
220,176,18033,1,0,0:0:0:0:
204,84,18136,5,0,0:0:0:0:
147,102,18239,1,0,0:0:0:0:
96,29,18341,5,0,0:0:0:0:
27,9,18444,1,0,0:0:0:0:
43,79,18547,6,0,L|31:203,1,125
133,332,18855,2,0,L|121:208,1,125
38,140,19163,2,0,L|30:202,1,62.5
125,270,19369,2,0,L|118:210,1,59.9999981689454
200,384,19985,5,0,0:0:0:0:
200,384,20088,1,0,0:0:0:0:
200,384,20191,2,0,L|307:374,1,100
392,367,20807,2,0,L|460:359,2,50
250,380,21423,2,0,L|318:375,1,50
392,367,21834,6,0,L|381:251,1,100
375,175,22451,2,0,L|372:126,2,50
387,316,23067,2,0,L|383:263,1,50
306,247,23478,6,0,P|272:250|243:251,1,62.5
155,255,23786,2,0,P|168:222|181:198,1,62.5
226,120,24095,2,0,P|236:133|244:145,1,31.25
157,74,24300,6,0,P|184:48|220:38,1,75.0000028610231
77,92,24608,2,0,P|77:54|95:22,1,75.0000028610231
17,145,24917,2,0,P|0:115|0:83,1,37.5000014305115
95,175,25122,6,0,P|95:215|98:262,1,87.500000834465
183,351,25430,2,0,P|182:301|179:263,1,87.500000834465
102,341,25738,2,0,P|101:369|104:410,1,43.7500004172325
179,263,25944,6,0,L|176:195,1,59.9999981689454
116,94,26560,1,0,0:0:0:0:
116,94,26766,6,0,P|160:97|207:85,1,75.0000028610231
227,0,27074,2,0,P|189:-4|152:2,1,75.0000028610231
190,91,27382,2,0,P|208:94|227:94,1,37.5000014305115
16,117,27588,6,0,P|16:61|40:25,1,87.500000834465
104,88,27896,2,0,P|107:131|89:170,1,87.500000834465
27,237,28204,2,0,P|12:222|4:202,1,43.7500004172325
164,305,28410,6,0,P|219:308|270:286,1,112.500004291535
246,114,28718,2,0,P|214:160|208:215,1,112.500004291535
343,230,29026,2,0,P|323:209|300:193,1,56.2500021457673
441,348,29232,2,0,P|459:369|482:384,1,56.2500021457673
274,275,29437,5,0,0:0:0:0:
512,306,29643,1,0,0:0:0:0:
343,230,29848,2,0,P|323:209|300:193,1,56.2500021457673
251,112,30054,6,0,P|306:105|359:125,1,88.0000026855469
159,114,30362,2,0,P|181:63|224:28,1,88.0000026855469
84,160,30670,2,0,P|76:139|75:118,1,44.0000013427735
88,289,30875,6,0,P|90:339|69:385,1,100
3,318,31183,2,0,P|-1:267|20:221,1,100
160,232,31492,2,0,P|176:269|172:310,1,50
231,71,31697,6,0,P|279:63|330:69,1,75.0000028610231
282,147,32006,2,0,P|233:154|184:149,1,75.0000028610231
231,71,32314,2,0,P|279:63|330:69,1,75.0000028610231
352,84,32622,1,0,0:0:0:0:
404,80,32725,1,0,0:0:0:0:
467,10,32930,5,0,0:0:0:0:
491,91,33033,1,0,0:0:0:0:
456,160,33136,1,0,0:0:0:0:
448,234,33238,1,0,0:0:0:0:
488,272,33341,6,0,P|498:305|481:366,2,75.0000028610231
357,308,33958,2,0,P|380:316|405:316,1,50
304,231,34163,2,0,P|285:247|272:268,1,50
397,224,34369,2,0,P|391:199|379:177,1,50
256,271,34574,6,0,P|267:249|285:231,1,50
414,330,34779,2,0,P|389:329|364:323,1,50
386,163,34985,2,0,P|398:184|404:208,2,50
222,80,35601,6,0,P|208:100|188:116,1,50
51,199,35807,2,0,P|49:174|55:150,1,50
121,7,36012,2,0,P|137:26|146:48,1,50
181,201,36218,2,0,P|156:194|135:181,1,50
12,77,36423,2,0,P|35:67|59:66,1,50
275,15,36629,6,0,B|318:14|318:14|338:21|338:21|387:20,1,113.000000344849
511,0,36937,2,0,B|488:36|488:36|484:57|484:57|459:98,1,113.000000344849
381,162,37245,2,0,B|364:147|364:147|351:116,1,56.5000001724243
305,210,37451,6,0,B|343:243|343:243|380:252|380:252|416:274,1,125
477,342,37759,2,0,B|439:309|439:309|402:300|402:300|366:278,1,125
187,280,38067,6,0,B|221:301|221:301|251:310|251:310|272:333|272:333|314:353,1,150.000005722046
345,340,38273,6,0,B|287:312|287:312|260:281|260:281|220:270|220:270|174:242,1,200
262,198,38581,2,0,P|337:157|337:243,1,200
333,213,38889,2,0,P|326:167|290:197,1,100
418,179,39095,5,0,0:0:0:0:
395,123,39197,1,0,0:0:0:0:
351,93,39300,1,0,0:0:0:0:
304,89,39403,1,0,0:0:0:0:
261,107,39505,1,0,0:0:0:0:
159,80,39711,5,0,0:0:0:0:
191,173,39814,1,0,0:0:0:0:
245,22,39917,1,0,0:0:0:0:
136,73,40122,5,0,0:0:0:0:
168,166,40225,1,0,0:0:0:0:
113,66,40533,5,0,0:0:0:0:
145,159,40636,1,0,0:0:0:0:
16,85,40738,1,0,0:0:0:0:
113,66,40944,5,0,0:0:0:0:
145,159,41047,1,0,0:0:0:0:
166,191,41149,1,0,0:0:0:0:
187,227,41252,1,0,0:0:0:0:
212,260,41355,5,0,0:0:0:0:
269,331,41458,1,0,0:0:0:0:
261,185,41561,1,0,0:0:0:0:
352,298,41767,5,0,0:0:0:0:
348,208,41869,1,0,0:0:0:0:
438,321,42177,5,0,0:0:0:0:
431,176,42279,1,0,0:0:0:0:
488,245,42381,1,0,0:0:0:0:
348,208,42588,5,0,0:0:0:0:
336,248,42691,1,0,0:0:0:0:
352,298,42793,1,0,0:0:0:0:
438,321,42896,1,0,0:0:0:0:
488,245,42999,1,0,0:0:0:0:
431,176,43101,1,0,0:0:0:0:
348,208,43204,6,0,B|275:236|285:177|200:205,1,150.000005722046
166,266,43512,1,0,0:0:0:0:
240,272,43615,1,0,0:0:0:0:
240,272,43821,1,0,0:0:0:0:
343,328,44026,6,0,B|270:300|280:359|195:331,1,150.000005722046
176,272,44334,1,0,0:0:0:0:
240,272,44437,1,0,0:0:0:0:
144,320,44643,1,0,0:0:0:0:
144,352,44745,1,0,0:0:0:0:
160,384,44848,6,0,B|104:373|104:373|80:358|80:358|34:343,1,125
25,285,45156,2,0,L|94:307,1,37.5000014305115
202,327,45464,2,0,B|305:363|284:289|404:335,1,187.5
464,288,45875,2,0,L|488:357,1,62.5
400,208,46081,2,0,L|388:242,1,25
464,128,46286,2,0,L|470:145,1,12.5
368,125,46492,6,0,B|323:130|295:106|295:106|258:123|212:102,1,150.000005722046
263,37,46800,2,0,P|339:8|315:73,1,150.000005722046
286,171,47108,1,0,0:0:0:0:
286,171,47211,1,0,0:0:0:0:
286,171,47314,2,0,P|238:172|184:151,1,75.0000028610231
81,87,47519,2,0,P|129:86|183:107,1,75.0000028610231
252,135,47725,6,0,L|235:284,1,150.000005722046
115,149,48033,2,0,L|98:0,1,150.000005722046
261,60,48341,1,0,0:0:0:0:
261,60,48444,1,0,0:0:0:0:
260,60,48547,2,0,L|251:134,1,75.0000028610231
313,364,48958,6,0,P|313:326|330:293,1,75.0000028610231
510,317,49163,2,0,P|507:279|489:247,1,75.0000028610231
240,265,49369,6,0,P|260:233|292:214,1,75.0000028610231
405,384,49574,2,0,P|421:350|422:313,1,75.0000028610231
399,155,49780,6,0,B|369:100|369:100|366:59|366:59|331:-5,1,150.000005722046
298,11,50088,2,0,P|355:-21|383:45,1,150.000005722046
313,149,50396,1,0,0:0:0:0:
313,149,50499,1,0,0:0:0:0:
313,149,50601,2,0,P|266:151|218:120,1,75.0000028610231
91,53,50807,2,0,P|137:50|185:81,1,75.0000028610231
378,203,51012,6,0,B|401:182|401:136|401:136|415:190|387:263,1,162.999999875641
416,303,51321,2,0,B|441:303|457:290|457:290|425:328|381:336|337:317,1,162.999999875641
153,281,51629,2,0,P|204:268|251:287,1,81.4999999378204
416,303,51834,1,0,0:0:0:0:
231,275,52040,5,0,0:0:0:0:
191,268,52143,1,0,0:0:0:0:
153,281,52245,1,0,0:0:0:0:
196,355,52451,1,0,0:0:0:0:
111,293,52656,5,0,0:0:0:0:
67,287,52759,1,0,0:0:0:0:
33,246,52862,1,0,0:0:0:0:
48,175,52964,1,0,0:0:0:0:
121,159,53067,1,0,0:0:0:0:
160,80,53273,5,0,0:0:0:0:
121,159,53375,1,0,0:0:0:0:
203,149,53581,5,0,0:0:0:0:
239,67,53683,1,0,0:0:0:0:
179,1,53786,1,0,0:0:0:0:
100,25,53889,1,0,0:0:0:0:
160,79,54095,5,0,0:0:0:0:
121,159,54197,1,0,0:0:0:0:
100,25,54403,5,0,0:0:0:0:
179,1,54506,1,0,0:0:0:0:
239,67,54609,1,0,0:0:0:0:
356,20,54711,1,0,0:0:0:0:
269,98,54917,5,0,0:0:0:0:
363,59,55019,1,0,0:0:0:0:
297,133,55225,5,0,0:0:0:0:
371,99,55327,1,0,0:0:0:0:
359,181,55430,1,0,2:0:0:0:
297,133,55533,1,0,2:0:0:0:
363,59,55738,5,0,0:0:0:0:
269,98,55840,1,0,0:0:0:0:
346,157,56047,5,0,0:0:0:0:
269,98,56150,1,0,0:0:0:0:
183,48,56253,1,0,0:0:0:0:
269,98,56355,2,0,B|229:159|259:226|259:226|219:225|219:225|248:293|211:348,1,300.000011444092
83,293,56971,6,0,P|125:294|172:286,1,62.5
28,170,57177,2,0,P|66:197|109:210,1,75.0000028610231
40,40,57382,2,0,P|59:81|90:114,1,87.500000834465
150,23,57588,1,0,0:0:0:0:
268,53,57793,5,0,0:0:0:0:
268,53,57896,1,0,0:0:0:0:
268,53,57999,6,0,B|309:79|313:124|313:124|311:81|364:39,1,175.00000166893
365,104,58307,2,0,P|259:136|285:74,1,200
260,194,58615,2,0,P|318:215|385:162,1,112.500004291535
399,269,58821,6,0,B|310:343|222:269|222:269|249:288|293:290,1,250
170,189,59129,2,0,B|122:239|141:319|141:319|119:240|43:232,1,275.000002622604
67,200,59437,2,0,B|111:204|123:250|123:250|112:204|140:175,1,162.500004649162
81,107,59643,6,0,P|66:100|65:114,1,35
102,99,60464,1,0,0:0:0:0:
127,69,60567,1,0,0:0:0:0:
165,69,60670,1,0,0:0:0:0:
196,40,60773,1,0,0:0:0:0:
188,0,60875,5,0,0:0:0:0:
146,38,60978,1,0,0:0:0:0:
96,38,61081,1,0,0:0:0:0:
63,78,61184,1,0,0:0:0:0:
13,78,61286,6,0,B|66:189|21:258|21:258|97:200|76:127,1,300
162,188,61697,2,0,B|167:128|129:98|129:98|180:122|194:172,1,200
80,167,62006,1,0,0:0:0:0:
97,249,62108,6,0,B|155:295|212:255|212:255|239:277|239:277|305:244|367:290,1,262.500002503395
292,356,62519,2,0,B|352:376|388:351|402:318|402:318|385:342|353:355,1,175.00000166893
337,272,62828,1,0,0:0:0:0:
406,237,62930,6,0,B|457:248|480:297|480:297|462:242|475:188,1,200
483,114,63238,1,0,0:0:0:0:
401,142,63341,2,0,P|418:56|516:35,1,200
432,7,63649,1,0,0:0:0:0:
362,61,63752,6,0,P|314:52|261:66,1,75.0000028610231
133,196,63958,2,0,P|170:205|207:202,1,75.0000028610231
180,14,64163,2,0,P|171:51|174:88,1,75.0000028610231
318,234,64369,2,0,P|324:197|319:161,1,75.0000028610231
191,22,64574,6,0,P|182:51|186:82,1,62.5
173,87,64780,2,0,P|167:56|173:11,1,75.0000028610231
133,196,64985,5,0,0:0:0:0:
127,216,65088,1,0,0:0:0:0:
123,237,65191,1,0,0:0:0:0:
118,258,65294,1,0,0:0:0:0:
115,273,65396,5,0,0:0:0:0:
59,225,65498,1,0,0:0:0:0:
53,152,65601,1,0,0:0:0:0:
99,95,65704,1,0,0:0:0:0:
173,87,65807,2,0,P|167:56|173:11,1,75.0000028610231
191,22,66012,2,0,P|182:51|186:82,1,62.5
133,196,66218,6,0,B|108:215|99:240|99:240|185:264|227:184,1,200
132,98,66526,1,0,0:0:0:0:
53,152,66629,2,0,P|13:273|143:337,1,200
102,238,66937,1,0,0:0:0:0:
152,325,67040,6,0,L|414:332,1,200
404,338,67348,2,0,L|195:351,1,200
380,285,67656,2,0,P|373:227|388:180,1,100
459,241,67862,6,0,P|444:116|371:89,1,200
313,10,68170,1,0,0:0:0:0:
387,89,68273,2,0,P|279:111|204:22,1,200
125,0,68581,1,0,0:0:0:0:
119,99,68684,6,0,L|113:298,1,200
98,248,68992,2,0,L|85:48,1,200
125,0,69300,2,0,L|118:124,1,100
47,317,69506,6,0,P|18:217|150:180,1,200
98,248,69814,2,0,L|297:243,1,200
397,240,70122,2,0,L|267:244,1,100
222,153,70328,2,0,L|360:157,1,100
329,127,70533,1,0,0:0:0:0:
336,93,70636,1,0,0:0:0:0:
325,52,70738,5,0,0:0:0:0:
354,98,70841,1,0,0:0:0:0:
404,107,70944,1,0,0:0:0:0:
449,85,71047,1,0,0:0:0:0:
461,37,71149,6,0,B|468:79|440:119|381:131|336:107|324:49|324:49|344:90|390:113|471:59,1,300
244,10,71560,2,0,P|244:72|266:123,1,100,0|0,0:0|2:3,0:0:0:0:
185,143,71766,2,0,P|223:182|278:185,1,112.500004291535
256,107,72177,1,0,0:0:0:0:
114,179,72382,1,0,0:0:0:0:
0,102,72588,1,0,0:0:0:0:
0,102,72691,1,0,0:0:0:0:
0,102,72793,6,0,P|-4:151|1:201,1,100
112,278,72999,1,0,0:0:0:0:
112,278,73101,1,0,0:0:0:0:
112,278,73204,2,0,P|118:228|113:178,1,100
17,303,73410,2,0,P|80:367|211:282,1,200
210,367,73718,5,0,0:0:0:0:
256,350,73821,1,0,0:0:0:0:
305,359,73924,1,0,0:0:0:0:
349,334,74027,1,0,0:0:0:0:
436,348,74129,5,0,0:0:0:0:
423,282,74232,1,0,0:0:0:0:
353,241,74335,1,0,0:0:0:0:
281,276,74437,6,0,P|392:253|437:334,1,200
349,334,74746,1,0,0:0:0:0:
447,304,74848,2,0,P|374:227|275:262,1,209.999993591309
349,334,75157,1,0,0:0:0:0:
250,384,75259,6,0,B|176:347|189:247|189:247|193:303|246:326,1,250
292,231,75568,1,0,0:0:0:0:
266,127,75670,2,0,B|186:162|189:236|189:236|189:160|103:128,1,275.000002622604
89,231,75978,1,0,0:0:0:0:
119,133,76081,6,0,P|-11:213|21:308,1,275.000002622604
89,231,76390,1,0,0:0:0:0:
25,284,76492,2,0,P|14:190|99:149,1,200
89,231,76800,1,0,0:0:0:0:
186,200,76903,6,0,P|196:148|177:88,1,100
0,83,77108,2,0,P|15:35|49:0,1,100
230,13,77314,2,0,P|264:49|279:96,1,100
91,196,77519,2,0,P|81:148|92:99,1,100
230,13,77725,6,0,B|277:51|280:96|280:96|286:37|348:0,1,187.5
374,98,78136,2,0,L|381:214,1,100
455,326,78341,2,0,L|469:227,1,100
374,98,78547,1,0,0:0:0:0:
374,98,78649,1,0,0:0:0:0:
374,98,78752,2,0,L|381:214,1,100
274,270,78958,2,0,B|270:211|270:211|282:180|282:180|277:102,1,150.000005722046
235,76,79369,6,0,B|240:174|240:174|226:217|226:217|232:327,1,225.000008583069
279,384,79677,2,0,B|236:341|231:295|231:295|225:343|186:388,1,200
187,366,79985,2,0,P|211:330|218:289,1,75.0000028610231
265,212,80191,6,0,B|139:189|199:262|57:236,1,200
15,308,80499,2,0,P|-11:200|75:146,1,175.00000166893
66,80,80807,2,0,P|99:116|109:152,1,75.0000028610231
72,238,81012,6,0,B|191:254|152:192|265:212,1,200
229,300,81321,1,0,0:0:0:0:
271,203,81423,2,0,P|211:195|160:219,1,100
229,300,81629,2,0,B|277:318|319:297|319:297|346:309|346:309|391:286|441:313,1,200
388,384,81937,1,0,0:0:0:0:
496,359,82040,6,0,P|511:304|491:238,1,100
412,115,82245,2,0,P|405:164|419:211,1,100
460,42,82451,2,0,P|413:29|354:49,1,100
271,33,82656,6,0,B|398:68|350:-21|518:48,1,200
500,117,82965,1,0,0:0:0:0:
412,115,83067,2,0,P|406:164|419:211,1,100
465,29,83273,2,0,B|356:-2|384:65|271:33,1,200
233,20,83581,1,0,0:0:0:0:
170,41,83684,1,0,0:0:0:0:
100,38,83786,1,0,0:0:0:0:
28,0,83889,5,0,0:0:0:0:
15,79,83991,1,0,0:0:0:0:
31,155,84094,1,0,0:0:0:0:
11,233,84197,1,0,0:0:0:0:
96,205,84300,5,0,0:0:0:0:
181,177,84403,1,0,0:0:0:0:
162,265,84506,1,0,0:0:0:0:
143,352,84609,1,0,0:0:0:0:
77,293,84711,5,0,0:0:0:0:
162,264,84814,1,0,0:0:0:0:
247,236,84917,1,0,0:0:0:0:
228,323,85019,1,0,0:0:0:0:
143,352,85122,5,0,0:0:0:0:
77,293,85225,1,0,0:0:0:0:
96,205,85328,1,0,0:0:0:0:
181,177,85431,1,0,0:0:0:0:
247,236,85533,5,0,0:0:0:0:
338,286,85636,1,0,0:0:0:0:
426,228,85738,1,0,0:0:0:0:
421,124,85841,1,0,0:0:0:0:
346,47,85944,6,0,B|305:79|307:122|307:122|302:77|261:51,1,175.00000166893
254,106,86252,2,0,P|308:173|361:105,1,200
351,197,86560,2,0,P|297:211|249:185,1,112.500004291535
166,172,86766,6,0,B|136:191|129:212|129:212|110:155|134:104|179:85|179:85|169:115|185:153,1,250
198,245,87074,2,0,B|163:305|100:283|100:283|157:294|191:362,1,225.000008583069
88,301,87382,2,0,P|145:316|169:354,1,100
103,378,87588,6,0,P|109:363|94:368,1,40
