osu file format v14

[General]
AudioFilename: audio.mp3
AudioLeadIn: 0
PreviewTime: 61184
Countdown: 0
SampleSet: Soft
StackLeniency: 0.7
Mode: 0
LetterboxInBreaks: 0
WidescreenStoryboard: 0

[Editor]
DistanceSpacing: 0.6
BeatDivisor: 4
GridSize: 4
TimelineZoom: 2

[Metadata]
Title:DEAREST DROP (TVsize)
TitleUnicode:DEAREST DROP (TVsize)
Artist:Azusa Tadokoro
ArtistUnicode:田所あずさ
Creator:Karen
Version:xxdeathx's Insane
Source:終末なにしてますか? 忙しいですか? 救ってもらっていいですか?
Tags:Sukasuka Worldend tv size Shuumatsu Nani Shitemasu ka? Isogashii desu ka? Sukutte Moratte Ii desu ka? What do you do at the end of the world? Are you busy? Will you save us? chtholly Yohanes xxdeathx Rizia Kawaiwkyik
BeatmapID:1412622
BeatmapSetID:646199

[Difficulty]
HPDrainRate:5.5
CircleSize:4.5
OverallDifficulty:8
ApproachRate:9
SliderMultiplier:1.6
SliderTickRate:1

[Events]
//Background and Video events
0,0,"chtholly.png",0,0
//Break Periods
//Storyboard Layer 0 (Background)
//Storyboard Layer 1 (Fail)
//Storyboard Layer 2 (Pass)
//Storyboard Layer 3 (Foreground)
//Storyboard Sound Samples

[TimingPoints]
465,410.958904109589,4,2,1,30,1,0
465,-125,4,2,1,30,0,0
7040,-83.3333333333333,4,2,1,60,0,0
13615,-100,4,2,1,60,0,0
18547,-66.6666666666667,4,2,1,60,0,0
19369,-125,4,2,1,40,0,0
20191,-125,4,2,1,30,0,0
32519,-83.3333333333333,4,2,1,40,0,0
33341,-100,4,2,1,50,0,0
39917,-66.6666666666667,4,2,1,50,0,0
43204,-83.3333333333333,4,2,1,50,0,0
44848,-66.6666666666667,4,2,1,50,0,0
45464,-83.3333333333333,4,2,1,50,0,0
46492,-100,4,2,1,40,0,0
53067,-83.3333333333333,4,2,1,50,0,0
59643,-100,4,2,1,40,0,0
60464,-66.6666666666667,4,2,1,50,0,0
61286,-83.3333333333333,4,2,1,60,0,1
66218,-100,4,2,1,60,0,1
66629,-66.6666666666667,4,2,1,60,0,1
67040,-83.3333333333333,4,2,1,60,0,1
71149,-66.6666666666667,4,2,1,60,0,1
74437,-83.3333333333333,4,2,1,60,0,1
77725,-66.6666666666667,4,2,1,60,0,1
78341,-83.3333333333333,4,2,1,60,0,1
79369,-66.6666666666667,4,2,1,60,0,1
85944,-83.3333333333333,4,2,1,50,0,0
87588,-100,4,2,1,40,0,0
88410,-100,4,2,1,10,0,0

[Colours]
Combo1 : 255,102,102
Combo2 : 89,172,255

[HitObjects]
40,240,465,6,0,B|116:184|156:288|228:232,1,192,2|0,0:0|0:0,0:0:0:0:
296,60,1286,2,0,P|204:72|192:172,1,192,2|0,0:0|0:0,0:0:0:0:
300,284,2108,6,0,P|335:198|255:137,1,192,2|0,0:0|0:0,0:0:0:0:
188,248,2930,2,0,P|228:234|253:198,1,64,2|0,0:0|0:0,0:0:0:0:
104,128,3341,2,0,P|95:169|114:209,1,64,0|0,0:0|0:0,0:0:0:0:
364,148,3752,6,0,B|283:98|252:205|176:156,1,192,2|0,0:0|0:0,0:0:0:0:
320,228,4574,2,0,P|360:244|456:140,1,192,2|0,0:0|0:0,0:0:0:0:
396,68,5396,5,2,0:0:0:0:
300,116,5807,1,0,0:0:0:0:
180,52,6218,2,0,P|144:72|140:144,2,96
316,64,7040,5,4,1:2:0:0:
313,95,7143,1,0,0:0:0:0:
310,127,7245,1,8,0:0:0:0:
307,159,7348,1,8,0:0:0:0:
305,191,7451,2,0,L|300:248,1,47.9999985351563,8|0,0:0|0:0,0:0:0:0:
84,212,7656,5,8,0:0:0:0:
95,182,7758,1,0,0:0:0:0:
117,160,7862,1,8,0:0:0:0:
147,149,7964,1,8,0:0:0:0:
180,152,8067,2,0,P|212:168|224:192,1,47.9999985351563,8|0,0:0|0:0,0:0:0:0:
280,320,8273,5,8,0:0:0:0:
248,325,8375,1,0,0:0:0:0:
218,316,8478,1,8,0:0:0:0:
193,296,8581,1,8,0:0:0:0:
160,228,8684,5,2,1:3:0:0:
157,197,8786,1,0,0:0:0:0:
154,165,8889,1,8,0:0:0:0:
151,133,8992,1,8,0:0:0:0:
149,101,9095,2,0,L|144:40,1,47.9999985351563,8|0,0:0|0:0,0:0:0:0:
388,144,9300,5,8,0:0:0:0:
367,173,9402,1,0,0:0:0:0:
337,191,9506,1,8,0:3:0:0:
301,194,9608,1,10,0:3:0:0:
268,182,9711,2,0,P|247:167|235:139,1,47.9999985351563,10|0,0:3|0:0,0:0:0:0:
222,26,9917,5,8,0:0:0:0:
257,28,10019,1,8,0:0:0:0:
293,30,10122,1,8,0:0:0:0:
329,32,10225,1,8,0:0:0:0:
308,104,10328,5,4,1:2:0:0:
281,127,10430,1,0,0:0:0:0:
267,160,10533,1,8,0:0:0:0:
270,196,10636,1,8,0:0:0:0:
289,226,10738,2,0,P|311:247|347:251,1,47.9999985351563,8|0,0:0|0:0,0:0:0:0:
500,232,10944,5,8,0:0:0:0:
492,197,11046,1,0,0:0:0:0:
470,169,11149,1,8,0:0:0:0:
438,153,11252,1,8,0:0:0:0:
402,155,11355,2,0,P|372:163|352:188,1,47.9999985351563,8|0,0:0|0:0,0:0:0:0:
241,285,11560,5,8,0:0:0:0:
238,249,11662,1,0,0:0:0:0:
235,213,11765,1,8,0:0:0:0:
232,177,11868,1,8,0:0:0:0:
156,192,11971,5,2,1:3:0:0:
122,204,12073,1,0,0:0:0:0:
87,199,12176,1,8,0:0:0:0:
57,179,12279,1,8,0:0:0:0:
40,148,12382,2,0,P|36:120|48:88,1,47.9999985351563,8|0,0:0|0:0,0:0:0:0:
232,44,12588,5,8,0:0:0:0:
252,81,12690,1,0,0:0:0:0:
251,124,12793,1,8,0:0:0:0:
238,165,12896,1,8,0:0:0:0:
236,208,12998,1,8,0:0:0:0:
255,246,13101,1,8,0:0:0:0:
312,192,13204,5,8,0:0:0:0:
262,169,13306,1,8,0:0:0:0:
209,183,13409,1,8,0:0:0:0:
178,229,13512,1,8,0:0:0:0:
200,309,13615,6,0,P|271:329|336:262,1,160,6|8,1:2|0:0,0:0:0:0:
328,60,14232,1,2,0:0:0:0:
328,60,14334,1,2,0:0:0:0:
328,60,14437,2,0,P|309:98|330:149,1,80,2|0,1:2|0:0,0:0:0:0:
468,240,14848,2,0,P|484:200|462:148,1,80,8|2,0:0|0:0,0:0:0:0:
420,76,15156,1,2,0:0:0:0:
392,108,15259,6,0,P|332:140|276:116,1,120,2|0,1:2|0:0,0:0:0:0:
220,96,15670,2,0,L|208:196,1,80,10|2,1:2|0:0,0:0:0:0:
99,304,16081,2,0,P|79:269|89:220,1,80,2|0,1:2|0:0,0:0:0:0:
119,165,16389,1,2,1:2:0:0:
119,165,16492,1,8,0:0:0:0:
1,88,16697,1,0,0:0:0:0:
1,88,16800,1,0,0:0:0:0:
1,88,16903,6,0,B|64:119|96:55|160:91,1,160,2|8,1:2|0:0,0:0:0:0:
233,127,17417,1,0,0:0:0:0:
222,158,17519,2,0,P|217:180|228:208,1,40
365,201,17725,2,0,P|347:186|318:181,1,40,2|0,0:3|0:0,0:0:0:0:
258,302,17930,2,0,P|279:294|298:271,1,40
384,103,18136,5,8,0:0:0:0:
437,86,18238,1,8,0:0:0:0:
484,118,18341,1,8,0:0:0:0:
502,168,18444,1,8,0:0:0:0:
476,218,18547,6,0,P|420:191|350:213,1,120.000004577637,6|0,1:2|0:0,0:0:0:0:
347,351,18855,2,0,P|403:378|473:356,1,120.000004577637,8|0,0:3|0:0,0:0:0:0:
411,284,19163,2,0,L|336:273,1,60.0000022888184,2|0,0:3|0:0,0:0:0:0:
233,364,19369,6,0,B|278:364|301:333|301:333|321:352|362:352,1,128,4|0,1:2|0:0,0:0:0:0:
212,171,19985,1,2,0:0:0:0:
212,171,20088,1,2,0:0:0:0:
212,171,20191,6,0,P|250:225|230:293,1,128,2|0,0:0|0:0,0:0:0:0:
147,358,20807,1,2,0:0:0:0:
212,171,21012,1,0,0:0:0:0:
42,197,21218,1,0,0:0:0:0:
162,76,21423,1,2,0:0:0:0:
135,245,21629,1,0,0:0:0:0:
59,92,21834,6,0,P|121:52|189:79,1,128,2|0,0:0|0:0,0:0:0:0:
277,160,22451,1,2,0:0:0:0:
426,29,22656,1,0,0:0:0:0:
382,222,22862,1,0,0:0:0:0:
303,43,23067,1,2,0:0:0:0:
473,139,23273,1,0,0:0:0:0:
277,160,23478,6,0,L|160:172,2,96,2|0|2,0:0|0:0|0:0,0:0:0:0:
382,222,24300,2,0,L|494:234,2,96,0|0|0,0:0|0:0|0:0,0:0:0:0:
280,268,25122,6,0,L|288:376,2,96,2|2|2,0:0|0:0|0:0,0:0:0:0:
84,220,25944,2,0,P|108:240|180:236,1,96,2|0,0:0|0:0,0:0:0:0:
232,200,26355,2,0,L|224:156,2,32,2|0|0,0:0|0:0|0:0,0:0:0:0:
276,336,26766,6,0,P|304:312|364:316,1,96,2|0,0:0|0:0,0:0:0:0:
432,336,27177,2,0,L|424:256,1,64,0|2,0:0|0:0,0:0:0:0:
508,60,27588,2,0,B|488:92|524:120|504:156,1,96,0|0,0:0|0:0,0:0:0:0:
448,196,27999,2,0,P|416:192|372:220,1,64,2|0,0:0|0:0,0:0:0:0:
104,184,28410,6,0,P|152:208|212:184,1,96,2|2,0:0|0:0,0:0:0:0:
240,136,28821,2,0,L|324:140,1,64,0|2,0:0|0:0,0:0:0:0:
156,4,29232,2,0,P|136:44|140:80,1,64,2|0,0:0|0:0,0:0:0:0:
160,128,29540,1,0,0:0:0:0:
160,128,29643,1,2,0:0:0:0:
40,72,29848,1,0,0:0:0:0:
240,64,30054,6,0,L|352:56,2,96,2|2|2,0:0|0:0|0:0,0:0:0:0:
152,204,30875,2,0,L|44:192,2,96,2|2|2,0:0|0:0|0:0,0:0:0:0:
340,280,31697,6,0,B|332:248|332:248|344:216|344:216|336:176,1,96,2|2,0:1|0:1,0:0:0:0:
240,64,32211,1,0,0:0:0:0:
236,104,32314,1,2,0:1:0:0:
253,340,32519,5,8,0:0:0:0:
224,296,32622,1,8,0:0:0:0:
223,243,32725,2,0,P|230:219|254:196,1,47.9999985351563,8|0,0:0|0:0,0:0:0:0:
490,192,32930,1,8,0:0:0:0:
478,244,33032,1,8,0:0:0:0:
441,282,33135,1,8,0:3:0:0:
390,295,33238,1,8,0:3:0:0:
339,279,33341,6,0,P|283:253|221:279,1,120,4|0,1:2|0:0,0:0:0:0:
189,328,33752,1,8,0:0:0:0:
104,202,33958,1,2,0:0:0:0:
239,26,34163,2,0,L|234:121,1,80,2|2,0:3|0:0,0:0:0:0:
383,190,34574,2,0,L|388:95,1,80,8|2,0:0|0:0,0:0:0:0:
147,202,34985,6,0,P|197:240|264:237,1,120,2|0,0:3|0:0,0:0:0:0:
307,200,35396,1,8,0:0:0:0:
220,316,35601,1,2,0:0:0:0:
316,82,35807,1,2,0:3:0:0:
192,230,36012,1,2,0:0:0:0:
203,35,36218,1,8,0:0:0:0:
307,200,36423,1,2,0:0:0:0:
126,127,36629,6,0,P|60:128|20:172,1,120,2|0,0:3|0:0,0:0:0:0:
4,232,37040,1,8,0:0:0:0:
16,56,37245,1,2,0:0:0:0:
208,176,37451,2,0,L|200:312,1,120,2|2,0:3|0:0,0:0:0:0:
196,368,37862,1,8,0:0:0:0:
104,220,38067,1,2,0:0:0:0:
324,308,38273,6,0,P|380:304|428:256,1,120,2|0,0:3|0:0,0:0:0:0:
440,192,38684,1,8,0:0:0:0:
272,128,38889,1,2,0:0:0:0:
440,24,39095,1,2,0:3:0:0:
438,51,39197,1,8,0:0:0:0:
437,79,39300,2,0,L|433:142,1,40,0|0,0:0|0:0,0:0:0:0:
425,262,39506,1,8,0:0:0:0:
272,128,39711,1,2,0:0:0:0:
272,128,39814,1,8,0:0:0:0:
272,128,39917,6,0,L|416:120,1,120.000004577637,4|0,1:2|0:0,0:0:0:0:
456,56,40225,1,2,0:3:0:0:
472,32,40328,1,8,0:0:0:0:
320,220,40533,6,0,L|176:212,1,120.000004577637,4|0,1:2|0:0,0:0:0:0:
36,92,40944,1,8,0:0:0:0:
36,92,41047,1,0,0:0:0:0:
36,92,41149,2,0,L|68:152,1,60.0000022888184,8|8,0:0|0:0,0:0:0:0:
84,272,41355,1,8,0:0:0:0:
84,272,41458,1,8,0:0:0:0:
84,272,41560,6,0,L|144:160,1,120.000004577637,4|0,1:2|0:0,0:0:0:0:
180,72,41869,1,2,0:3:0:0:
144,72,41971,1,8,0:0:0:0:
284,288,42177,6,0,L|408:280,1,120.000004577637,4|0,1:2|0:0,0:0:0:0:
488,280,42485,1,2,0:3:0:0:
488,280,42588,2,0,L|504:360,1,60.0000022888184,8|0,0:0|0:0,0:0:0:0:
403,280,42793,5,8,0:0:0:0:
408,219,42895,1,8,0:0:0:0:
415,160,42998,1,8,0:0:0:0:
421,100,43101,1,8,0:0:0:0:
388,32,43204,6,0,P|432:56|484:48,1,95.9999970703126,4|0,1:2|0:0,0:0:0:0:
340,92,43512,2,0,P|296:116|244:108,1,95.9999970703126,8|0,0:0|0:0,0:0:0:0:
184,72,43821,2,0,L|192:16,1,47.9999985351563,8|0,0:0|0:0,0:0:0:0:
112,112,44026,6,0,L|124:228,1,95.9999970703126,4|0,1:2|0:0,0:0:0:0:
92,284,44334,1,2,0:3:0:0:
92,284,44437,2,0,P|68:272|32:272,1,47.9999985351563,8|0,0:0|0:0,0:0:0:0:
176,272,44643,2,0,P|191:250|223:233,1,47.9999985351563,0|0,0:0|0:0,0:0:0:0:
332,244,44848,6,0,B|316:304|316:304|249:311,1,120.000004577637,12|0,1:2|0:0,0:0:0:0:
176,272,45156,1,8,0:0:0:0:
176,272,45464,2,0,B|141:217|205:181|169:129,1,143.999995605469,12|0,1:2|0:0,0:0:0:0:
140,68,45875,1,8,0:0:0:0:
376,100,46081,1,8,0:0:0:0:
336,104,46184,1,0,0:0:0:0:
296,108,46286,2,0,L|232:112,1,47.9999985351563,8|8,0:3|0:3,0:0:0:0:
384,216,46492,6,0,P|418:198|458:201,1,80,12|0,1:2|0:0,0:0:0:0:
309,221,46800,2,0,P|269:212|232:225,1,80,8|0,0:0|0:0,0:0:0:0:
349,285,47108,1,8,0:0:0:0:
341,149,47314,2,0,L|336:61,1,80,8|0,0:0|0:0,0:0:0:0:
152,144,47725,6,0,P|189:155|227:145,1,80,12|0,1:2|0:0,0:0:0:0:
79,154,48033,2,0,P|42:171|3:164,1,80,8|0,0:0|0:0,0:0:0:0:
107,83,48341,1,8,0:0:0:0:
124,218,48547,2,0,L|136:305,1,80,8|0,0:0|0:0,0:0:0:0:
216,236,48958,5,8,0:0:0:0:
232,324,49163,1,8,0:0:0:0:
268,140,49369,5,2,0:3:0:0:
284,52,49574,1,2,0:3:0:0:
388,208,49780,6,0,P|440:208|466:190,1,80,12|0,1:2|0:0,0:0:0:0:
311,216,50088,2,0,P|260:228|230:218,1,80,8|0,0:0|0:0,0:0:0:0:
343,145,50396,1,8,0:0:0:0:
356,276,50601,2,0,L|364:364,1,80,8|0,0:0|0:0,0:0:0:0:
160,308,51012,6,0,P|210:296|240:308,1,80,12|0,1:2|0:0,0:0:0:0:
81,314,51320,2,0,P|28:311|1:328,1,80,8|0,0:0|0:0,0:0:0:0:
127,378,51628,1,8,0:0:0:0:
112,240,51834,2,0,L|104:152,1,80,8|0,0:0|0:0,0:0:0:0:
192,128,52143,1,8,0:0:0:0:
232,136,52245,6,0,P|256:136|276:128,1,40,8|0,0:0|0:0,0:0:0:0:
254,12,52451,2,0,P|242:32|238:54,1,40,0|0,1:0|0:0,0:0:0:0:
354,158,52656,1,8,0:0:0:0:
356,130,52759,1,8,0:0:0:0:
359,102,52862,1,8,0:0:0:0:
399,291,53067,5,4,1:2:0:0:
235,241,53273,1,0,0:0:0:0:
272,252,53375,2,0,L|327:271,1,47.9999985351563,8|8,0:0|0:0,0:0:0:0:
474,260,53581,1,0,0:0:0:0:
399,291,53684,2,0,L|285:334,1,95.9999970703126,4|0,1:2|0:0,0:0:0:0:
53,371,54095,5,0,1:0:0:0:
62,348,54197,2,0,L|81:293,1,47.9999985351563,0|0,0:0|1:0,0:0:0:0:
155,266,54403,1,0,0:0:0:0:
146,243,54505,2,0,L|127:188,1,47.9999985351563,8|8,0:0|0:0,0:0:0:0:
76,40,54711,5,4,1:2:0:0:
274,132,54917,1,0,0:0:0:0:
239,145,55019,2,0,P|211:145|188:136,1,47.9999985351563,8|8,0:0|0:0,0:0:0:0:
46,167,55225,1,0,0:0:0:0:
107,114,55328,2,0,P|158:113|206:165,1,95.9999970703126,4|0,1:2|0:0,0:0:0:0:
256,238,55636,5,8,0:0:0:0:
230,260,55738,2,0,P|220:281|222:312,1,47.9999985351563,0|8,0:0|0:0,0:0:0:0:
306,376,55944,2,0,P|329:374|355:356,1,47.9999985351563,0|0,1:0|0:0,0:0:0:0:
429,249,56149,1,8,0:0:0:0:
432,193,56252,1,8,0:0:0:0:
361,219,56355,6,0,P|284:237|224:174,1,143.999995605469,4|0,1:2|0:0,0:0:0:0:
192,136,56766,1,8,0:0:0:0:
141,288,56971,1,0,0:0:0:0:
305,159,57177,1,0,1:0:0:0:
141,43,57382,1,2,0:3:0:0:
403,158,57588,2,0,L|506:154,1,95.9999970703126,8|2,0:0|0:3,0:0:0:0:
260,334,57999,6,0,P|239:289|258:235,1,95.9999970703126,8|0,0:0|0:0,0:0:0:0:
245,50,58307,2,0,P|266:95|247:149,1,95.9999970703126,8|0,3:0|0:0,0:0:0:0:
115,192,58615,2,0,L|179:192,1,47.9999985351563,8|0,3:3|0:0,0:0:0:0:
398,207,58821,6,0,P|353:186|299:205,1,95.9999970703126,8|0,0:0|0:0,0:0:0:0:
114,192,59129,2,0,P|159:213|213:194,1,95.9999970703126,8|0,3:0|0:0,0:0:0:0:
256,62,59437,2,0,L|256:126,1,47.9999985351563,8|0,3:0|0:0,0:0:0:0:
256,294,59643,5,0,1:0:0:0:
256,294,60054,2,0,B|280:284|280:284|312:296|312:296|340:284|340:284|368:292,1,120,2|0,0:1|0:0,0:0:0:0:
460,316,60464,5,8,0:0:0:0:
455,269,60566,1,8,0:0:0:0:
450,223,60669,1,0,0:0:0:0:
445,176,60772,1,8,0:0:0:0:
380,116,60876,5,8,0:0:0:0:
346,166,60978,1,8,0:0:0:0:
314,216,61082,2,0,L|388:212,1,60.0000022888184,8|8,0:3|0:3,0:0:0:0:
268,116,61286,6,0,P|188:100|124:188,1,191.999994140625,6|10,1:1|0:0,0:0:0:0:
184,332,61903,1,2,0:0:0:0:
184,332,62006,1,0,0:0:0:0:
184,332,62108,2,0,P|200:284|176:236,1,95.9999970703126,2|0,1:1|0:0,0:0:0:0:
52,136,62519,2,0,P|36:184|60:232,1,95.9999970703126,10|2,0:0|0:0,0:0:0:0:
344,315,62930,6,0,B|390:236|298:203|341:129,1,191.999994140625,2|10,1:1|0:0,0:0:0:0:
384,43,63444,1,2,0:0:0:0:
348,27,63547,2,0,L|280:23,1,47.9999985351563,2|2,0:0|0:0,0:0:0:0:
195,36,63752,1,0,1:0:0:0:
283,267,63958,1,2,0:0:0:0:
348,27,64163,1,8,0:0:0:0:
155,183,64369,1,2,0:0:0:0:
403,171,64574,6,0,L|513:166,1,95.9999970703126,2|0,1:1|0:0,0:0:0:0:
346,311,64985,2,0,L|222:306,1,95.9999970703126,10|2,0:0|0:0,0:0:0:0:
170,304,65293,1,0,0:0:0:0:
170,304,65396,2,0,L|192:244,1,47.9999985351563,2|0,1:1|0:0,0:0:0:0:
216,144,65601,1,0,0:0:0:0:
68,332,65807,2,0,P|40:324|20:300,1,47.9999985351563,10|2,0:0|0:0,0:0:0:0:
88,236,66012,2,0,P|80:207|91:178,1,47.9999985351563,2|0,0:0|0:0,0:0:0:0:
211,210,66218,6,0,P|264:223|241:288,1,120,2|0,1:0|0:0,0:0:0:0:
167,268,66629,6,0,L|179:128,1,120.000004577637,10|0,0:0|0:0,0:0:0:0:
185,56,66937,1,0,0:0:0:0:
185,56,67040,2,0,L|253:67,1,47.9999985351563,2|0,1:0|0:0,0:0:0:0:
378,121,67245,1,0,0:0:0:0:
349,127,67348,1,0,0:0:0:0:
321,134,67451,2,0,L|259:149,1,47.9999985351563,8|0,0:0|0:0,0:0:0:0:
86,173,67656,1,0,0:0:0:0:
57,179,67759,1,0,0:0:0:0:
28,184,67862,6,0,P|5:260|57:310,1,143.999995605469,4|0,1:2|0:0,0:0:0:0:
110,333,68273,2,0,L|218:320,1,95.9999970703126,8|0,0:0|0:0,0:0:0:0:
448,236,68684,2,0,P|380:192|312:224,1,143.999995605469,2|0,0:0|0:0,0:0:0:0:
271,269,69095,1,8,0:0:0:0:
344,96,69300,1,0,0:0:0:0:
188,248,69506,6,0,P|116:264|56:204,1,143.999995605469,0|0,1:0|0:0,0:0:0:0:
24,156,69917,1,8,0:0:0:0:
108,344,70122,1,0,0:0:0:0:
256,192,70328,2,0,L|252:72,1,95.9999970703126,0|0,1:0|0:0,0:0:0:0:
252,68,70636,1,0,0:0:0:0:
200,40,70738,5,8,0:0:0:0:
183,56,70840,1,8,0:0:0:0:
161,64,70943,1,8,0:3:0:0:
137,64,71046,1,8,0:3:0:0:
72,32,71149,6,0,L|264:20,1,180.000006866455,4|2,1:2|0:0,0:0:0:0:
336,16,71560,1,10,0:0:0:0:
136,128,71766,2,0,B|84:196|180:228|132:304,1,180.000006866455,4|2,1:2|0:0,0:0:0:0:
60,260,72177,2,0,P|32:260|0:284,1,60.0000022888184,2|0,0:0|0:0,0:0:0:0:
132,380,72382,2,0,P|160:380|192:356,1,60.0000022888184,8|8,0:0|0:0,0:0:0:0:
208,172,72588,1,8,0:3:0:0:
224,116,72691,1,8,0:3:0:0:
236,60,72793,6,0,P|324:48|372:136,1,180.000006866455,6|0,1:2|0:0,0:0:0:0:
370,197,73204,1,10,0:0:0:0:
136,128,73410,2,0,P|128:212|212:256,1,180.000006866455,4|8,1:2|0:0,0:0:0:0:
280,228,73821,1,8,0:0:0:0:
320,216,73923,1,8,0:0:0:0:
385,247,74026,5,8,0:3:0:0:
423,255,74128,1,8,0:3:0:0:
458,239,74231,1,8,0:3:0:0:
476,204,74334,1,8,0:3:0:0:
409,154,74437,6,0,B|355:221|446:265|391:337,1,191.999994140625,6|10,0:1|0:0,0:0:0:0:
168,352,75054,1,2,0:0:0:0:
168,352,75156,1,0,0:0:0:0:
168,352,75259,2,0,L|152:248,1,95.9999970703126,2|0,1:1|0:0,0:0:0:0:
248,16,75670,2,0,L|232:120,1,95.9999970703126,8|2,0:0|0:0,0:0:0:0:
68,252,76081,6,0,P|96:192|212:196,1,191.999994140625,2|8,1:0|0:0,0:0:0:0:
284,260,76595,1,2,0:0:0:0:
312,240,76697,2,0,L|320:176,1,47.9999985351563,2|0,0:0|0:0,0:0:0:0:
328,56,76903,1,0,1:0:0:0:
354,300,77109,1,2,0:0:0:0:
185,114,77314,1,8,0:0:0:0:
430,166,77520,1,2,0:0:0:0:
203,268,77725,6,0,P|128:264|100:168,1,180.000006866455,4|0,1:2|0:0,0:0:0:0:
128,100,78136,1,8,0:0:0:0:
276,264,78341,2,0,P|321:280|373:256,1,95.9999970703126,2|10,0:0|0:0,0:0:0:0:
412,196,78649,1,8,0:0:0:0:
412,196,78752,2,0,L|404:132,1,47.9999985351563,8|8,0:0|0:0,0:0:0:0:
316,20,78958,2,0,P|276:100|300:140,1,143.999995605469,8|0,0:0|0:0,0:0:0:0:
412,196,79369,6,0,B|369:157|369:157|321:197,1,120.000004577637,4|0,1:2|0:0,0:0:0:0:
100,188,79677,2,0,B|142:226|142:226|190:186,1,120.000004577637,8|0,0:3|0:0,0:0:0:0:
256,48,79985,2,0,P|244:72|248:112,1,60.0000022888184,8|0,0:3|0:0,0:0:0:0:
256,336,80191,6,0,B|268:292|268:292|244:268|244:268|256:224,1,120.000004577637,4|0,1:2|0:0,0:0:0:0:
256,48,80499,2,0,B|244:92|244:92|268:116|268:116|256:160,1,120.000004577637,8|0,0:3|0:0,0:0:0:0:
172,192,80807,2,0,P|144:180|104:192,1,60.0000022888184,8|0,0:3|0:0,0:0:0:0:
32,348,81012,6,0,P|148:368|184:312,1,180.000006866455,4|0,1:2|0:0,0:0:0:0:
195,244,81423,2,0,P|179:225|178:167,1,60.0000022888184,8|0,0:0|0:0,0:0:0:0:
272,0,81629,2,0,P|334:45|317:152,1,180.000006866455,4|0,1:2|0:0,0:0:0:0:
256,184,82040,1,8,0:0:0:0:
40,36,82245,1,8,0:3:0:0:
84,33,82348,1,8,0:3:0:0:
128,31,82451,2,0,L|200:29,1,60.0000022888184,8|8,0:3|0:3,0:0:0:0:
445,80,82656,6,0,L|313:85,1,120.000004577637,4|0,1:2|0:0,0:0:0:0:
288,87,82965,1,8,0:0:0:0:
252,87,83067,1,8,0:0:0:0:
479,217,83273,2,0,P|510:265|486:328,1,120.000004577637,4|0,1:2|0:0,0:0:0:0:
416,372,83581,1,8,0:0:0:0:
382,368,83684,2,0,L|320:360,1,60.0000022888184,8|8,0:0|0:0,0:0:0:0:
116,262,83889,5,8,0:3:0:0:
143,222,83991,1,8,0:3:0:0:
187,202,84094,1,8,0:3:0:0:
235,206,84197,1,8,0:3:0:0:
301,245,84300,6,0,P|370:242|401:200,1,120.000004577637,4|0,1:2|0:0,0:0:0:0:
415,118,84608,1,0,0:0:0:0:
410,82,84711,2,0,L|398:15,1,60.0000022888184,8|8,0:3|0:3,0:0:0:0:
313,108,84917,2,0,L|325:175,1,60.0000022888184,8|8,0:3|0:3,0:0:0:0:
101,140,85122,6,0,P|133:125|171:130,1,60.0000022888184,4|8,1:0|0:0,0:0:0:0:
229,176,85328,1,8,0:0:0:0:
181,247,85430,2,0,P|149:261|111:257,1,60.0000022888184,10|8,0:0|0:0,0:0:0:0:
53,211,85636,1,8,0:0:0:0:
33,151,85738,1,8,0:0:0:0:
23,117,85841,1,8,0:0:0:0:
78,62,85944,5,6,1:2:0:0:
183,182,86766,6,0,B|166:227|166:227|188:278,1,95.9999970703126,4|0,1:2|0:0,0:0:0:0:
329,270,87074,2,0,B|346:225|346:225|324:174,1,95.9999970703126,8|0,0:3|0:0,0:0:0:0:
256,226,87382,1,8,0:3:0:0:
158,28,87588,6,0,B|197:57|188:104|188:104|256:57|330:104|330:104|322:57|362:29,1,320,6|0,1:1|0:0,0:0:0:0:
