osu file format v14

[General]
AudioFilename: audio.mp3
AudioLeadIn: 0
PreviewTime: 61184
Countdown: 0
SampleSet: Soft
StackLeniency: 0.7
Mode: 0
LetterboxInBreaks: 0
WidescreenStoryboard: 1

[Editor]
DistanceSpacing: 1.3
BeatDivisor: 4
GridSize: 4
TimelineZoom: 2

[Metadata]
Title:DEAREST DROP (TVsize)
TitleUnicode:DEAREST DROP (TVsize)
Artist:Azusa Tadokoro
ArtistUnicode:田所あずさ
Creator:Karen
Version:wkyik's Insane
Source:終末なにしてますか? 忙しいですか? 救ってもらっていいですか?
Tags:Sukasuka Worldend tv size Shuumatsu Nani Shitemasu ka? Isogashii desu ka? Sukutte Moratte Ii desu ka? What do you do at the end of the world? Are you busy? Will you save us? chtholly Yohanes xxdeathx Rizia Kawaiwkyik
BeatmapID:1399770
BeatmapSetID:646199

[Difficulty]
HPDrainRate:6
CircleSize:4
OverallDifficulty:8
ApproachRate:9
SliderMultiplier:1.6
SliderTickRate:1

[Events]
//Background and Video events
0,0,"bgg.jpg",0,0
//Break Periods
//Storyboard Layer 0 (Background)
//Storyboard Layer 1 (Fail)
//Storyboard Layer 2 (Pass)
//Storyboard Layer 3 (Foreground)
//Storyboard Sound Samples

[TimingPoints]
465,410.958904109589,4,2,0,40,1,0
465,-133.333333333333,4,2,0,40,0,0
7040,-76.9230769230769,4,1,0,55,0,0
13615,-80,4,2,0,75,0,0
19985,-133.333333333333,4,2,0,65,0,0
31697,-200,4,2,0,65,0,0
32519,-100,4,2,0,65,0,0
60054,-200,4,2,0,65,0,0
61286,-66.6666666666667,4,2,0,75,0,0
66218,-100,4,2,0,75,0,0
66629,-57.1428571428571,4,2,0,75,0,0
67451,-66.6666666666667,4,2,0,75,0,0
67862,-66.6666666666667,4,2,0,75,0,0
71766,-100,4,2,0,75,0,0
72382,-66.6666666666667,4,2,0,75,0,0
73410,-80,4,2,0,75,0,0
74437,-66.6666666666667,4,2,0,75,0,0
79369,-57.1428571428571,4,2,0,75,0,0
81012,-66.6666666666667,4,2,0,75,0,0
81629,-100,4,2,0,75,0,0
82656,-66.6666666666667,4,2,0,75,0,0
83273,-50,4,2,0,75,0,0
83478,-100,4,2,0,75,0,0
83684,-80,4,2,0,75,0,0
83889,-66.6666666666667,4,2,0,75,0,0
84095,-57.1428571428571,4,2,0,75,0,0
84300,-100,4,2,0,45,0,0
84711,-57.1428571428571,4,2,0,55,0,0
85122,-57.1428571428571,4,2,0,65,0,0
85533,-57.1428571428571,4,2,0,75,0,0
86766,-100,4,2,0,75,0,0
88307,-100,4,2,0,5,0,0

[Colours]
Combo1 : 255,102,102
Combo2 : 89,172,255

[HitObjects]
64,140,465,6,0,B|116:116|120:168|188:140,1,120.000004577637,2|0,0:0|0:0,0:0:0:0:
260,104,1081,1,0,0:0:0:0:
264,100,1184,1,0,0:0:0:0:
268,96,1286,2,0,P|304:88|332:96,1,60.0000022888184,2|0,0:0|0:0,0:0:0:0:
404,132,1697,1,0,0:0:0:0:
408,136,1800,2,0,P|437:141|465:133,1,60.0000022888184,2|0,0:0|0:0,0:0:0:0:
512,196,2108,6,2,B|504:240|504:240|512:264|512:264|504:316,1,120.000004577637,2|0,0:0|0:0,0:0:0:0:
404,364,2725,1,0,0:0:0:0:
404,364,2828,1,0,0:0:0:0:
404,364,2930,2,0,L|392:288,1,60.0000022888184,2|0,0:0|0:0,0:0:0:0:
300,304,3341,2,0,L|290:363,1,60.0000022888184
348,224,3752,6,0,P|340:192|348:144,1,60.0000022888184,2|0,0:0|0:0,0:0:0:0:
344,160,4060,1,0,0:0:0:0:
348,156,4163,1,0,0:0:0:0:
416,60,4369,1,0,0:0:0:0:
420,64,4471,1,0,0:0:0:0:
424,68,4574,2,0,B|372:44|368:96|300:68,2,120.000004577637,2|0|2,0:0|0:0|0:0,0:0:0:0:
276,320,5704,5,0,0:0:0:0:
276,320,5807,2,0,P|232:312|196:368,1,90.0000034332277
200,339,6218,1,0,0:0:0:0:
104,232,7040,6,0,L|88:156,1,51.999997619629,4|0,0:0|0:0,0:0:0:0:
172,120,7245,2,0,P|216:128|256:132,1,51.999997619629
72,84,7451,2,0,P|28:92|-12:96,1,51.999997619629
208,232,7656,1,0,0:0:0:0:
208,232,7759,1,0,0:0:0:0:
208,232,7862,2,0,P|220:276|220:308,1,51.999997619629
340,264,8067,6,0,P|372:231|399:215,1,51.999997619629
448,136,8273,2,0,P|403:124|376:108,1,51.999997619629
344,0,8478,2,0,P|332:44|316:71,1,51.999997619629
232,120,8684,6,0,L|304:132,3,51.999997619629
376,60,9095,2,0,P|360:108|352:156,1,51.999997619629
264,252,9300,2,0,P|256:227|247:202,1,51.999997619629
356,208,9506,5,0,0:0:0:0:
356,208,9608,1,0,0:0:0:0:
356,208,9711,2,0,P|408:216|452:228,1,51.999997619629
332,336,9917,2,0,P|280:344|236:356,1,51.999997619629
212,259,10122,2,0,P|238:256|264:252,1,51.999997619629
136,324,10328,6,0,L|72:312,1,51.999997619629
112,168,10533,2,0,L|121:219,1,51.999997619629
32,112,10738,2,0,L|22:60,1,51.999997619629
168,76,10944,1,0,0:0:0:0:
168,76,11047,1,0,0:0:0:0:
168,76,11149,2,0,P|208:84|240:88,1,51.999997619629
312,24,11355,6,0,P|304:64|300:96,1,51.999997619629
368,172,11560,2,0,P|328:164|296:160,1,51.999997619629
224,224,11766,2,0,P|232:184|236:152,1,51.999997619629
336,288,11971,6,0,P|342:318|348:348,1,51.999997619629
228,332,12177,2,0,P|219:356|211:381,1,51.999997619629
112,300,12382,1,0,0:0:0:0:
112,300,12485,1,0,0:0:0:0:
112,300,12588,2,0,P|64:308|28:308,1,51.999997619629
28,168,12793,5,0,0:0:0:0:
48,144,12896,1,0,0:0:0:0:
76,132,12999,1,0,0:0:0:0:
108,132,13101,1,0,0:0:0:0:
176,176,13204,5,0,0:0:0:0:
224,200,13307,1,0,0:0:0:0:
276,200,13410,1,0,0:0:0:0:
324,184,13512,1,0,0:0:0:0:
372,116,13615,6,0,P|384:60|296:32,1,150,4|0,1:0|0:0,0:0:0:0:
261,101,14026,2,0,L|276:200,1,100,0|0,1:0|0:0,0:0:0:0:
136,352,14437,1,4,0:3:0:0:
136,352,14540,2,0,L|150:253,1,100
156,228,14848,2,0,P|96:240|28:244,1,100,0|0,1:0|3:0,0:0:0:0:
248,316,15259,6,0,P|284:268|412:304,1,200,4|0,0:3|1:0,0:0:0:0:
448,176,15875,1,0,3:0:0:0:
448,176,15978,1,0,0:0:0:0:
448,176,16081,2,0,P|452:124|460:68,1,100,4|0,0:3|3:0,0:0:0:0:
376,16,16389,2,0,P|378:40|380:65,1,50,0|0,0:0|1:0,0:0:0:0:
260,168,16697,2,0,P|270:145|281:122,1,50,0|0,3:0|0:0,0:0:0:0:
208,240,16903,6,0,P|269:199|342:206,1,150,4|0,0:3|0:0,0:0:0:0:
404,256,17314,1,0,1:0:0:0:
164,96,17519,2,0,P|172:136|176:180,1,50,2|2,0:0|0:0,0:0:0:0:
208,240,17725,1,4,0:3:0:0:
208,240,17828,2,0,P|136:224|80:216,1,100,0|0,1:0|0:0,0:0:0:0:
60,340,18136,5,0,1:0:0:0:
140,328,18238,1,0,0:0:0:0:
216,348,18341,1,0,1:0:0:0:
292,368,18444,1,0,1:0:0:0:
372,356,18547,5,4,1:0:0:0:
352,148,18855,1,0,1:0:0:0:
182,268,19163,1,0,1:0:0:0:
302,257,19369,1,4,1:0:0:0:
156,164,19985,5,0,0:0:0:0:
156,164,20088,1,0,0:0:0:0:
156,164,20191,2,0,P|160:116|168:20,1,120.000004577637,2|0,0:0|0:0,0:0:0:0:
80,88,20807,2,0,P|44:96|0:104,2,60.0000022888184,0|2|0,0:0|0:0|0:0,0:0:0:0:
244,124,21423,2,0,P|280:116|324:108,1,60.0000022888184
396,136,21834,6,0,P|420:168|408:244,1,120.000004577637,2|0,0:0|0:0,0:0:0:0:
316,264,22451,1,0,0:0:0:0:
316,264,22554,1,0,0:0:0:0:
316,264,22656,2,0,P|272:256|248:240,1,60.0000022888184,2|0,0:0|0:0,0:0:0:0:
384,328,23067,2,0,P|399:370|397:398,1,60.0000022888184
408,208,23478,6,0,L|516:200,2,90.0000034332277,2|0|0,0:0|0:0|0:0,0:0:0:0:
224,332,24300,2,0,L|116:324,2,90.0000034332277,2|0|0,0:0|0:0|0:0,0:0:0:0:
348,152,25122,6,0,L|340:260,1,90.0000034332277,2|0,0:0|0:0,0:0:0:0:
331,352,25738,1,0,0:0:0:0:
331,352,25944,2,0,P|281:321|224:332,1,120.000004577637,2|0,0:0|0:0,0:0:0:0:
52,152,26766,5,2,0:0:0:0:
156,80,27074,1,0,0:0:0:0:
236,176,27382,1,0,0:0:0:0:
292,104,27588,5,2,0:0:0:0:
372,200,27896,1,0,0:0:0:0:
476,128,28204,1,0,0:0:0:0:
388,116,28410,5,2,0:0:0:0:
444,268,28718,1,0,0:0:0:0:
304,352,29026,1,0,0:0:0:0:
224,280,29232,2,0,P|176:264|92:268,1,120.000004577637,2|0,0:0|0:0,0:0:0:0:
72,72,29848,5,0,0:0:0:0:
72,72,30054,2,0,P|96:100|120:192,1,120.000004577637,2|0,0:0|0:0,0:0:0:0:
136,372,30670,1,0,0:0:0:0:
136,372,30875,2,0,P|149:313|184:265,1,120.000004577637,2|2,0:0|0:0,0:0:0:0:
292,188,31492,5,0,0:0:0:0:
292,188,31697,2,2,L|364:196,2,60,0|0|0,0:0|0:0|0:0,0:1:0:0:
136,80,32519,5,0,1:0:0:0:
132,64,32622,1,0,1:0:0:0:
140,52,32725,1,8,0:3:0:0:
324,72,32930,1,0,1:0:0:0:
328,88,33033,1,0,1:0:0:0:
320,100,33136,1,8,0:3:0:0:
200,280,33341,6,0,L|188:156,1,120,4|0,0:0|0:0,0:0:0:0:
184,136,33752,2,0,P|216:144|268:140,1,80,0|0,1:0|3:0,0:0:0:0:
388,80,34163,1,4,0:3:0:0:
232,40,34369,1,0,3:0:0:0:
292,240,34574,1,0,1:0:0:0:
262,141,34780,1,0,3:0:0:0:
172,284,34985,6,0,B|152:320|152:320|168:364,1,80,4|0,0:3|3:0,0:0:0:0:
284,324,35396,1,0,1:0:0:0:
176,192,35601,1,0,3:0:0:0:
176,192,35704,1,0,0:0:0:0:
176,192,35807,2,0,L|76:180,1,80,4|0,0:3|3:0,0:0:0:0:
320,76,36218,2,0,L|420:64,1,80,0|0,1:0|3:0,0:0:0:0:
188,20,36629,6,0,L|204:120,1,80,4|0,0:3|3:0,0:0:0:0:
200,98,36937,1,0,0:0:0:0:
200,98,37040,1,0,1:0:0:0:
280,248,37245,1,0,3:0:0:0:
96,320,37451,2,0,P|112:276|140:232,1,80,4|0,0:3|3:0,0:0:0:0:
128,247,37759,1,0,0:0:0:0:
128,247,37862,1,0,1:0:0:0:
264,348,38067,1,0,3:0:0:0:
412,140,38273,6,0,P|372:164|316:172,1,80,4|0,0:3|3:0,0:0:0:0:
280,248,38581,2,0,P|240:224|184:216,1,80
128,247,38889,1,0,3:0:0:0:
192,52,39095,1,4,0:3:0:0:
219,47,39197,1,0,1:0:0:0:
246,52,39300,1,0,0:0:0:0:
270,66,39403,1,0,0:0:0:0:
287,88,39505,1,0,1:0:0:0:
212,140,39711,1,0,3:0:0:0:
48,92,39917,6,0,B|40:52|40:52|56:12,1,80,4|0,0:0|0:0,0:0:0:0:
128,64,40225,1,0,0:0:0:0:
128,64,40328,2,0,L|216:52,1,80,0|4,1:0|1:0,0:0:0:0:
412,116,40738,1,0,0:0:0:0:
148,192,40944,5,0,0:0:0:0:
148,192,41047,1,0,1:0:0:0:
148,192,41149,2,0,L|60:180,1,80,0|0,1:0|0:0,0:0:0:0:
392,236,41560,5,4,0:0:0:0:
128,332,41766,1,0,0:0:0:0:
128,332,41869,1,0,1:0:0:0:
128,332,41971,2,0,L|216:320,1,80,0|4,1:0|1:0,0:0:0:0:
376,360,42382,5,0,0:0:0:0:
368,336,42485,1,0,1:0:0:0:
360,312,42588,1,0,0:0:0:0:
296,144,42793,1,0,1:0:0:0:
288,168,42896,1,0,1:0:0:0:
280,192,42999,1,8,0:3:0:0:
272,216,43101,1,8,0:3:0:0:
200,176,43204,6,0,P|160:160|72:164,2,120,4|0|0,0:0|1:0|0:0,0:0:0:0:
392,120,44026,2,0,P|418:86|496:45,2,120,4|0|0,0:0|1:0|2:0,0:0:0:0:
336,240,44848,6,0,P|344:296|304:328,1,80,0|0,1:0|0:0,0:0:0:0:
260,356,45156,1,0,1:0:0:0:
260,356,45464,2,0,P|208:324|104:340,1,160,4|0,1:0|1:0,0:0:0:0:
32,216,46081,1,8,0:3:0:0:
72,80,46286,1,4,0:3:0:0:
208,28,46492,5,4,0:0:0:0:
416,84,46800,1,0,0:0:0:0:
232,104,47108,1,0,0:0:0:0:
356,137,47314,1,4,1:1:0:0:
356,137,47725,5,4,0:0:0:0:
148,193,48033,1,0,0:0:0:0:
332,213,48341,1,0,0:0:0:0:
208,246,48547,1,4,1:1:0:0:
208,246,48958,5,0,1:0:0:0:
416,302,49163,1,0,0:0:0:0:
232,322,49369,1,0,1:0:0:0:
356,355,49574,1,0,1:0:0:0:
316,272,49780,5,4,0:0:0:0:
196,112,50088,1,0,0:0:0:0:
216,283,50396,1,0,0:0:0:0:
295,100,50601,1,4,1:0:0:0:
216,283,51012,5,4,0:0:0:0:
295,100,51320,1,0,0:0:0:0:
156,203,51628,1,0,0:0:0:0:
355,180,51833,1,0,1:0:0:0:
256,192,52040,5,0,1:0:0:0:
256,192,52143,1,0,1:0:0:0:
256,192,52245,1,0,1:0:0:0:
112,104,52451,1,8,0:3:0:0:
400,280,52656,1,0,1:0:0:0:
216,27,52862,1,0,1:0:0:0:
296,356,53067,5,4,0:0:0:0:
180,260,53273,1,0,3:0:0:0:
180,260,53375,2,0,P|140:268|104:272,1,40,0|0,0:0|1:0,0:0:0:0:
136,348,53581,1,0,0:0:0:0:
136,348,53683,2,0,P|184:338|227:333,1,80,0|0,3:0|0:0,0:0:0:0:
340,136,54095,2,0,L|348:80,2,40,0|0|0,3:0|0:0|1:0,0:0:0:0:
340,136,54506,1,0,3:0:0:0:
216,356,54711,5,4,0:0:0:0:
332,260,54917,1,0,3:0:0:0:
332,260,55019,2,0,P|372:268|408:272,1,40,0|0,0:0|1:0,0:0:0:0:
376,348,55225,1,0,0:0:0:0:
376,348,55327,2,0,P|328:338|285:333,1,80,0|0,3:0|0:0,0:0:0:0:
172,136,55739,2,0,L|164:80,2,40,0|0|0,3:0|0:0|1:0,0:0:0:0:
256,192,56149,1,0,3:0:0:0:
256,204,56252,1,0,0:0:0:0:
256,216,56355,5,4,0:0:0:0:
80,184,56560,1,2,0:0:0:0:
256,296,56766,5,0,1:0:0:0:
52,268,56971,1,2,0:0:0:0:
256,108,57177,5,0,1:0:0:0:
460,268,57382,1,2,0:0:0:0:
136,360,57588,5,0,1:0:0:0:
256,192,57793,1,2,0:0:0:0:
376,360,57999,5,4,0:0:0:0:
168,216,58307,1,8,0:3:0:0:
400,40,58615,1,8,0:3:0:0:
112,40,58821,5,4,0:0:0:0:
344,216,59129,1,8,0:3:0:0:
136,360,59437,1,8,0:3:0:0:
256,96,59643,5,0,1:0:0:0:
256,96,60054,2,2,L|256:192,1,80,0|0,0:0|1:0,0:1:0:0:
260,184,60567,1,0,1:0:0:0:
164,348,60773,1,0,0:0:0:0:
169,336,60875,1,0,1:0:0:0:
170,324,60978,1,0,0:0:0:0:
167,312,61081,1,0,1:0:0:0:
60,160,61286,6,0,B|112:148|112:148|152:192|152:192|240:204,1,180.000006866455,4|0,1:0|0:0,0:0:0:0:
196,104,61697,1,0,1:0:0:0:
80,244,61903,6,0,P|32:236|0:228,1,60.0000022888184,0|0,3:0|1:0,0:0:0:0:
120,332,62108,2,0,P|172:320|252:308,2,120.000004577637,4|0|0,0:3|3:0|1:0,0:0:0:0:
360,340,62725,1,0,3:0:0:0:
360,340,62828,1,0,1:0:0:0:
360,340,62930,2,0,B|392:280|368:224|368:224|352:256|312:264,1,180.000006866455,4|0,0:3|0:0,0:0:0:0:
296,184,63341,5,0,1:0:0:0:
456,252,63547,1,0,3:0:0:0:
456,144,63752,5,4,0:3:0:0:
323,261,63958,1,0,3:0:0:0:
236,120,64163,5,0,1:0:0:0:
384,200,64369,1,0,3:0:0:0:
388,16,64574,6,0,B|352:64|352:64|376:136,1,120.000004577637,4|0,0:3|3:0,0:0:0:0:
384,200,64882,2,0,L|316:184,1,60.0000022888184,0|0,0:0|1:0,0:0:0:0:
80,124,65191,2,0,P|128:116|156:92,1,60.0000022888184,0|0,3:0|0:0,0:0:0:0:
192,48,65396,1,4,0:3:0:0:
216,136,65499,6,0,P|180:188|180:252,1,120.000004577637,0|0,1:0|0:0,0:0:0:0:
280,344,65807,2,0,P|249:306|214:294,1,60.0000022888184,0|0,1:0|0:0,0:0:0:0:
160,332,66012,2,0,P|114:314|78:321,1,60.0000022888184,0|0,3:0|0:0,0:0:0:0:
264,220,66218,6,0,B|312:212|312:212|344:240|344:240|416:216,1,160,4|4,0:3|1:0,0:0:0:0:
60,132,66834,2,0,P|104:136|144:156,2,70.000000667572,0|0|4,3:0|1:0|0:3,0:0:0:0:
276,32,67143,2,0,P|232:72|220:168,1,140.000001335144,0|0,1:0|0:0,0:0:0:0:
92,0,67451,6,0,P|108:32|112:72,1,60,4|0,1:0|0:0,0:0:0:0:
127,145,67656,2,0,P|124:180|108:217,1,60,2|0,0:0|0:0,0:0:0:0:
56,356,67862,6,0,B|67:315|120:304|120:304|160:344|256:320,1,180.000006866455,4|0,1:1|0:0,0:0:0:0:
192,240,68273,1,0,1:0:0:0:
324,292,68478,5,0,3:0:0:0:
300,284,68581,1,0,0:0:0:0:
276,276,68684,2,0,L|408:268,1,120.000004577637,4|0,0:3|3:0,0:0:0:0:
484,280,68992,2,0,L|460:212,1,60.0000022888184,0|0,0:0|1:0,0:0:0:0:
428,52,69300,5,0,3:0:0:0:
428,52,69506,2,0,L|296:60,1,120.000004577637,4|0,0:3|3:0,0:0:0:0:
220,48,69814,2,0,L|244:116,1,60.0000022888184,0|0,0:0|1:0,0:0:0:0:
272,272,70122,1,0,3:0:0:0:
36,320,70328,6,0,P|12:260|128:244,1,180.000006866455,4|0,0:3|0:0,0:0:0:0:
172,276,70738,6,0,L|180:336,1,60.0000022888184,2|2,1:1|0:1,0:0:0:0:
200,288,70944,6,0,L|208:348,1,60.0000022888184,2|2,0:1|0:1,0:0:0:0:
228,300,71149,5,4,0:0:0:0:
316,132,71355,1,0,0:0:0:0:
332,204,71458,1,0,0:0:0:0:
264,184,71560,1,0,1:0:0:0:
480,28,71766,6,0,B|488:72|464:104|464:104|424:112|384:72,1,160,4|0,0:1|0:0,0:0:0:0:
391,78,72382,1,0,1:0:0:0:
88,244,72588,5,0,1:0:0:0:
156,224,72690,1,0,1:0:0:0:
104,172,72793,1,4,0:0:0:0:
388,348,72999,5,0,0:0:0:0:
320,328,73101,1,0,0:0:0:0:
372,276,73204,1,0,1:0:0:0:
32,64,73410,6,0,B|88:56|88:56|116:88|116:88|192:104,1,150,4|0,0:1|1:0,0:0:0:0:
232,40,73821,1,0,1:0:0:0:
288,120,73923,1,0,1:0:0:0:
348,60,74026,5,8,0:3:0:0:
392,108,74129,5,8,0:3:0:0:
428,80,74232,5,4,0:3:0:0:
460,96,74334,5,4,0:3:0:0:
504,56,74437,6,0,P|504:120|400:96,1,180.000006866455,4|0,1:0|0:0,0:0:0:0:
408,20,74848,1,0,1:0:0:0:
240,164,75054,2,0,P|280:152|332:148,1,60.0000022888184,0|0,3:0|1:0,0:0:0:0:
332,72,75259,2,0,P|284:64|212:48,2,120.000004577637,4|0|0,0:3|3:0|1:0,0:0:0:0:
52,140,75875,1,0,3:0:0:0:
52,140,75978,1,0,1:0:0:0:
52,140,76081,2,0,B|92:112|132:128|132:128|88:176|108:264,1,180.000006866455,4|0,0:3|0:0,0:0:0:0:
16,212,76492,5,0,1:0:0:0:
156,52,76697,1,0,3:0:0:0:
192,192,76903,5,4,0:3:0:0:
36,128,77108,1,0,3:0:0:0:
276,40,77314,5,0,1:0:0:0:
124,136,77519,1,0,3:0:0:0:
224,272,77725,6,0,B|340:252|340:252|312:312,1,180.000006866455,4|0,0:2|0:0,0:0:0:0:
276,380,78136,1,0,1:0:0:0:
112,296,78341,1,0,3:0:0:0:
284,156,78547,6,0,L|296:76,1,60.0000022888184,4|0,0:3|1:0,0:0:0:0:
308,8,78752,1,0,3:0:0:0:
308,8,78958,2,0,P|236:48|144:32,1,180.000006866455,0|0,1:0|0:0,0:0:0:0:
88,228,79369,6,0,P|117:191|213:173,1,140.000001335144,4|0,0:0|0:0,0:0:0:0:
371,319,79677,2,0,P|325:312|261:238,1,140.000001335144,0|0,1:0|0:0,0:0:0:0:
308,28,79985,1,8,0:3:0:0:
308,28,80191,6,0,P|326:94|298:158,1,140.000001335144,4|0,0:0|0:0,0:0:0:0:
87,228,80499,2,0,P|117:191|213:173,1,140.000001335144,0|0,1:0|0:0,0:0:0:0:
371,319,80807,5,4,0:3:0:0:
380,332,80910,1,4,0:3:0:0:
388,344,81012,2,0,P|328:296|224:312,1,180.000006866455,4|0,1:0|0:0,0:0:0:0:
172,368,81423,1,0,1:0:0:0:
136,100,81629,6,0,P|128:160|120:212,1,80,4|0,1:0|0:0,0:0:0:0:
360,127,82040,6,0,P|396:115|436:107,1,40,8|0,0:3|0:0,0:0:0:0:
280,63,82245,2,0,P|251:37|224:7,1,40,4|0,0:3|0:0,0:0:0:0:
268,163,82451,2,0,P|260:200|247:238,1,40,4|0,0:3|0:0,0:0:0:0:
365,367,82656,6,0,P|344:316|365:243,1,120.000004577637,4|0,1:0|0:0,0:0:0:0:
427,305,82965,1,0,0:0:0:0:
437,164,83067,2,0,P|447:202|445:244,1,60.0000022888184,4|0,0:3|0:0,0:0:0:0:
339,211,83273,6,0,L|258:202,1,80,4|0,1:0|0:0,0:0:0:0:
400,348,83478,6,0,P|360:352|324:360,1,40,2|0,0:0|0:0,0:0:0:0:
152,312,83684,6,0,P|192:308|228:300,1,50,2|0,3:0|0:0,0:0:0:0:
398,218,83889,6,0,P|368:216|339:210,1,60.0000022888184,0|0,1:0|0:0,0:0:0:0:
104,156,84095,6,0,P|139:152|175:146,1,70.000000667572,0|0,1:0|0:0,0:0:0:0:
396,48,84300,6,0,P|332:40|240:24,1,120,4|0,1:0|0:0,0:0:0:0:
252,56,84711,6,0,P|312:48|372:44,1,70.000000667572,2|2,1:0|1:0,0:0:0:0:
242,137,84917,2,0,P|182:145|122:149,1,70.000000667572,2|2,1:0|1:0,0:0:0:0:
344,44,85122,6,0,P|357:79|372:124,1,70.000000667572,2|2,1:0|1:0,0:0:0:0:
150,149,85328,2,0,P|136:113|122:69,1,70.000000667572,2|2,1:0|1:0,0:0:0:0:
412,216,85533,5,2,1:0:0:0:
320,204,85636,1,2,1:0:0:0:
232,228,85738,1,2,1:0:0:0:
160,284,85841,1,2,1:0:0:0:
128,368,85944,5,4,1:2:0:0:
480,284,86766,6,0,L|352:264,2,120,0|8|4,1:0|0:3|0:3,0:0:0:0:
152,356,87588,6,0,B|116:327|135:264|135:264|192:285|192:285|235:247|235:247|277:286|251:349,1,320,4|0,1:0|0:0,0:0:0:0:
