osu file format v14

[General]
AudioFilename: audio.mp3
AudioLeadIn: 0
PreviewTime: 61184
Countdown: 0
SampleSet: Soft
StackLeniency: 0.7
Mode: 0
LetterboxInBreaks: 0
WidescreenStoryboard: 1

[Editor]
DistanceSpacing: 0.3
BeatDivisor: 4
GridSize: 4
TimelineZoom: 1.8

[Metadata]
Title:DEAREST DROP (TVsize)
TitleUnicode:DEAREST DROP (TVsize)
Artist:Azusa Tadokoro
ArtistUnicode:田所あずさ
Creator:Karen
Version:Yohanes' Insane
Source:終末なにしてますか? 忙しいですか? 救ってもらっていいですか?
Tags:Sukasuka Worldend tv size Shuumatsu Nani Shitemasu ka? Isogashii desu ka? Sukutte Moratte Ii desu ka? What do you do at the end of the world? Are you busy? Will you save us? chtholly Yohanes xxdeathx Rizia Kawaiwkyik
BeatmapID:1370837
BeatmapSetID:646199

[Difficulty]
HPDrainRate:6
CircleSize:4.2
OverallDifficulty:7
ApproachRate:8.7
SliderMultiplier:1.8
SliderTickRate:1

[Events]
//Background and Video events
0,0,"bgg.jpg",0,0
//Break Periods
//Storyboard Layer 0 (Background)
//Storyboard Layer 1 (Fail)
//Storyboard Layer 2 (Pass)
//Storyboard Layer 3 (Foreground)
//Storyboard Sound Samples

[TimingPoints]
465,410.958904109589,4,2,1,60,1,0
465,-200,4,2,1,60,0,0
1184,-200,4,2,1,10,0,0
1286,-200,4,2,1,60,0,0
2006,-200,4,2,1,10,0,0
2108,-200,4,2,1,60,0,0
2725,-200,4,2,1,25,0,0
2930,-200,4,2,1,60,0,0
6218,-133.333333333333,4,2,1,60,0,0
7040,-100,4,2,1,60,0,0
19369,-200,4,2,1,45,0,0
20601,-133.333333333333,4,2,1,45,0,0
33136,-100,4,2,1,60,0,0
33341,-100,4,2,1,60,0,0
60054,-200,4,2,1,60,0,0
60464,-100,4,2,1,60,0,0
61286,-90.9090909090909,4,2,1,70,0,1
85944,-90.9090909090909,4,2,1,70,0,0
86766,-76.9230769230769,4,2,1,70,0,1
87588,-400,4,2,1,60,0,0
88410,-1000,4,2,1,5,0,0

[Colours]
Combo1 : 255,102,102
Combo2 : 89,172,255

[HitObjects]
148,180,465,6,0,P|224:188|296:140,1,157.5,2|0,0:0|0:0,0:0:0:0:
304,64,1286,2,0,L|348:220,1,157.5,2|0,0:0|0:0,0:0:0:0:
410,271,2108,2,0,P|346:250|283:272,1,135,2|0,0:0|0:0,0:0:0:0:
348,353,2930,5,2,0:0:0:0:
168,308,3136,1,0,0:0:0:0:
272,156,3341,1,0,0:0:0:0:
284,272,3547,1,0,0:0:0:0:
104,216,3752,6,0,P|58:290|82:375,2,180,2|2|2,0:0|0:0|0:0,0:0:0:0:
348,353,5807,1,0,0:0:0:0:
408,36,6218,1,0,0:0:0:0:
408,36,7040,5,6,0:0:0:0:
324,180,7245,1,0,0:0:0:0:
324,180,7348,1,2,0:0:0:0:
324,180,7451,1,2,0:0:0:0:
307,48,7656,1,8,0:0:0:0:
144,158,7861,1,2,0:0:0:0:
144,158,7964,1,2,0:0:0:0:
144,158,8067,2,0,L|256:171,1,90,0|8,0:0|0:0,0:0:0:0:
136,60,8478,1,2,0:0:0:0:
59,211,8684,6,0,L|43:99,1,90,8|2,0:0|0:0,0:0:0:0:
41,78,8992,1,2,0:0:0:0:
41,78,9094,1,2,0:0:0:0:
233,168,9300,1,8,0:0:0:0:
165,279,9506,1,2,0:0:0:0:
165,279,9608,1,2,0:0:0:0:
165,279,9711,2,0,L|212:268,1,45,2|0,0:0|0:0,0:0:0:0:
371,195,9917,1,8,0:0:0:0:
371,195,10020,1,0,0:0:0:0:
371,195,10123,2,0,L|328:184,1,45,8|8,0:0|0:0,0:0:0:0:
308,284,10328,5,4,0:0:0:0:
442,78,10533,1,2,0:0:0:0:
442,78,10636,1,2,0:0:0:0:
442,78,10738,2,0,P|393:67|338:86,1,90,2|8,0:0|0:0,0:0:0:0:
146,166,11150,1,2,0:0:0:0:
146,166,11252,1,2,0:0:0:0:
146,166,11355,1,2,0:0:0:0:
268,148,11560,1,8,0:0:0:0:
192,52,11766,1,2,0:0:0:0:
74,228,11971,6,0,P|53:169|70:116,1,90,8|2,0:0|0:0,0:0:0:0:
80,104,12280,1,2,0:0:0:0:
80,104,12382,1,2,0:0:0:0:
206,302,12588,2,0,L|228:195,1,90,8|2,0:0|0:0,0:0:0:0:
233,168,12896,1,8,0:0:0:0:
233,168,12999,2,0,L|228:108,1,45,10|8,0:0|0:0,0:0:0:0:
328,208,13204,2,0,L|382:233,1,45,8|8,0:0|0:0,0:0:0:0:
448,112,13410,2,0,L|398:146,1,45,8|8,0:0|0:0,0:0:0:0:
184,44,13615,6,0,B|276:16|276:72|364:44,1,180,4|8,0:0|0:0,0:0:0:0:
328,208,14232,1,0,0:0:0:0:
328,208,14334,1,0,0:0:0:0:
328,208,14437,1,2,0:0:0:0:
448,112,14643,1,0,0:0:0:0:
235,255,14848,2,0,P|224:211|233:168,1,90,8|0,0:0|0:0,0:0:0:0:
436,204,15259,6,0,L|424:340,1,135,2|2,0:0|0:0,0:0:0:0:
348,292,15670,2,0,P|292:308|260:344,1,90,8|0,0:0|0:0,0:0:0:0:
80,344,16081,2,0,P|64:300|64:228,1,90,2|0,0:0|0:0,0:0:0:0:
144,128,16389,2,0,P|136:172|117:212,1,90,10|2,0:0|0:0,0:0:0:0:
16,128,16697,1,2,0:0:0:0:
296,107,16903,6,0,P|232:167|234:254,1,180,2|8,0:0|0:0,0:0:0:0:
448,112,17519,1,2,0:0:0:0:
448,112,17622,1,2,0:0:0:0:
448,112,17725,2,0,L|464:176,1,45,2|0,0:0|0:0,0:0:0:0:
372,256,17930,2,0,L|436:240,1,45,2|0,0:0|0:0,0:0:0:0:
500,292,18136,1,8,0:0:0:0:
328,181,18341,1,8,0:0:0:0:
328,181,18444,1,8,0:0:0:0:
328,181,18547,6,0,P|268:177|208:209,1,90,4|0,0:0|0:0,0:0:0:0:
127,305,18855,2,0,P|160:255|162:187,1,90,4|0,0:0|0:0,0:0:0:0:
120,69,19163,1,4,0:0:0:0:
424,143,19369,6,0,P|413:240|338:284,1,180,4|2,0:0|0:0,0:0:0:0:
76,64,20601,5,0,0:0:0:0:
168,11,20807,2,0,L|152:159,1,135.000005149842,2|2,0:0|0:0,0:0:0:0:
140,232,21423,1,0,0:0:0:0:
140,232,21629,1,0,0:0:0:0:
224,256,21834,6,0,P|293:250|352:216,1,135.000005149842,2|0,0:0|0:0,0:0:0:0:
392,140,22451,2,0,L|400:284,1,135.000005149842,2|0,0:0|0:0,0:0:0:0:
404,368,23067,1,2,0:0:0:0:
404,368,23273,1,0,0:0:0:0:
316,328,23478,6,0,P|252:320|196:344,2,101.250003862381,2|0|0,0:0|0:0|0:0,0:0:0:0:
399,274,24300,2,0,P|463:282|519:258,2,101.250003862381,2|0|0,0:0|0:0|0:0,0:0:0:0:
316,88,25122,5,2,0:0:0:0:
136,160,25430,1,0,0:0:0:0:
289,280,25738,1,0,0:0:0:0:
247,176,25944,1,2,0:0:0:0:
247,176,26766,6,0,P|184:156|104:176,1,135.000005149842,2|0,0:0|0:0,0:0:0:0:
48,108,27382,2,0,L|32:260,1,135.000005149842,2|0,0:0|0:0,0:0:0:0:
24,316,27999,1,0,0:0:0:0:
304,358,28410,6,0,L|320:206,1,135.000005149842,2|0,0:0|0:0,0:0:0:0:
260,152,29026,2,0,P|328:144|372:88,1,135.000005149842,2|0,0:0|0:0,0:0:0:0:
364,20,29643,1,0,0:0:0:0:
128,20,30054,6,0,P|108:80|144:168,1,135.000005149842,2|0,0:0|0:0,0:0:0:0:
211,198,30670,2,0,L|67:238,1,135.000005149842,2|0,0:0|0:0,0:0:0:0:
11,258,31286,1,0,0:0:0:0:
360,360,31697,6,0,P|372:312|356:248,2,101.250003862381,2|0|2,0:0|0:0|0:0,0:0:0:0:
254,307,32519,1,8,0:0:0:0:
254,307,32622,1,8,0:0:0:0:
254,307,32725,1,8,0:0:0:0:
332,128,32930,1,8,0:0:0:0:
332,128,33033,1,8,0:3:0:0:
332,128,33136,2,0,L|348:196,1,45,8|0,0:3|0:0,0:0:0:0:
256,68,33341,6,0,L|112:60,1,135,4|0,0:0|0:0,0:0:0:0:
48,56,33752,1,8,0:0:0:0:
136,228,33958,1,0,0:0:0:0:
136,228,34060,1,0,0:0:0:0:
136,228,34163,2,0,P|156:180|140:116,1,90,2|0,0:0|0:0,0:0:0:0:
44,168,34574,1,8,0:0:0:0:
108,324,34780,1,0,0:0:0:0:
240,292,34985,6,0,L|334:308,1,90,2|0,0:0|0:0,0:0:0:0:
372,314,35293,1,0,0:0:0:0:
372,314,35395,1,8,0:0:0:0:
448,136,35601,1,0,0:0:0:0:
460,246,35807,1,2,0:0:0:0:
332,164,36012,1,0,0:0:0:0:
492,56,36217,1,8,0:0:0:0:
460,246,36423,1,0,0:0:0:0:
332,164,36629,6,0,P|292:172|240:212,1,90,2|0,0:0|0:0,0:0:0:0:
200,256,36937,2,0,L|92:244,1,90,10|0,0:0|0:0,0:0:0:0:
36,240,37245,1,2,0:0:0:0:
22,20,37451,6,0,L|52:105,1,90,2|0,0:0|0:0,0:0:0:0:
96,168,37759,2,0,P|156:176|184:164,1,90,10|0,0:0|0:0,0:0:0:0:
236,108,38067,1,2,0:0:0:0:
472,196,38273,6,0,L|360:184,1,90,2|0,0:0|0:0,0:0:0:0:
344,124,38581,2,0,P|336:68|360:24,1,90,10|0,0:0|0:0,0:0:0:0:
420,8,38889,1,2,0:0:0:0:
512,132,39095,1,10,0:0:0:0:
512,132,39197,2,0,L|504:196,1,45,8|0,0:0|0:0,0:0:0:0:
420,288,39403,1,10,0:0:0:0:
420,288,39506,2,0,L|428:224,1,45,8|0,0:0|0:0,0:0:0:0:
296,192,39711,5,8,0:0:0:0:
296,192,39814,1,8,0:0:0:0:
296,192,39917,2,0,L|284:292,1,90,4|0,0:0|0:0,0:0:0:0:
272,376,40225,1,0,0:0:0:0:
272,376,40328,1,8,0:0:0:0:
84,304,40533,6,0,P|127:292|228:332,1,135,4|0,0:0|0:0,0:0:0:0:
272,376,40944,1,8,0:3:0:0:
387,258,41149,2,0,L|375:158,1,90,8|8,0:0|0:0,0:0:0:0:
332,76,41458,1,8,0:0:0:0:
308,88,41560,6,0,P|273:148|287:224,1,135,6|0,0:0|0:0,0:0:0:0:
316,276,41971,1,8,0:0:0:0:
508,170,42177,2,0,B|445:190|445:147|375:168,1,135,6|0,0:0|0:0,0:0:0:0:
375,168,42588,1,8,0:0:0:0:
485,325,42793,1,8,0:0:0:0:
449,337,42895,1,8,0:0:0:0:
411,343,42998,1,8,0:3:0:0:
373,344,43101,1,8,0:3:0:0:
335,341,43204,6,0,L|235:332,1,90,4|0,0:0|0:0,0:0:0:0:
162,235,43512,2,0,L|251:242,1,90,8|0,0:0|0:0,0:0:0:0:
155,325,43821,1,2,0:0:0:0:
332,179,44026,6,0,P|352:219|352:264,1,90,4|0,0:0|0:0,0:0:0:0:
208,136,44334,2,0,P|254:160|312:154,1,90,8|0,0:0|0:0,0:0:0:0:
391,75,44643,1,2,0:0:0:0:
236,40,44848,6,0,L|144:60,1,90,4|0,0:0|0:0,0:0:0:0:
49,114,45156,2,0,P|35:72|40:28,1,90,8|0,0:0|0:0,0:0:0:0:
208,136,45464,2,0,P|144:168|132:292,1,180,4|8,0:0|0:0,0:0:0:0:
284,344,46081,1,8,0:3:0:0:
412,216,46286,1,8,0:3:0:0:
219,239,46492,6,0,L|206:328,1,90,6|0,0:0|0:0,0:0:0:0:
107,367,46800,2,0,P|99:324|111:281,1,90,2|0,0:0|0:0,0:0:0:0:
304,264,47108,1,2,0:0:0:0:
64,168,47314,1,8,0:0:0:0:
64,168,47725,6,0,L|156:148,1,90,6|0,0:0|0:0,0:0:0:0:
262,116,48033,2,0,P|220:88|188:40,1,90,2|0,0:0|0:0,0:0:0:0:
328,20,48341,1,2,0:0:0:0:
432,264,48547,1,8,0:0:0:0:
432,264,48958,5,8,0:0:0:0:
288,372,49163,1,2,0:0:0:0:
432,264,49369,1,8,0:3:0:0:
252,264,49574,1,2,0:0:0:0:
504,218,49780,6,0,P|518:260|508:304,1,90,4|0,0:0|0:0,0:0:0:0:
356,172,50088,2,0,P|420:176|456:164,1,90,2|0,0:0|0:0,0:0:0:0:
396,68,50396,1,2,0:0:0:0:
213,263,50601,1,8,0:0:0:0:
213,263,51012,6,0,L|194:156,1,90,4|0,0:0|0:0,0:0:0:0:
104,104,51321,2,0,P|146:89|191:92,1,90,2|0,0:0|0:0,0:0:0:0:
96,212,51629,1,2,0:0:0:0:
274,96,51834,2,0,L|362:109,1,90,8|2,0:0|0:0,0:0:0:0:
480,128,52143,1,8,0:0:0:0:
496,149,52245,2,0,P|499:207|475:251,1,90,8|8,0:0|0:3,0:0:0:0:
298,288,52656,1,8,0:0:0:0:
298,288,52759,1,8,0:0:0:0:
298,288,52862,1,8,0:0:0:0:
374,184,53067,6,0,L|390:280,1,90,4|0,0:0|0:0,0:0:0:0:
395,316,53375,1,0,0:0:0:0:
395,316,53477,1,8,0:0:0:0:
197,174,53684,2,0,L|213:270,1,90,2|0,0:0|0:0,0:0:0:0:
288,164,54095,1,2,0:0:0:0:
152,348,54300,1,8,0:0:0:0:
395,316,54506,1,2,0:0:0:0:
395,316,54608,1,2,0:0:0:0:
395,316,54711,6,0,P|340:300|280:312,1,90,4|0,0:0|0:0,0:0:0:0:
180,340,55019,1,2,0:0:0:0:
152,348,55122,2,0,L|56:328,1,90,8|0,0:0|0:0,0:0:0:0:
114,170,55533,1,2,0:0:0:0:
114,170,55636,1,8,0:0:0:0:
114,170,55738,2,0,L|133:259,1,90,0|8,0:0|0:0,0:0:0:0:
222,83,56149,1,8,0:0:0:0:
222,83,56252,1,8,0:0:0:0:
222,83,56355,6,0,L|215:217,1,135,4|0,0:0|0:0,0:0:0:0:
212,262,56766,1,8,0:0:0:0:
480,212,56971,1,2,0:0:0:0:
336,188,57177,1,8,0:0:0:0:
360,44,57382,1,2,0:0:0:0:
504,68,57588,1,8,0:0:0:0:
512,293,57793,5,8,0:0:0:0:
512,293,57896,1,8,0:0:0:0:
512,293,57999,2,0,P|476:308|408:288,1,90,4|0,0:0|0:0,0:0:0:0:
336,188,58307,2,0,L|312:300,1,90,8|0,0:3|0:0,0:0:0:0:
288,384,58615,1,8,0:3:0:0:
76,268,58821,6,0,P|140:260|188:276,1,90,4|0,0:0|0:0,0:0:0:0:
288,384,59129,2,0,P|248:340|240:284,1,90,8|0,0:3|0:0,0:0:0:0:
336,188,59437,1,8,0:3:0:0:
61,94,59643,1,2,0:0:0:0:
61,94,60054,6,2,B|93:90|93:90|105:98|145:94,1,67.5,2|0,0:1|0:0,0:1:0:0:
163,68,60464,1,8,0:0:0:0:
207,61,60566,1,8,0:0:0:0:
246,81,60669,1,8,0:3:0:0:
266,121,60772,1,8,0:3:0:0:
259,164,60874,1,8,0:3:0:0:
228,196,60977,1,8,0:3:0:0:
184,202,61081,2,0,L|128:164,1,45,8|8,0:0|0:0,0:0:0:0:
272,8,61286,6,0,P|340:104|324:196,1,198.000006042481,6|8,0:0|0:0,0:0:0:0:
88,208,61903,1,0,0:0:0:0:
81,230,62005,1,0,0:0:0:0:
72,255,62108,2,0,P|159:286|268:248,1,198.000006042481,2|8,0:0|0:0,0:0:0:0:
460,88,62725,1,0,0:0:0:0:
436,83,62827,1,0,0:0:0:0:
411,78,62930,6,0,P|381:157|483:202,1,198.000006042481,2|8,0:0|0:0,0:0:0:0:
330,33,63547,1,0,0:0:0:0:
120,228,63752,1,2,0:0:0:0:
276,196,63958,1,2,0:0:0:0:
244,40,64164,1,8,0:0:0:0:
88,72,64369,1,2,0:0:0:0:
72,292,64574,6,0,P|140:304|180:280,1,99.0000030212403,2|0,0:0|0:0,0:0:0:0:
200,248,64882,1,0,0:0:0:0:
200,248,64985,1,8,0:0:0:0:
424,324,65191,1,0,0:0:0:0:
320,232,65396,2,0,L|304:348,1,99.0000030212403,2|2,0:0|0:0,0:0:0:0:
296,380,65704,1,2,0:0:0:0:
296,380,65807,1,8,0:0:0:0:
424,208,66012,1,2,0:0:0:0:
235,175,66218,6,0,P|314:130|371:143,1,148.50000453186,2|0,0:0|0:0,0:0:0:0:
276,252,66629,2,0,L|177:237,1,99.0000030212403,12|0,0:0|0:0,0:0:0:0:
28,324,67040,1,2,0:0:0:0:
80,372,67143,2,0,P|128:380|180:360,1,99.0000030212403,8|0,0:0|0:0,0:0:0:0:
220,300,67451,1,8,0:0:0:0:
424,356,67656,1,8,0:0:0:0:
424,356,67759,1,8,0:0:0:0:
424,356,67862,6,0,P|352:296|368:184,1,198.000006042481,4|8,0:0|0:0,0:0:0:0:
451,251,68478,1,0,0:0:0:0:
405,103,68684,2,0,P|356:92|296:112,1,99.0000030212403,2|0,0:0|0:0,0:0:0:0:
240,148,68992,2,0,L|116:136,1,99.0000030212403,8|0,0:0|0:0,0:0:0:0:
92,80,69300,1,2,0:0:0:0:
8,232,69506,6,0,P|12:300|56:340,1,99.0000030212403,2|0,0:0|0:0,0:0:0:0:
104,280,69814,2,0,P|172:280|224:320,1,99.0000030212403,8|0,0:0|0:0,0:0:0:0:
244,360,70122,1,2,0:0:0:0:
352,216,70328,6,0,L|368:316,1,99.0000030212403,2|2,0:0|0:0,0:0:0:0:
376,372,70636,1,2,0:0:0:0:
376,372,70738,2,0,L|440:384,1,49.5000015106202,8|2,0:0|0:0,0:0:0:0:
496,260,70944,2,0,L|432:248,1,49.5000015106202,10|10,0:0|0:0,0:0:0:0:
272,153,71149,6,0,P|322:118|388:120,1,99.0000030212403,6|0,0:0|0:0,0:0:0:0:
198,293,71560,2,0,L|190:225,1,49.5000015106202,8|0,0:0|0:0,0:0:0:0:
294,353,71766,2,0,L|98:333,1,198.000006042481,6|2,0:0|0:0,0:0:0:0:
0,323,72279,1,2,0:0:0:0:
0,323,72382,1,8,0:0:0:0:
80,136,72588,1,2,0:0:0:0:
80,136,72691,1,2,0:0:0:0:
80,136,72793,6,0,P|112:176|112:240,1,99.0000030212403,6|0,0:0|0:0,0:0:0:0:
336,160,73204,2,0,L|396:140,1,49.5000015106202,8|0,0:0|0:0,0:0:0:0:
240,88,73410,2,0,P|304:180|300:288,1,198.000006042481,6|8,0:0|0:0,0:0:0:0:
291,301,73923,1,8,0:0:0:0:
264,331,74026,1,8,0:3:0:0:
228,350,74129,1,8,0:3:0:0:
187,356,74231,1,8,0:3:0:0:
147,348,74334,1,8,0:3:0:0:
122,315,74437,6,0,P|176:255|288:279,1,198.000006042481,6|8,0:0|0:0,0:0:0:0:
452,80,75054,1,0,0:0:0:0:
431,93,75156,1,0,0:0:0:0:
411,108,75259,2,0,P|416:204|493:260,1,198.000006042481,2|8,0:0|0:0,0:0:0:0:
232,160,75875,1,0,0:0:0:0:
212,145,75977,1,0,0:0:0:0:
193,131,76081,6,0,P|81:151|89:247,1,198.000006042481,6|8,0:0|0:0,0:0:0:0:
193,39,76697,1,0,0:0:0:0:
293,227,76903,1,2,0:0:0:0:
149,195,77108,1,2,0:0:0:0:
281,87,77314,1,8,0:0:0:0:
373,295,77519,1,8,0:0:0:0:
373,295,77622,1,8,0:0:0:0:
373,295,77725,6,0,L|397:199,1,99.0000030212403,4|0,0:0|0:0,0:0:0:0:
448,20,78136,2,0,L|388:68,1,49.5000015106202,8|0,0:0|0:0,0:0:0:0:
336,104,78341,2,0,P|296:92|220:92,1,99.0000030212403,2|0,0:0|0:0,0:0:0:0:
40,176,78752,1,2,0:0:0:0:
152,238,78958,2,0,P|169:176|156:124,1,99.0000030212403,8|0,0:0|0:0,0:0:0:0:
16,304,79369,6,0,L|128:328,1,99.0000030212403,6|0,0:0|0:0,0:0:0:0:
188,372,79677,2,0,P|240:344|304:344,1,99.0000030212403,8|0,0:0|0:0,0:0:0:0:
372,376,79985,1,2,0:0:0:0:
476,112,80191,6,0,L|492:224,1,99.0000030212403,4|0,0:0|0:0,0:0:0:0:
404,172,80499,2,0,P|364:160|288:176,1,99.0000030212403,8|0,0:0|0:0,0:0:0:0:
244,238,80807,1,2,0:0:0:0:
92,108,81012,6,0,P|56:164|72:260,1,148.50000453186,4|0,0:0|0:0,0:0:0:0:
124,288,81423,1,8,0:0:0:0:
172,76,81629,2,0,L|24:58,1,148.50000453186,4|2,0:0|0:0,0:0:0:0:
144,2,82040,6,0,L|193:7,1,49.5000015106202,8|0,0:0|0:0,0:0:0:0:
52,132,82245,2,0,L|2:126,1,49.5000015106202,8|2,0:3|0:0,0:0:0:0:
242,59,82451,2,0,L|237:108,1,49.5000015106202,8|0,0:3|0:0,0:0:0:0:
218,280,82656,6,0,P|206:212|286:208,1,148.50000453186,4|2,0:0|0:0,0:0:0:0:
298,271,83067,1,8,0:0:0:0:
161,370,83273,2,0,B|285:398|237:338|377:370,1,198.000006042481,4|2,0:0|0:0,0:0:0:0:
464,200,83889,1,8,0:0:0:0:
298,271,84095,1,8,0:0:0:0:
298,271,84197,1,8,0:0:0:0:
298,271,84300,6,0,P|280:200|372:227,1,198.000006042481,4|8,0:0|0:0,0:0:0:0:
160,284,84917,1,8,0:0:0:0:
149,289,85020,1,8,0:0:0:0:
137,293,85122,6,0,L|120:216,1,49.5000015106202,2|2,0:0|0:0,0:0:0:0:
189,76,85328,2,0,L|200:124,1,49.5000015106202,2|8,0:0|0:0,0:0:0:0:
55,159,85533,2,0,L|103:147,1,49.5000015106202,2|2,0:0|0:0,0:0:0:0:
272,210,85738,2,0,L|223:221,1,49.5000015106202,8|8,0:3|0:0,0:0:0:0:
92,48,85944,1,6,0:0:0:0:
92,48,86766,6,0,P|88:108|168:172,1,116.999994644165,12|0,0:0|0:0,0:0:0:0:
368,96,87074,2,0,P|318:62|222:99,1,116.999994644165,8|0,0:3|0:0,0:0:0:0:
188,311,87382,2,0,L|248:284,1,58.4999973220826,8|0,0:3|0:0,0:0:0:0:
464,200,87588,6,2,B|472:232|472:232|482:247|482:247|491:283,1,90,6|2,0:0|0:0,0:1:0:0:
