osu file format v14

[General]
AudioFilename: audio.mp3
AudioLeadIn: 0
PreviewTime: 61184
Countdown: 0
SampleSet: Soft
StackLeniency: 0.7
Mode: 0
LetterboxInBreaks: 0
WidescreenStoryboard: 0

[Editor]
DistanceSpacing: 0.8
BeatDivisor: 4
GridSize: 4
TimelineZoom: 2

[Metadata]
Title:DEAREST DROP (TVsize)
TitleUnicode:DEAREST DROP (TVsize)
Artist:Azusa Tadokoro
ArtistUnicode:田所あずさ
Creator:Karen
Version:Normal
Source:終末なにしてますか? 忙しいですか? 救ってもらっていいですか?
Tags:Sukasuka Worldend tv size Shuumatsu Nani Shitemasu ka? Isogashii desu ka? Sukutte Moratte Ii desu ka? What do you do at the end of the world? Are you busy? Will you save us? chtholly Yohanes xxdeathx Rizia Kawaiwkyik
BeatmapID:1372408
BeatmapSetID:646199

[Difficulty]
HPDrainRate:4
CircleSize:3.5
OverallDifficulty:4
ApproachRate:5
SliderMultiplier:1.2
SliderTickRate:1

[Events]
//Background and Video events
0,0,"bgg.jpg",0,0
//Break Periods
//Storyboard Layer 0 (Background)
//Storyboard Layer 1 (Fail)
//Storyboard Layer 2 (Pass)
//Storyboard Layer 3 (Foreground)
//Storyboard Sound Samples

[TimingPoints]
465,410.958904109589,4,2,1,30,1,0
465,-133.333333333333,4,2,1,30,0,0
6629,-133.333333333333,4,2,1,20,0,0
6834,-133.333333333333,4,2,1,5,0,0
7040,-100,4,2,1,60,0,0
13615,-100,4,2,1,50,0,0
20191,-133.333333333333,4,2,1,40,0,0
31697,-133.333333333333,4,2,1,50,0,0
33341,-133.333333333333,4,2,1,50,0,0
53067,-133.333333333333,4,2,1,60,0,0
60054,-133.333333333333,4,2,1,40,0,0
60362,-133.333333333333,4,2,1,5,0,0
60464,-133.333333333333,4,2,1,60,0,0
61286,-100,4,2,1,75,0,0
74026,-100,4,2,1,55,0,0
74437,-100,4,2,1,75,0,0
85944,-100,4,2,1,55,0,0
88410,-100,4,2,1,5,0,0

[Colours]
Combo1 : 255,102,102
Combo2 : 89,172,255

[HitObjects]
160,111,465,6,0,P|230:78|323:131,2,180.000006866455,2|2|2,0:0|0:0|0:0,0:0:0:0:
153,290,2930,2,0,L|145:192,1,90.0000034332277,2|0,0:0|0:0,0:0:0:0:
234,182,3752,6,0,L|248:368,1,180.000006866455,2|2,0:0|0:0,0:0:0:0:
336,376,4985,1,0,0:0:0:0:
390,304,5396,2,0,P|428:289|483:300,2,90.0000034332277,2|0|0,0:0|0:0|0:0,0:0:0:0:
153,260,7040,6,0,L|272:249,1,120,4|8,1:2|0:0,0:0:0:0:
311,220,7656,2,0,P|332:167|308:103,1,120,0|8,1:0|0:0,0:0:0:0:
276,77,8273,1,0,1:0:0:0:
187,113,8684,2,0,L|44:108,1,120,0|8,1:0|0:0,0:0:0:0:
20,120,9300,2,0,P|40:185|35:250,1,120,0|2,1:0|0:3,0:0:0:0:
15,277,9917,1,8,0:0:0:0:
72,353,10328,6,0,L|199:349,1,120,4|0,1:2|1:0,0:0:0:0:
219,310,10944,2,0,P|274:289|345:316,1,120,0|8,1:0|0:0,0:0:0:0:
360,342,11560,1,0,1:0:0:0:
455,354,11971,2,0,P|472:294|454:219,1,120,0|8,1:0|0:0,0:0:0:0:
419,216,12588,2,0,P|402:156|420:81,1,120,0|8,1:0|0:0,0:0:0:0:
440,62,13204,1,8,0:0:0:0:
357,12,13615,6,0,P|296:22|223:24,1,120,6|8,1:2|0:0,0:0:0:0:
193,110,14437,2,0,P|252:112|312:122,1,120,2|8,1:2|0:0,0:0:0:0:
325,217,15259,2,0,L|312:350,1,120,2|10,1:2|1:2,0:0:0:0:
217,339,16081,2,0,L|228:219,1,120,2|10,1:2|0:0,0:0:0:0:
233,123,16903,6,0,P|172:100|115:117,1,120,2|8,1:2|0:0,0:0:0:0:
34,154,17725,2,0,P|44:205|53:278,1,120,2|8,0:3|0:0,0:0:0:0:
95,293,18341,1,8,0:0:0:0:
95,293,18547,2,0,P|138:284|194:299,2,90,6|8|8,1:2|0:3|0:3,0:0:0:0:
86,340,19369,1,4,1:2:0:0:
233,382,20191,6,0,L|343:371,1,90.0000034332277,2|0,0:0|0:0,0:0:0:0:
360,349,20807,2,0,P|348:301|367:245,1,90.0000034332277,2|0,0:0|0:0,0:0:0:0:
397,242,21423,1,2,0:0:0:0:
352,163,21834,2,0,L|259:149,1,90.0000034332277,2|0,0:0|0:0,0:0:0:0:
238,111,22451,2,0,P|234:82|262:20,1,90.0000034332277,2|0,0:0|0:0,0:0:0:0:
299,15,23067,1,2,0:0:0:0:
364,76,23478,6,0,P|416:76|466:60,1,90.0000034332277,2|0,0:0|0:0,0:0:0:0:
492,84,24095,2,0,P|490:120|481:179,1,90.0000034332277,2|0,0:0|0:0,0:0:0:0:
449,204,24711,1,2,0:0:0:0:
390,271,25122,2,0,L|406:357,2,67.5000025749207,2|2|2,0:0|0:0|0:0,0:0:0:0:
349,250,25944,1,2,0:0:0:0:
270,294,26355,1,2,0:0:0:0:
194,245,26766,6,0,P|190:197|206:144,1,90.0000034332277,2|0,0:0|0:0,0:0:0:0:
235,129,27382,2,0,P|239:81|223:28,1,90.0000034332277,2|0,0:0|0:0,0:0:0:0:
192,14,27999,1,2,0:0:0:0:
116,63,28410,2,0,L|34:54,2,67.5000025749207,2|2|2,0:0|0:0|0:0,0:0:0:0:
133,104,29232,1,2,0:0:0:0:
102,188,29643,1,2,0:0:0:0:
144,267,30054,6,0,L|252:255,1,90.0000034332277,2|0,0:0|0:0,0:0:0:0:
268,285,30670,2,0,P|303:310|355:309,1,90.0000034332277,2|0,0:0|0:0,0:0:0:0:
385,285,31286,1,0,0:0:0:0:
441,215,31697,2,0,L|460:132,2,67.5000025749207,2|2|2,0:1|0:1|0:1,0:0:0:0:
467,251,32519,2,0,L|482:313,1,45.0000017166138,8|8,0:0|0:0,0:0:0:0:
461,336,32930,1,8,0:0:0:0:
377,370,33341,6,0,P|332:340|283:340,1,90.0000034332277,4|8,1:2|0:0,0:0:0:0:
263,367,33958,1,2,0:0:0:0:
263,367,34163,2,0,L|156:358,1,90.0000034332277,2|8,0:3|0:0,0:0:0:0:
99,307,34985,2,0,P|85:258|106:211,1,90.0000034332277,2|8,0:3|0:0,0:0:0:0:
132,194,35601,1,2,0:0:0:0:
132,194,35807,2,0,L|122:94,1,90.0000034332277,2|8,0:3|0:0,0:0:0:0:
84,22,36629,6,0,P|127:12|170:25,1,90.0000034332277,2|8,0:3|0:0,0:0:0:0:
200,59,37245,1,2,0:0:0:0:
200,59,37451,2,0,L|297:49,1,90.0000034332277,2|8,0:3|0:0,0:0:0:0:
374,80,38273,2,0,P|370:124|370:186,1,90.0000034332277,2|8,0:3|0:0,0:0:0:0:
399,203,38889,1,2,0:0:0:0:
399,203,39095,2,0,L|406:263,1,45.0000017166138,2|0,0:3|0:0,0:0:0:0:
390,290,39506,1,8,0:0:0:0:
308,327,39917,6,0,P|258:320|208:320,1,90.0000034332277,4|8,1:2|0:0,0:0:0:0:
173,320,40533,2,0,P|123:327|73:327,1,90.0000034332277,4|8,1:2|0:0,0:0:0:0:
42,309,41149,1,8,0:0:0:0:
44,219,41560,6,0,P|94:212|144:212,1,90.0000034332277,4|8,1:2|0:0,0:0:0:0:
173,233,42177,2,0,P|217:231|262:225,1,90.0000034332277,4|8,1:2|0:0,0:0:0:0:
304,242,42792,1,8,0:0:0:0:
329,152,43204,6,0,P|316:115|318:69,2,67.5000025749207,4|8|8,1:2|0:0|0:0,0:0:0:0:
368,173,44026,1,4,1:2:0:0:
388,260,44437,1,8,0:0:0:0:
371,348,44848,2,0,L|299:349,2,67.5000025749207,12|8|12,1:2|0:0|1:2,0:0:0:0:
458,324,45875,2,0,L|462:374,2,45.0000017166138,8|8|8,0:0|0:0|0:3,0:0:0:0:
444,280,46492,6,0,P|492:284|520:271,2,67.5000025749207,12|8|8,1:2|0:0|0:0,0:0:0:0:
417,243,47314,1,8,0:0:0:0:
436,155,47725,2,0,P|447:120|447:77,2,67.5000025749207,12|8|8,1:2|0:0|0:0,0:0:0:0:
391,161,48547,1,8,0:0:0:0:
328,96,48958,1,8,0:0:0:0:
238,83,49369,1,2,0:3:0:0:
148,74,49780,6,0,L|158:4,2,67.5000025749207,12|8|8,1:2|0:0|0:0,0:0:0:0:
104,83,50601,1,8,0:0:0:0:
102,172,51012,2,0,L|111:256,2,67.5000025749207,12|8|8,1:2|0:0|0:0,0:0:0:0:
63,148,51834,1,8,0:0:0:0:
20,227,52245,1,0,1:0:0:0:
29,316,52656,1,8,0:0:0:0:
101,368,53067,6,0,P|137:349|190:357,1,90.0000034332277,4|8,1:2|0:0,0:0:0:0:
220,382,53684,2,0,L|317:372,1,90.0000034332277,4|0,1:2|1:0,0:0:0:0:
350,354,54300,1,0,1:0:0:0:
343,264,54711,2,0,L|253:273,1,90.0000034332277,4|8,1:2|0:0,0:0:0:0:
220,241,55328,2,0,P|209:193|230:143,1,90.0000034332277,4|0,1:2|0:0,0:0:0:0:
250,121,55944,1,0,1:0:0:0:
333,154,56355,6,0,L|422:144,1,90.0000034332277,4|8,1:2|0:0,0:0:0:0:
450,109,56971,2,0,L|454:57,1,45.0000017166138,0|0,0:0|1:0,0:0:0:0:
437,21,57382,2,0,L|384:-4,1,45.0000017166138,2|8,0:3|0:0,0:0:0:0:
313,37,57999,2,0,L|234:27,2,67.5000025749207,8|8|8,0:0|3:0|3:3,0:0:0:0:
331,78,58821,2,0,L|335:163,2,67.5000025749207,8|8|8,0:0|3:0|3:0,0:0:0:0:
356,41,59643,5,0,1:0:0:0:
429,92,60054,2,2,L|433:194,1,90.0000034332277,2|10,0:1|0:0,0:1:0:0:
463,266,60875,1,8,0:0:0:0:
426,349,61286,6,2,P|360:331|303:331,1,120,6|10,1:1|0:0,0:1:0:0:
265,352,61903,1,10,0:0:0:0:
265,352,62108,2,2,P|199:370|142:370,1,120,2|10,1:1|0:0,0:1:0:0:
66,318,62930,2,2,P|73:259|64:188,1,120,2|10,1:1|0:0,0:1:0:0:
12,119,63752,1,0,1:0:0:0:
24,23,64163,1,0,1:0:0:0:
98,83,64574,6,2,L|230:84,1,120,2|10,1:1|0:0,0:1:0:0:
293,24,65396,2,2,P|346:18|402:65,1,120,2|10,1:1|0:0,0:1:0:0:
364,146,66218,2,0,P|357:204|366:266,1,120,2|2,1:0|1:0,0:0:0:0:
379,359,67040,2,0,L|257:349,1,120,2|8,1:0|0:0,0:0:0:0:
238,305,67656,1,8,0:0:0:0:
238,305,67862,6,0,P|175:278|116:295,1,120,4|8,1:2|0:0,0:0:0:0:
43,336,68684,2,0,L|35:214,1,120,0|8,1:0|0:0,0:0:0:0:
63,177,69300,1,0,0:0:0:0:
63,177,69506,2,0,L|55:55,1,120,0|8,1:0|0:0,0:0:0:0:
91,25,70122,1,0,0:0:0:0:
91,25,70328,2,0,P|134:11|209:48,1,120,0|8,1:0|0:0,0:0:0:0:
163,126,71149,6,0,P|157:194|177:252,1,120,4|10,1:2|0:0,0:0:0:0:
154,287,71766,2,0,L|25:281,1,120,4|10,1:2|0:0,0:0:0:0:
4,319,72382,1,8,0:0:0:0:
80,377,72793,2,0,L|209:371,1,120,4|10,1:2|0:0,0:0:0:0:
234,338,73410,2,0,P|282:312|350:329,1,120,4|8,1:2|0:0,0:0:0:0:
364,367,74026,2,0,L|428:366,1,60,8|8,0:3|0:3,0:0:0:0:
467,344,74437,6,2,P|474:285|477:208,1,120,6|10,1:1|0:0,0:1:0:0:
444,189,75054,1,10,0:0:0:0:
444,189,75259,2,2,P|436:129|434:69,1,120,2|10,1:1|0:0,0:1:0:0:
354,15,76081,2,2,P|294:28|232:29,1,120,2|10,1:1|0:0,0:1:0:0:
140,46,76903,1,0,1:0:0:0:
137,141,77314,1,0,1:0:0:0:
203,209,77725,6,0,P|214:264|192:342,1,120,4|8,1:2|0:0,0:0:0:0:
222,368,78341,1,2,0:0:0:0:
222,368,78547,2,0,L|365:351,1,120,10|0,0:0|1:0,0:0:0:0:
364,260,79369,2,0,P|418:263|460:285,2,90,4|8|8,1:2|0:3|0:3,0:0:0:0:
316,264,80191,2,0,P|262:261|220:239,2,90,4|8|8,1:2|0:3|0:3,0:0:0:0:
338,221,81012,6,0,L|349:89,1,120,4|8,1:2|0:0,0:0:0:0:
318,61,81629,2,0,P|252:45|195:80,1,120,4|8,1:2|0:0,0:0:0:0:
187,110,82245,1,8,0:3:0:0:
89,139,82656,2,0,P|99:191|106:261,1,120,4|8,1:2|0:0,0:0:0:0:
83,300,83273,2,0,P|141:288|210:289,1,120,4|8,1:2|0:0,0:0:0:0:
237,319,83889,1,8,0:3:0:0:
276,231,84300,6,0,P|271:168|287:106,1,120,4|0,1:2|0:0,0:0:0:0:
378,128,85122,2,0,L|366:317,1,180,4|8,1:0|0:0,0:0:0:0:
392,348,85944,1,6,1:2:0:0:
199,349,86766,2,0,P|131:361|93:342,2,90,4|8|8,1:2|0:3|0:3,0:0:0:0:
224,308,87588,5,4,1:1:0:0:
