osu file format v14

[General]
AudioFilename: audio.mp3
AudioLeadIn: 0
PreviewTime: 61184
Countdown: 0
SampleSet: Soft
StackLeniency: 0.7
Mode: 0
LetterboxInBreaks: 0
WidescreenStoryboard: 0

[Editor]
DistanceSpacing: 1.4
BeatDivisor: 4
GridSize: 4
TimelineZoom: 2

[Metadata]
Title:DEAREST DROP (TVsize)
TitleUnicode:DEAREST DROP (TVsize)
Artist:Azusa Tadokoro
ArtistUnicode:田所あずさ
Creator:Karen
Version:Expert
Source:終末なにしてますか? 忙しいですか? 救ってもらっていいですか?
Tags:Sukasuka Worldend tv size Shuumatsu Nani Shitemasu ka? Isogashii desu ka? Sukutte Moratte Ii desu ka? What do you do at the end of the world? Are you busy? Will you save us? chtholly Yohanes xxdeathx Rizia Kawaiwkyik
BeatmapID:1369208
BeatmapSetID:646199

[Difficulty]
HPDrainRate:6
CircleSize:4.5
OverallDifficulty:8
ApproachRate:9
SliderMultiplier:1.8
SliderTickRate:1

[Events]
//Background and Video events
0,0,"bgg.jpg",0,0
//Break Periods
//Storyboard Layer 0 (Background)
//Storyboard Layer 1 (Fail)
//Storyboard Layer 2 (Pass)
//Storyboard Layer 3 (Foreground)
//Storyboard Sound Samples

[TimingPoints]
465,410.958904109589,4,2,1,30,1,0
465,-153.846153846153,4,2,1,30,0,0
6218,-200,4,2,1,30,0,0
6629,-200,4,2,1,20,0,0
6834,-200,4,2,1,5,0,0
7040,-83.3333333333333,4,2,1,60,0,0
13615,-100,4,2,1,50,0,0
18547,-83.3333333333333,4,2,1,50,0,0
19369,-125,4,2,1,50,0,0
20191,-133.333333333333,4,2,1,40,0,0
31697,-133.333333333333,4,2,1,50,0,0
33341,-117.647058823529,4,2,1,50,0,0
39917,-95.238095238095,4,2,1,50,0,0
53067,-86.9565217391304,4,2,1,60,0,0
59643,-100,4,2,1,60,0,0
60054,-100,4,2,1,40,0,0
60362,-100,4,2,1,5,0,0
60464,-100,4,2,1,60,0,0
61286,-166.666666666667,4,2,1,75,0,0
61800,-83.3333333333334,4,2,1,75,0,0
62108,-166.666666666667,4,2,1,75,0,0
62622,-83.3333333333333,4,2,1,75,0,0
62930,-166.666666666667,4,2,1,75,0,0
63444,-83.3333333333333,4,2,1,75,0,0
64574,-166.666666666667,4,2,1,75,0,0
65088,-83.3333333333333,4,2,1,75,0,0
65396,-166.666666666667,4,2,1,75,0,0
65910,-83.3333333333333,4,2,1,75,0,0
66218,-100,4,2,1,75,0,0
66629,-76.9230769230769,4,2,1,75,0,0
67040,-83.3333333333333,4,2,1,75,0,0
67862,-83.3333333333333,4,2,1,75,0,0
68684,-111.111111111111,4,2,1,75,0,0
70328,-83.3333333333333,4,2,1,75,0,0
71149,-71.4285714285714,4,2,1,75,0,0
74026,-71.4285714285714,4,2,1,55,0,0
74437,-166.666666666667,4,2,1,75,0,0
74951,-83.3333333333333,4,2,1,75,0,0
75259,-166.666666666667,4,2,1,75,0,0
75773,-83.3333333333333,4,2,1,75,0,0
76081,-166.666666666667,4,2,1,75,0,0
76595,-83.3333333333333,4,2,1,75,0,0
78958,-166.666666666667,4,2,1,75,0,0
79369,-71.4285714285714,4,2,1,75,0,0
81012,-83.3333333333333,4,2,1,75,0,0
85944,-83.3333333333333,4,2,1,55,0,0
86766,-100,4,2,1,55,0,0
87588,-1000,4,2,1,55,0,0
88410,-1000,4,2,1,5,0,0

[Colours]
Combo1 : 255,102,102
Combo2 : 89,172,255

[HitObjects]
221,114,465,6,0,P|294:98|371:171,1,175.499991966248,2|0,0:0|0:0,0:0:0:0:
329,93,1286,2,0,P|256:77|179:150,1,175.499991966248,2|0,0:0|0:0,0:0:0:0:
219,75,2108,2,0,P|292:59|369:132,1,175.499991966248,2|0,0:0|0:0,0:0:0:0:
305,166,2930,2,0,L|315:288,1,116.999994644165,2|0,0:0|0:0,0:0:0:0:
398,330,3752,6,0,L|207:320,1,175.499991966248,2|0,0:0|0:0,0:0:0:0:
287,365,4574,2,0,P|300:304|199:246,1,175.499991966248,2|0,0:0|0:0,0:0:0:0:
149,279,5396,1,2,0:0:0:0:
33,209,5807,1,0,0:0:0:0:
126,62,6218,6,0,P|115:122|113:200,1,135,0|0,0:0|0:0,0:0:0:0:
193,283,7040,6,0,P|201:228|192:174,1,107.999996704102,4|0,1:2|0:0,0:0:0:0:
74,118,7348,1,8,0:0:0:0:
32,191,7451,2,0,L|39:257,1,53.9999983520508,8|8,0:0|0:0,0:0:0:0:
128,377,7656,6,0,P|176:364|239:366,1,107.999996704102,0|0,1:0|0:0,0:0:0:0:
330,320,7964,1,8,0:0:0:0:
341,289,8067,1,8,0:0:0:0:
339,256,8170,1,8,0:0:0:0:
321,228,8273,2,0,L|244:237,1,53.9999983520508,0|0,1:0|0:0,0:0:0:0:
190,165,8478,1,8,0:0:0:0:
190,165,8581,1,8,0:0:0:0:
227,87,8684,6,0,P|272:72|347:112,1,107.999996704102,0|0,1:0|0:0,0:0:0:0:
417,190,8992,1,8,0:0:0:0:
494,162,9095,2,0,P|492:129|493:96,1,53.9999983520508,8|8,0:0|0:0,0:0:0:0:
404,0,9300,6,0,P|414:55|403:125,1,107.999996704102,0|0,1:0|0:0,0:0:0:0:
283,164,9608,1,2,0:3:0:0:
290,195,9711,1,2,0:3:0:0:
296,226,9814,1,2,0:3:0:0:
283,267,9917,5,8,0:0:0:0:
241,254,10019,1,8,0:0:0:0:
200,270,10122,1,8,0:0:0:0:
185,310,10225,1,8,0:0:0:0:
226,375,10328,6,0,L|293:362,1,53.9999983520508,4|0,1:2|0:0,0:0:0:0:
119,228,10533,2,0,L|96:292,1,53.9999983520508,0|0,1:0|0:0,0:0:0:0:
318,201,10738,2,0,L|273:149,1,53.9999983520508,0|0,1:0|0:0,0:0:0:0:
201,287,10944,6,0,L|268:274,1,53.9999983520508,0|0,1:0|0:0,0:0:0:0:
346,308,11149,1,8,0:0:0:0:
377,315,11252,1,8,0:0:0:0:
408,308,11355,1,8,0:0:0:0:
432,286,11458,1,8,0:0:0:0:
428,209,11560,6,0,P|416:148|437:104,1,107.999996704102,0|0,1:0|0:0,0:0:0:0:
505,246,11869,1,8,0:0:0:0:
380,280,11971,6,0,P|339:233|335:184,1,107.999996704102,0|0,1:0|0:0,0:0:0:0:
356,34,12280,1,8,0:0:0:0:
351,55,12382,1,8,0:0:0:0:
348,76,12485,1,8,0:0:0:0:
272,127,12588,6,0,L|218:128,1,53.9999983520508,0|0,1:0|0:0,0:0:0:0:
158,64,12793,1,8,0:0:0:0:
130,46,12896,1,8,0:0:0:0:
97,45,12999,1,8,0:0:0:0:
68,60,13101,1,8,0:0:0:0:
22,124,13204,5,8,0:0:0:0:
69,47,13307,1,8,0:0:0:0:
160,52,13410,1,8,0:0:0:0:
199,134,13512,1,8,0:0:0:0:
118,180,13615,6,0,L|315:172,1,180,6|8,1:2|0:0,0:0:0:0:
202,199,14232,1,2,0:0:0:0:
208,226,14334,1,2,0:0:0:0:
302,264,14437,6,0,L|123:272,1,180,2|8,1:2|0:0,0:0:0:0:
208,294,15054,1,2,0:0:0:0:
214,321,15156,1,2,0:0:0:0:
129,367,15259,6,0,L|326:359,1,180,2|10,1:2|1:2,0:0:0:0:
472,273,15875,1,2,0:0:0:0:
472,273,15978,1,2,0:0:0:0:
472,273,16081,2,0,B|475:226|475:226|426:239,1,90,2|0,1:2|0:0,0:0:0:0:
287,272,16389,2,0,B|284:225|284:225|333:238,1,90,2|0,1:2|0:0,0:0:0:0:
378,317,16697,1,8,0:0:0:0:
443,154,16903,6,0,P|373:129|311:163,1,135,2|0,1:2|0:0,0:0:0:0:
308,166,17314,2,0,P|310:97|304:68,1,90,8|0,0:0|0:0,0:0:0:0:
124,174,17725,1,2,0:3:0:0:
129,191,17828,1,2,0:3:0:0:
134,207,17930,1,2,0:3:0:0:
139,224,18033,1,2,0:3:0:0:
191,279,18136,5,8,0:0:0:0:
260,247,18238,1,8,0:0:0:0:
285,174,18341,1,8,0:0:0:0:
256,102,18444,1,8,0:0:0:0:
186,48,18547,6,0,P|133:44|88:94,1,107.999996704102,6|0,1:2|0:0,0:0:0:0:
0,69,18855,2,0,P|53:65|98:115,1,107.999996704102,8|0,0:3|0:0,0:0:0:0:
108,181,19163,2,0,L|107:242,1,53.9999983520508,8|0,0:3|0:0,0:0:0:0:
39,280,19369,6,0,L|193:269,1,144,4|0,1:2|0:0,0:0:0:0:
312,199,19985,1,2,0:0:0:0:
312,199,20088,1,2,0:0:0:0:
312,199,20191,6,0,P|253:173|180:197,1,135.000005149842,2|0,0:0|0:0,0:0:0:0:
129,78,20807,2,0,P|188:104|261:80,1,135.000005149842,2|0,0:0|0:0,0:0:0:0:
337,0,21423,2,0,L|332:79,1,67.5000025749208,2|0,0:0|0:0,0:0:0:0:
384,153,21834,6,0,L|393:303,1,135.000005149842,2|0,0:0|0:0,0:0:0:0:
305,369,22451,2,0,L|313:234,1,135.000005149842,2|0,0:0|0:0,0:0:0:0:
437,216,23067,2,0,P|478:218|511:233,1,67.5000025749208,2|0,0:0|0:0,0:0:0:0:
375,341,23478,6,0,L|228:330,1,135.000005149842,2|0,0:0|0:0,0:0:0:0:
293,241,24095,2,0,L|158:251,1,135.000005149842,2|0,0:0|0:0,0:0:0:0:
90,321,24711,1,2,0:0:0:0:
90,321,24917,1,0,0:0:0:0:
86,190,25122,6,0,P|97:141|86:92,2,101.250003862381,2|2|2,0:0|0:0|0:0,0:0:0:0:
90,321,25944,2,0,L|174:326,1,67.5000025749208,2|0,0:0|0:0,0:0:0:0:
333,290,26355,2,0,L|344:255,2,33.7500012874604,2|0|0,0:0|0:0|0:0,0:0:0:0:
251,382,26766,6,0,P|233:307|265:252,1,135.000005149842,2|0,0:0|0:0,0:0:0:0:
354,166,27382,2,0,P|286:181|219:177,1,135.000005149842,2|0,0:0|0:0,0:0:0:0:
321,321,27999,2,0,P|363:318|397:325,1,67.5000025749208,2|0,0:0|0:0,0:0:0:0:
454,214,28410,6,0,L|470:112,2,101.250003862381,2|2|2,0:0|0:0|0:0,0:0:0:0:
378,283,29232,2,0,L|389:378,1,67.5000025749208,2|0,0:0|0:0,0:0:0:0:
285,234,29643,2,0,L|274:329,1,67.5000025749208,2|0,0:0|0:0,0:0:0:0:
202,371,30054,6,0,P|143:384|91:359,2,101.250003862381,2|2|2,0:0|0:0|0:0,0:0:0:0:
142,195,30875,2,0,L|154:299,2,101.250003862381,2|2|2,0:0|0:0|0:0,0:0:0:0:
213,69,31697,6,0,L|210:150,1,67.5000025749208,2|0,0:1|0:0,0:0:0:0:
229,134,32006,2,0,L|231:201,1,67.5000025749208,2|0,0:1|0:0,0:0:0:0:
247,214,32314,1,2,0:1:0:0:
342,256,32519,5,8,0:0:0:0:
368,250,32622,1,8,0:0:0:0:
394,245,32725,1,8,0:0:0:0:
317,348,32930,1,8,0:0:0:0:
343,342,33033,1,8,0:0:0:0:
369,337,33136,2,0,L|368:385,1,33.7500012874604,8|8,0:3|0:3,0:0:0:0:
230,362,33341,6,0,P|243:296|211:232,1,114.750002188683,4|0,1:2|0:0,0:0:0:0:
213,244,33752,1,8,0:0:0:0:
175,125,33958,1,2,0:0:0:0:
175,125,34060,1,0,0:0:0:0:
175,125,34163,2,0,L|270:116,1,76.5000014591217,2|2,0:3|0:0,0:0:0:0:
230,33,34574,2,0,L|306:40,1,76.5000014591217,8|2,0:0|0:0,0:0:0:0:
417,100,34985,6,0,P|355:115|320:191,1,153.000002918243,2|8,0:3|0:0,0:0:0:0:
389,318,35601,1,2,0:0:0:0:
389,318,35704,1,0,0:0:0:0:
389,318,35807,2,0,P|391:269|387:230,1,76.5000014591217,2|2,0:3|0:0,0:0:0:0:
244,143,36218,2,0,P|241:181|243:219,1,76.5000014591217,8|2,0:0|0:0,0:0:0:0:
206,337,36629,6,0,P|124:319|61:346,1,153.000002918243,2|8,0:3|0:0,0:0:0:0:
12,242,37245,1,2,0:0:0:0:
12,242,37348,1,0,0:0:0:0:
12,242,37451,2,0,L|5:145,1,76.5000014591217,2|2,0:3|0:0,0:0:0:0:
29,73,37759,1,2,0:0:0:0:
45,62,37862,2,0,P|95:71|128:114,1,76.5000014591217,8|2,0:0|0:0,0:0:0:0:
306,73,38273,6,0,P|251:67|181:136,1,153.000002918243,2|8,0:3|0:0,0:0:0:0:
128,206,38889,1,2,0:0:0:0:
128,206,38992,1,0,0:0:0:0:
128,206,39095,2,0,L|79:206,2,38.2500007295609,2|0|0,0:3|0:0|0:0,0:0:0:0:
311,235,39506,1,8,0:0:0:0:
272,159,39711,1,2,0:0:0:0:
272,159,39814,1,2,0:0:0:0:
272,159,39917,6,0,L|266:302,1,141.749995674133,4|2,1:2|0:3,0:0:0:0:
281,322,40328,1,8,0:0:0:0:
258,141,40533,6,0,L|252:284,1,141.749995674133,4|2,1:2|0:3,0:0:0:0:
266,300,40944,1,8,0:0:0:0:
355,192,41149,1,8,0:0:0:0:
380,180,41252,1,8,0:0:0:0:
408,182,41355,1,8,0:0:0:0:
434,193,41458,1,8,0:0:0:0:
451,214,41560,6,0,P|428:158|475:93,1,141.749995674133,4|2,1:2|0:3,0:0:0:0:
491,91,41971,1,8,0:0:0:0:
459,234,42177,6,0,P|397:181|345:200,1,141.749995674133,4|2,1:2|0:3,0:0:0:0:
337,218,42588,1,8,0:0:0:0:
217,76,42793,1,8,0:0:0:0:
219,104,42896,1,8,0:0:0:0:
220,132,42999,1,8,0:0:0:0:
220,160,43101,1,8,0:0:0:0:
220,188,43204,6,0,B|212:220|194:234|194:234|172:220|162:173,1,94.499997116089,4|0,1:2|0:0,0:0:0:0:
134,48,43512,2,0,B|102:38|81:47|81:47|82:73|97:84,1,94.499997116089,8|0,0:0|0:0,0:0:0:0:
76,177,43821,2,0,L|90:231,1,47.2499985580445,8|0,0:0|0:0,0:0:0:0:
0,309,44026,6,0,P|74:295|122:342,1,141.749995674133,4|0,1:2|0:0,0:0:0:0:
123,357,44437,2,0,L|223:343,1,94.499997116089,8|0,0:0|0:0,0:0:0:0:
398,261,44848,6,0,P|346:257|294:285,1,94.499997116089,12|0,1:2|0:0,0:0:0:0:
210,241,45156,2,0,P|262:237|314:265,1,94.499997116089,8|0,0:0|0:0,0:0:0:0:
304,374,45464,2,0,L|308:212,1,141.749995674133,12|0,1:2|0:0,0:0:0:0:
252,162,45875,2,0,L|200:142,1,47.2499985580445,8|0,0:0|0:0,0:0:0:0:
387,189,46081,2,0,L|439:169,1,47.2499985580445,8|0,0:0|0:0,0:0:0:0:
323,31,46286,1,8,0:3:0:0:
323,31,46389,1,8,0:3:0:0:
323,31,46492,6,0,P|331:73|328:140,1,94.499997116089,12|0,1:2|0:0,0:0:0:0:
499,114,46800,2,0,P|491:72|494:5,1,94.499997116089,8|0,0:0|0:0,0:0:0:0:
411,74,47108,1,8,0:0:0:0:
449,196,47314,2,0,L|458:351,1,141.749995674133,8|0,0:0|0:0,0:0:0:0:
454,364,47725,6,0,B|395:388|342:349,1,94.499997116089,12|0,1:2|0:0,0:0:0:0:
242,281,48033,2,0,B|301:257|354:296,1,94.499997116089,8|0,0:0|0:0,0:0:0:0:
279,359,48341,1,8,0:0:0:0:
162,245,48547,2,0,P|178:173|156:73,1,141.749995674133,8|0,0:0|0:0,0:0:0:0:
154,93,48958,5,8,0:0:0:0:
243,177,49163,1,8,0:0:0:0:
343,148,49369,1,2,0:3:0:0:
362,65,49574,1,2,0:3:0:0:
246,2,49780,6,0,L|132:7,1,94.499997116089,12|0,1:2|0:0,0:0:0:0:
38,76,50088,2,0,L|61:182,1,94.499997116089,8|0,0:0|0:0,0:0:0:0:
127,229,50396,1,8,0:0:0:0:
268,119,50601,2,0,P|205:103|138:159,1,141.749995674133,8|0,0:0|0:0,0:0:0:0:
156,159,51012,6,0,P|159:210|147:281,1,94.499997116089,12|0,1:2|0:0,0:0:0:0:
279,144,51321,2,0,P|276:93|288:22,1,94.499997116089,8|0,0:0|0:0,0:0:0:0:
175,46,51629,1,8,0:0:0:0:
247,236,51834,2,0,L|376:220,1,94.499997116089,8|0,0:0|0:0,0:0:0:0:
495,191,52143,5,8,0:0:0:0:
506,172,52245,2,0,L|496:121,1,47.2499985580445,0|0,1:0|0:0,0:0:0:0:
375,92,52451,2,0,L|365:138,1,47.2499985580445,0|0,1:0|0:0,0:0:0:0:
427,294,52656,1,8,0:0:0:0:
425,270,52759,1,8,0:0:0:0:
422,246,52862,1,8,0:0:0:0:
482,382,53067,6,0,P|430:363|369:378,1,103.500001974106,4|0,1:2|0:0,0:0:0:0:
258,332,53375,1,8,0:0:0:0:
278,311,53478,2,0,L|348:303,1,51.7500009870529,8|0,0:0|0:0,0:0:0:0:
430,218,53684,6,0,L|287:209,1,103.500001974106,4|0,1:2|0:0,0:0:0:0:
259,164,53992,1,0,1:0:0:0:
259,164,54095,1,0,1:0:0:0:
357,62,54300,2,0,L|353:133,1,51.7500009870529,0|0,1:0|0:0,0:0:0:0:
250,257,54506,1,8,0:0:0:0:
225,247,54608,1,8,0:0:0:0:
200,238,54711,6,0,P|139:240|105:273,1,103.500001974106,4|0,1:2|0:0,0:0:0:0:
223,376,55019,1,8,0:0:0:0:
246,359,55122,2,0,L|301:353,1,51.7500009870529,8|0,0:0|0:0,0:0:0:0:
364,276,55328,6,0,P|363:224|374:174,1,103.500001974106,4|0,1:2|0:0,0:0:0:0:
267,136,55636,2,0,L|270:209,1,51.7500009870529,8|0,0:0|0:0,0:0:0:0:
177,317,55841,1,8,0:0:0:0:
177,317,55944,2,0,L|179:265,1,51.7500009870529,0|0,1:0|0:0,0:0:0:0:
138,114,56149,1,8,0:0:0:0:
138,114,56252,1,8,0:0:0:0:
138,114,56355,6,0,B|98:80|98:80|105:191,1,155.250002961159,4|0,1:2|0:0,0:0:0:0:
117,201,56766,2,0,P|58:187|18:203,1,103.500001974106,8|0,0:0|0:0,0:0:0:0:
3,278,57074,1,8,0:0:0:0:
3,278,57177,1,0,1:0:0:0:
124,374,57382,1,2,0:3:0:0:
248,280,57588,1,8,0:0:0:0:
212,203,57793,1,2,0:3:0:0:
212,203,57896,1,2,0:3:0:0:
212,203,57999,6,0,P|203:151|241:106,1,103.500001974106,8|0,0:0|0:0,0:0:0:0:
400,112,58307,2,0,P|409:60|371:15,1,103.500001974106,8|0,3:0|0:0,0:0:0:0:
216,24,58615,2,0,L|288:32,1,51.7500009870529,8|0,3:3|0:0,0:0:0:0:
412,200,58821,6,0,P|352:192|322:165,1,103.500001974106,8|0,0:0|0:0,0:0:0:0:
150,92,59129,2,0,P|110:124|60:128,1,103.500001974106,8|0,3:0|0:0,0:0:0:0:
200,208,59437,2,0,L|204:269,1,51.7500009870529,8|0,3:0|0:0,0:0:0:0:
300,365,59643,5,0,1:0:0:0:
300,365,60054,2,2,L|165:360,1,135,2|0,0:1|0:0,0:1:0:0:
0,312,60464,1,8,0:0:0:0:
14,329,60567,2,0,L|18:375,1,45,8|0,0:0|0:0,0:0:0:0:
98,302,60773,1,8,0:0:0:0:
102,271,60875,1,8,0:0:0:0:
105,239,60978,1,8,0:0:0:0:
108,207,61081,2,0,L|53:208,1,45,8|0,0:3|0:0,0:0:0:0:
16,122,61286,6,2,P|12:73|45:22,1,107.999996704102,6|10,1:1|0:0,0:1:0:0:
61,28,61800,1,2,0:0:0:0:
123,80,61903,2,0,L|188:72,1,53.9999983520508,10|0,0:0|0:0,0:0:0:0:
284,116,62108,6,2,L|271:242,1,107.999996704102,2|10,1:1|0:0,0:1:0:0:
287,240,62622,1,2,0:0:0:0:
217,313,62725,2,0,P|185:303|147:304,1,53.9999983520508,10|0,0:0|0:0,0:0:0:0:
82,223,62930,6,2,P|139:217|201:199,1,107.999996704102,2|10,1:1|0:0,0:1:0:0:
199,187,63444,1,2,0:0:0:0:
146,106,63547,1,10,0:0:0:0:
139,82,63649,1,10,0:0:0:0:
223,16,63752,6,0,P|219:40|223:72,1,53.9999983520508,0|0,1:0|0:0,0:0:0:0:
275,158,63958,2,0,P|283:180|303:206,1,53.9999983520508,2|0,0:0|0:0,0:0:0:0:
415,13,64163,2,0,P|399:32|387:61,1,53.9999983520508,0|0,1:0|0:0,0:0:0:0:
389,161,64369,2,0,P|385:185|389:217,1,53.9999983520508,2|0,0:0|0:0,0:0:0:0:
311,314,64574,6,2,P|262:290|209:292,1,107.999996704102,2|10,1:1|0:0,0:1:0:0:
195,307,65088,1,2,0:0:0:0:
111,369,65191,2,0,L|102:315,1,53.9999983520508,10|0,0:0|0:0,0:0:0:0:
149,124,65396,6,2,P|148:180|144:234,1,107.999996704102,2|10,1:1|0:0,0:1:0:0:
125,237,65910,1,2,0:0:0:0:
224,274,66012,2,0,L|278:259,1,53.9999983520508,10|0,0:0|0:0,0:0:0:0:
385,122,66218,6,0,P|308:128|292:184,1,135,2|0,1:0|0:0,0:0:0:0:
233,50,66629,6,0,P|281:86|268:205,1,175.499991966248,2|0,1:0|0:0,0:0:0:0:
354,307,67040,6,0,L|358:245,1,53.9999983520508,2|0,1:0|0:0,0:0:0:0:
458,183,67245,1,8,0:0:0:0:
452,160,67348,1,8,0:0:0:0:
495,277,67451,2,0,L|434:270,1,53.9999983520508,8|0,0:0|0:0,0:0:0:0:
308,384,67656,2,0,L|247:377,1,53.9999983520508,8|0,0:0|0:0,0:0:0:0:
94,285,67862,6,0,P|161:271|204:298,1,107.999996704102,4|0,1:2|0:0,0:0:0:0:
204,308,68170,1,8,0:0:0:0:
341,216,68273,2,0,P|274:230|231:203,1,107.999996704102,8|0,0:0|0:0,0:0:0:0:
232,192,68581,1,8,0:0:0:0:
303,64,68684,6,0,L|293:154,1,80.9999975280763,0|0,1:0|0:0,0:0:0:0:
238,12,68992,1,8,0:0:0:0:
316,41,69095,2,0,L|306:131,1,80.9999975280763,8|0,0:0|0:0,0:0:0:0:
90,63,69506,6,0,L|100:153,1,80.9999975280763,0|0,1:0|0:0,0:0:0:0:
155,11,69814,1,8,0:0:0:0:
77,40,69917,2,0,L|87:130,1,80.9999975280763,8|0,0:0|0:0,0:0:0:0:
187,264,70328,6,0,P|190:195|199:94,1,161.999995056153,0|0,1:0|0:0,0:0:0:0:
267,4,70738,5,8,0:0:0:0:
348,8,70841,1,8,0:0:0:0:
382,49,70944,1,8,0:3:0:0:
380,81,71047,1,8,0:3:0:0:
309,127,71149,6,0,P|406:111|514:104,1,188.999994232178,4|2,1:2|0:0,0:0:0:0:
407,2,71560,2,0,L|400:79,1,62.9999980773926,10|0,0:0|0:0,0:0:0:0:
311,216,71766,6,0,P|213:200|106:193,1,188.999994232178,4|2,1:2|0:0,0:0:0:0:
213,91,72177,2,0,L|220:168,1,62.9999980773926,10|0,0:0|0:0,0:0:0:0:
224,351,72382,5,8,0:0:0:0:
253,340,72485,1,8,0:0:0:0:
283,330,72588,2,0,L|294:288,3,31.4999990386963,0|0|0|0,1:0|1:0|1:0|1:0,0:0:0:0:
354,240,72793,6,0,P|284:254|235:230,1,125.999996154785,4|0,1:2|0:0,0:0:0:0:
69,291,73101,1,10,0:0:0:0:
106,366,73204,2,0,L|176:365,1,62.9999980773926,10|0,0:0|0:0,0:0:0:0:
224,212,73410,6,0,B|238:130|238:130|217:78,1,125.999996154785,4|0,1:2|0:0,0:0:0:0:
369,15,73718,5,8,0:0:0:0:
448,15,73821,1,8,0:0:0:0:
381,38,73923,5,8,0:0:0:0:
436,38,74026,1,8,0:3:0:0:
394,62,74129,5,8,0:3:0:0:
423,61,74232,1,8,0:3:0:0:
406,85,74334,5,8,0:3:0:0:
352,166,74437,6,2,P|407:156|465:167,1,107.999996704102,6|10,0:1|0:0,0:1:0:0:
470,178,74951,1,2,0:0:0:0:
400,291,75054,2,0,L|405:231,1,53.9999983520508,10|0,0:0|0:0,0:0:0:0:
267,111,75259,6,2,P|272:162|276:241,1,107.999996704102,2|10,1:1|0:0,0:1:0:0:
268,238,75773,1,2,0:0:0:0:
189,168,75875,2,0,P|153:161|125:160,1,53.9999983520508,10|0,0:0|0:0,0:0:0:0:
33,260,76081,6,2,L|155:243,1,107.999996704102,2|8,1:0|0:0,0:1:0:0:
152,260,76595,1,2,0:0:0:0:
208,344,76697,1,10,0:0:0:0:
235,331,76800,1,8,0:0:0:0:
327,272,76903,6,0,P|320:239|320:208,1,53.9999983520508,0|0,1:0|0:0,0:0:0:0:
427,276,77108,2,0,P|434:243|434:212,1,53.9999983520508,2|0,0:0|0:0,0:0:0:0:
276,344,77314,2,0,P|253:318|237:292,1,53.9999983520508,0|0,1:0|0:0,0:0:0:0:
478,352,77519,2,0,P|500:326|516:300,1,53.9999983520508,2|0,0:0|0:0,0:0:0:0:
365,134,77725,6,0,P|374:216|379:301,1,161.999995056153,4|0,1:2|0:0,0:0:0:0:
465,220,78136,2,0,L|472:155,1,53.9999983520508,8|0,0:0|0:0,0:0:0:0:
403,47,78341,5,2,0:0:0:0:
393,64,78444,1,2,0:0:0:0:
318,27,78547,1,10,0:0:0:0:
282,14,78649,1,8,0:0:0:0:
244,17,78752,1,8,0:0:0:0:
218,45,78855,1,8,0:0:0:0:
229,131,78958,6,0,L|236:221,1,80.9999975280763,0|0,1:0|0:0,0:0:0:0:
238,234,79369,6,0,P|189:167|138:173,1,125.999996154785,4|0,1:2|0:0,0:0:0:0:
329,282,79677,2,0,P|378:215|429:221,1,125.999996154785,8|0,0:3|0:0,0:0:0:0:
315,381,79985,2,0,L|241:385,1,62.9999980773926,8|0,0:3|0:0,0:0:0:0:
230,256,80191,6,0,P|247:190|218:123,1,125.999996154785,4|0,1:2|0:0,0:0:0:0:
336,297,80499,2,0,P|319:231|348:164,1,125.999996154785,8|0,0:3|0:0,0:0:0:0:
408,63,80807,2,0,L|400:132,1,62.9999980773926,8|0,0:3|0:0,0:0:0:0:
215,150,81012,6,0,P|128:142|88:137,1,107.999996704102,4|0,1:2|0:0,0:0:0:0:
90,151,81321,1,8,0:0:0:0:
140,231,81423,2,0,P|143:256|146:290,1,53.9999983520508,8|0,0:0|0:0,0:0:0:0:
3,356,81629,6,0,P|1:288|60:321,1,161.999995056153,4|0,1:2|0:0,0:0:0:0:
144,380,82040,2,0,L|221:369,1,53.9999983520508,8|8,0:0|0:0,0:0:0:0:
290,293,82245,1,8,0:3:0:0:
284,269,82348,1,8,0:3:0:0:
342,187,82451,1,8,0:3:0:0:
348,211,82554,1,8,0:3:0:0:
227,200,82656,6,0,L|110:182,1,107.999996704102,4|0,1:2|0:0,0:0:0:0:
79,49,82965,1,8,0:0:0:0:
90,72,83067,1,8,0:0:0:0:
93,98,83170,1,8,0:0:0:0:
191,65,83273,6,0,L|308:47,1,107.999996704102,4|0,1:2|0:0,0:0:0:0:
434,75,83581,1,8,0:0:0:0:
453,86,83684,2,0,P|459:107|460:148,1,53.9999983520508,8|8,0:0|0:0,0:0:0:0:
355,211,83889,5,8,0:3:0:0:
289,172,83992,1,8,0:3:0:0:
215,189,84095,1,8,0:3:0:0:
171,249,84197,1,8,0:3:0:0:
209,317,84300,6,0,P|216:197|208:151,1,161.999995056153,4|0,1:2|0:0,0:0:0:0:
115,66,84711,1,8,0:3:0:0:
130,70,84814,1,8,0:3:0:0:
145,74,84917,1,8,0:3:0:0:
160,78,85019,1,8,0:3:0:0:
246,36,85122,6,0,L|302:29,1,53.9999983520508,4|0,1:0|0:0,0:0:0:0:
359,97,85328,1,0,0:0:0:0:
474,40,85430,2,0,L|418:33,1,53.9999983520508,8|0,0:0|0:0,0:0:0:0:
282,127,85636,1,8,0:0:0:0:
361,113,85738,1,8,0:0:0:0:
439,133,85841,1,8,0:0:0:0:
477,228,85944,5,6,1:2:0:0:
477,228,86252,5,2,0:0:0:0:
477,228,86560,5,2,0:0:0:0:
371,371,86766,6,0,P|321:359|274:357,1,90,4|0,1:2|0:0,0:0:0:0:
365,355,87074,2,0,P|415:343|462:341,1,90,8|0,0:3|0:0,0:0:0:0:
483,241,87382,1,8,0:3:0:0:
338,180,87588,6,2,L|341:215,1,36,6|0,1:1|0:0,0:1:0:0:
