osu file format v14

[General]
AudioFilename: audio.mp3
AudioLeadIn: 0
PreviewTime: 61184
Countdown: 0
SampleSet: Soft
StackLeniency: 0.7
Mode: 0
LetterboxInBreaks: 0
WidescreenStoryboard: 0

[Editor]
DistanceSpacing: 1.2
BeatDivisor: 4
GridSize: 4
TimelineZoom: 2

[Metadata]
Title:DEAREST DROP (TVsize)
TitleUnicode:DEAREST DROP (TVsize)
Artist:Azusa Tadokoro
ArtistUnicode:田所あずさ
Creator:Karen
Version:Hard
Source:終末なにしてますか? 忙しいですか? 救ってもらっていいですか?
Tags:Sukasuka Worldend tv size Shuumatsu Nani Shitemasu ka? Isogashii desu ka? Sukutte Moratte Ii desu ka? What do you do at the end of the world? Are you busy? Will you save us? chtholly Yohanes xxdeathx Rizia Kawaiwkyik
BeatmapID:1372407
BeatmapSetID:646199

[Difficulty]
HPDrainRate:5
CircleSize:4
OverallDifficulty:6
ApproachRate:7
SliderMultiplier:1.4
SliderTickRate:1

[Events]
//Background and Video events
0,0,"bgg.jpg",0,0
//Break Periods
//Storyboard Layer 0 (Background)
//Storyboard Layer 1 (Fail)
//Storyboard Layer 2 (Pass)
//Storyboard Layer 3 (Foreground)
//Storyboard Sound Samples

[TimingPoints]
465,410.958904109589,4,2,1,30,1,0
465,-133.333333333333,4,2,1,30,0,0
6629,-133.333333333333,4,2,1,20,0,0
6834,-133.333333333333,4,2,1,5,0,0
7040,-100,4,2,1,60,0,0
13615,-100,4,2,1,50,0,0
20191,-133.333333333333,4,2,1,40,0,0
31697,-133.333333333333,4,2,1,50,0,0
33341,-117.647058823529,4,2,1,50,0,0
53067,-117.647058823529,4,2,1,60,0,0
60054,-117.647058823529,4,2,1,40,0,0
60362,-117.647058823529,4,2,1,5,0,0
60464,-117.647058823529,4,2,1,60,0,0
61286,-100,4,2,1,75,0,0
74026,-100,4,2,1,55,0,0
74437,-100,4,2,1,75,0,0
85944,-100,4,2,1,55,0,0
87588,-200,4,2,1,55,0,0
88410,-100,4,2,1,5,0,0

[Colours]
Combo1 : 255,102,102
Combo2 : 89,172,255

[HitObjects]
118,109,465,6,0,P|110:215|109:318,2,210.000008010865,2|2|2,0:0|0:0|0:0,0:0:0:0:
191,34,2519,1,0,0:0:0:0:
235,128,2930,2,0,P|284:151|340:139,1,105.000004005432,2|0,0:0|0:0,0:0:0:0:
368,242,3752,6,0,P|279:232|155:225,1,210.000008010865,2|2,0:0|0:0,0:0:0:0:
99,312,4985,1,0,0:0:0:0:
185,372,5396,2,0,L|289:354,1,105.000004005432,2|0,0:0|0:0,0:0:0:0:
392,369,6218,1,0,0:0:0:0:
392,369,7040,6,0,P|385:331|395:277,1,70,4|0,1:2|0:0,0:0:0:0:
427,225,7451,1,8,0:0:0:0:
427,225,7656,2,0,L|346:209,1,70,0|0,1:0|0:0,0:0:0:0:
299,151,8067,1,8,0:0:0:0:
299,151,8170,1,8,0:0:0:0:
299,151,8273,2,0,P|262:123|226:106,1,70,0|8,1:0|0:0,0:0:0:0:
212,32,8684,6,0,P|172:29|129:37,1,70,0|0,1:0|0:0,0:0:0:0:
64,68,9095,1,8,0:0:0:0:
128,124,9300,2,0,L|133:165,3,35,0|0|0|2,1:0|0:0|0:0|0:3,0:0:0:0:
152,196,9711,1,2,0:3:0:0:
77,233,9917,2,0,L|33:227,3,35,8|8|8|8,0:0|0:0|0:0|0:0,0:0:0:0:
14,259,10328,6,0,P|6:300|14:337,1,70,4|0,1:2|1:0,0:0:0:0:
76,378,10738,1,0,1:0:0:0:
76,378,10944,2,0,L|148:363,1,70,0|8,1:0|0:0,0:0:0:0:
198,299,11355,1,8,0:0:0:0:
198,299,11458,1,8,0:0:0:0:
198,299,11560,2,0,L|272:304,1,70,0|0,1:0|0:0,0:0:0:0:
324,241,11971,6,0,L|315:192,3,35,0|8|8|8,1:0|0:0|0:0|0:0,0:0:0:0:
299,168,12382,2,0,L|301:117,3,35,8|8|8|8,0:0|0:0|0:0|0:0,0:0:0:0:
298,90,12793,1,0,1:0:0:0:
360,33,12999,1,8,0:0:0:0:
360,33,13101,1,8,0:0:0:0:
360,33,13204,2,0,L|399:27,3,35,8|8|8|8,0:0|0:0|0:0|0:0,0:0:0:0:
434,40,13615,6,0,P|461:98|463:179,1,140,6|8,1:2|0:0,0:0:0:0:
412,239,14232,1,2,0:0:0:0:
347,181,14437,2,0,P|266:164|215:199,1,140,2|8,1:2|0:0,0:0:0:0:
215,275,15054,1,2,0:0:0:0:
137,171,15259,6,0,P|145:124|145:91,1,70,2|0,1:2|0:0,0:0:0:0:
226,11,15670,2,0,P|227:45|234:80,1,70,10|2,1:2|0:0,0:0:0:0:
332,136,16081,2,0,L|337:218,1,70,2|0,1:2|0:0,0:0:0:0:
360,240,16389,2,0,P|402:258|460:244,1,105,2|8,1:2|0:0,0:0:0:0:
474,358,16903,6,0,P|399:341|332:335,1,140,2|8,1:2|0:0,0:0:0:0:
273,278,17519,1,0,0:0:0:0:
273,278,17622,1,0,0:0:0:0:
273,278,17725,2,0,L|276:230,2,35,2|2|2,0:3|0:3|0:3,0:0:0:0:
225,347,18136,1,8,0:0:0:0:
161,292,18341,1,8,0:0:0:0:
161,292,18444,1,8,0:0:0:0:
161,292,18547,6,0,P|157:235|148:178,2,105,6|8|8,1:2|0:3|0:3,0:0:0:0:
74,372,19369,2,0,P|-1:312|63:239,1,210,4|0,1:2|0:0,0:0:0:0:
50,264,20191,6,0,L|157:257,1,105.000004005432,2|0,0:0|0:0,0:0:0:0:
216,207,20807,2,0,P|225:173|200:107,1,105.000004005432,2|0,0:0|0:0,0:0:0:0:
136,64,21423,1,2,0:0:0:0:
136,64,21629,1,0,0:0:0:0:
191,8,21834,6,0,P|235:15|303:20,1,105.000004005432,2|0,0:0|0:0,0:0:0:0:
366,54,22451,2,0,P|384:106|363:163,1,105.000004005432,2|0,0:0|0:0,0:0:0:0:
300,189,23067,2,0,L|308:266,1,52.5000020027161,2|0,0:0|0:0,0:0:0:0:
326,317,23478,6,0,P|364:306|403:305,2,78.7500030040742,2|0|2,0:0|0:0|0:0,0:0:0:0:
266,369,24300,2,0,P|228:380|189:381,2,78.7500030040742,0|0|0,0:0|0:0|0:0,0:0:0:0:
252,291,25122,6,0,L|258:207,2,78.7500030040742,2|2|2,0:0|0:0|0:0,0:0:0:0:
173,299,25944,2,0,L|112:283,1,52.5000020027161,2|0,0:0|0:0,0:0:0:0:
57,330,26355,1,2,0:0:0:0:
57,330,26560,1,0,0:0:0:0:
15,262,26766,6,0,P|0:207|26:142,1,105.000004005432,2|0,0:0|0:0,0:0:0:0:
79,121,27382,2,0,P|132:136|195:144,1,105.000004005432,2|0,0:0|0:0,0:0:0:0:
228,79,27999,2,0,L|297:76,1,52.5000020027161,2|0,0:0|0:0,0:0:0:0:
333,135,28410,6,0,P|344:171|343:217,2,78.7500030040742,2|2|2,0:0|0:0|0:0,0:0:0:0:
361,61,29232,2,0,P|407:74|474:60,1,105.000004005432,2|2,0:0|0:0,0:0:0:0:
490,139,29848,1,0,0:0:0:0:
490,139,30054,6,0,L|477:256,1,105.000004005432,2|0,0:0|0:0,0:0:0:0:
399,247,30670,2,0,L|410:351,1,105.000004005432,2|0,0:0|0:0,0:0:0:0:
336,378,31286,2,0,L|275:376,1,52.5000020027161,0|2,0:0|0:0,0:0:0:0:
236,313,31697,6,0,P|210:279|156:260,2,78.7500030040742,2|2|2,0:1|0:1|0:1,0:0:0:0:
310,286,32519,2,0,L|351:289,2,26.2500010013581,8|8|8,0:0|0:0|0:0,0:0:0:0:
278,213,32930,2,0,L|317:193,2,26.2500010013581,8|8|8,0:0|0:0|0:3,0:0:0:0:
218,161,33341,6,0,P|233:93|208:44,1,119.000002269745,4|8,1:2|0:0,0:0:0:0:
126,26,33958,1,2,0:0:0:0:
126,26,34163,2,0,P|89:31|59:29,1,59.5000011348725,2|2,0:3|0:0,0:0:0:0:
49,117,34574,2,0,P|86:112|116:114,1,59.5000011348725,8|2,0:0|0:0,0:0:0:0:
138,196,34985,6,0,P|129:260|137:332,1,119.000002269745,2|8,0:3|0:0,0:0:0:0:
210,368,35601,1,2,0:0:0:0:
210,368,35704,1,0,0:0:0:0:
210,368,35807,2,0,L|296:359,1,59.5000011348725,2|2,0:3|0:0,0:0:0:0:
249,274,36218,2,0,L|308:280,1,59.5000011348725,8|2,0:0|0:0,0:0:0:0:
373,341,36629,6,0,P|411:356|472:349,2,89.2500017023087,2|0|2,0:3|0:0|0:0,0:0:0:0:
426,269,37451,2,0,P|441:232|437:175,2,89.2500017023087,2|2|2,0:3|0:0|0:0,0:0:0:0:
353,216,38273,6,0,L|257:226,2,89.2500017023087,2|0|2,0:3|0:0|0:0,0:0:0:0:
363,127,39095,2,0,L|370:82,2,29.7500005674362,2|0|0,0:3|0:0|0:0,0:0:0:0:
273,127,39506,1,8,0:0:0:0:
204,69,39711,1,2,0:0:0:0:
204,69,39814,1,2,0:0:0:0:
204,69,39917,6,0,P|150:65|90:103,1,119.000002269745,4|8,1:2|0:0,0:0:0:0:
13,61,40533,2,0,P|67:57|127:95,1,119.000002269745,4|8,1:2|0:0,0:0:0:0:
124,177,41149,2,0,L|130:228,3,29.7500005674362,8|8|8|8,0:0|0:0|0:0|0:0,0:0:0:0:
143,248,41560,6,0,P|159:302|145:364,1,119.000002269745,4|8,1:2|0:0,0:0:0:0:
34,342,42177,2,0,P|20:284|37:227,1,119.000002269745,4|8,1:2|0:0,0:0:0:0:
107,167,42793,2,0,L|154:146,3,29.7500005674362,8|8|8|8,0:0|0:0|0:0|0:0,0:0:0:0:
166,123,43204,6,0,P|215:140|272:128,2,89.2500017023087,4|8|8,1:2|0:0|0:0,0:0:0:0:
144,36,44026,2,0,L|18:18,1,119.000002269745,4|8,1:2|0:0,0:0:0:0:
1,94,44643,1,0,0:0:0:0:
65,155,44848,6,0,P|77:199|68:249,2,89.2500017023087,12|8|12,1:2|0:0|1:2,0:0:0:0:
239,117,45875,2,0,L|312:108,1,59.5000011348725,8|8,0:0|0:0,0:0:0:0:
367,166,46286,1,8,0:3:0:0:
434,107,46492,6,0,P|432:57|437:15,2,89.2500017023087,12|8|8,1:2|0:0|0:0,0:0:0:0:
489,177,47314,1,8,0:0:0:0:
323,244,47725,2,0,P|325:294|320:336,2,89.2500017023087,12|8|8,1:2|0:0|0:0,0:0:0:0:
268,174,48547,1,8,0:0:0:0:
107,251,48958,2,0,L|117:323,1,59.5000011348725,8|8,0:0|0:0,0:0:0:0:
204,311,49369,2,0,L|212:252,1,59.5000011348725,2|2,0:3|0:3,0:0:0:0:
257,174,49780,6,0,P|286:166|346:186,2,89.2500017023087,12|8|8,1:2|0:0|0:0,0:0:0:0:
190,114,50601,1,8,0:0:0:0:
85,258,51012,2,0,P|56:266|-4:246,2,89.2500017023087,12|8|8,1:2|0:0|0:0,0:0:0:0:
152,318,51833,1,8,0:0:0:0:
227,268,52040,1,0,0:0:0:0:
227,268,52143,1,8,0:0:0:0:
227,268,52245,2,0,L|296:258,1,59.5000011348725,0|0,1:0|1:0,0:0:0:0:
365,299,52656,2,0,L|357:340,2,29.7500005674362,8|8|8,0:0|0:0|0:0,0:0:0:0:
437,246,53067,6,0,P|450:190|433:116,1,119.000002269745,4|8,1:2|0:0,0:0:0:0:
359,89,53684,2,0,L|237:78,1,119.000002269745,4|0,1:2|1:0,0:0:0:0:
170,133,54300,1,0,1:0:0:0:
105,71,54506,1,8,0:0:0:0:
105,71,54608,1,8,0:0:0:0:
105,71,54711,6,0,P|61:99|58:185,1,119.000002269745,4|8,1:2|0:0,0:0:0:0:
126,210,55328,2,0,P|139:254|105:320,1,119.000002269745,4|0,1:2|0:0,0:0:0:0:
179,371,55944,1,0,1:0:0:0:
248,315,56149,1,8,0:0:0:0:
248,315,56252,1,8,0:0:0:0:
248,315,56355,6,0,P|301:308|379:300,1,119.000002269745,4|8,1:2|0:0,0:0:0:0:
437,355,56971,1,0,0:0:0:0:
493,285,57177,2,0,P|502:242|502:215,1,59.5000011348725,0|2,1:0|0:3,0:0:0:0:
448,155,57588,1,8,0:0:0:0:
365,188,57793,1,2,0:3:0:0:
365,188,57896,1,2,0:3:0:0:
365,188,57999,6,0,P|325:209|261:206,2,89.2500017023087,8|8|8,0:0|3:0|3:3,0:0:0:0:
384,100,58821,2,0,L|397:7,2,89.2500017023087,8|8|8,0:0|3:0|3:0,0:0:0:0:
298,125,59643,5,0,1:0:0:0:
298,125,60054,2,2,L|174:120,1,119.000002269745,2|10,0:1|0:0,0:1:0:0:
90,109,60670,1,0,0:0:0:0:
90,109,60773,1,8,0:0:0:0:
90,109,60875,2,0,L|81:156,3,29.7500005674362,8|8|8|8,0:0|0:0|0:3|0:3,0:0:0:0:
107,172,61286,6,2,P|115:238|125:322,1,140,6|10,1:1|0:0,0:1:0:0:
199,362,61903,1,10,0:0:0:0:
123,310,62108,2,2,P|131:240|139:171,1,140,2|10,1:1|0:0,0:1:0:0:
208,111,62725,1,10,0:0:0:0:
240,201,62930,6,2,P|302:195|387:195,1,140,2|10,1:1|0:0,0:1:0:0:
420,276,63547,1,10,0:0:0:0:
337,314,63752,2,0,L|347:388,1,70,0|2,1:0|0:0,0:0:0:0:
436,370,64163,2,0,L|445:300,1,70,0|2,1:0|0:0,0:0:0:0:
378,194,64574,6,2,P|370:123|369:25,1,140,2|10,1:1|0:0,0:1:0:0:
451,15,65191,1,10,0:0:0:0:
368,54,65396,2,2,P|290:58|220:60,1,140,2|10,1:1|0:0,0:1:0:0:
145,20,66012,1,10,0:0:0:0:
104,101,66218,6,0,P|88:149|23:170,1,105,2|0,1:0|0:0,0:0:0:0:
3,145,66629,2,0,L|15:295,1,140,2|2,1:0|1:0,0:0:0:0:
91,348,67245,1,8,0:0:0:0:
91,348,67348,1,8,0:0:0:0:
91,348,67451,2,0,P|122:341|170:338,1,70,8|8,0:0|0:0,0:0:0:0:
230,278,67862,6,0,P|221:228|228:189,1,70,4|0,1:2|0:0,0:0:0:0:
306,172,68273,2,0,P|307:137|298:103,1,70,8|0,0:0|0:0,0:0:0:0:
227,45,68684,2,0,L|116:38,1,105,0|8,1:0|0:0,0:0:0:0:
84,64,69095,2,0,P|79:104|94:149,1,70,8|0,0:0|0:0,0:0:0:0:
145,201,69506,6,0,P|158:244|141:322,1,105,0|8,1:0|0:0,0:0:0:0:
114,330,69917,2,0,L|35:326,1,70,8|0,0:0|0:0,0:0:0:0:
6,243,70328,1,0,1:0:0:0:
55,167,70533,1,2,0:0:0:0:
55,167,70636,1,2,0:0:0:0:
55,167,70738,2,0,L|46:128,3,35,8|8|8|8,0:0|0:0|0:3|0:3,0:0:0:0:
73,95,71149,6,0,P|137:112|213:89,1,140,4|10,1:2|0:0,0:0:0:0:
281,14,71766,2,0,P|347:-4|414:12,1,140,4|10,1:2|0:0,0:0:0:0:
464,88,72382,1,8,0:0:0:0:
427,171,72588,1,0,1:0:0:0:
427,171,72691,1,0,1:0:0:0:
427,171,72793,6,0,P|430:238|443:335,1,140,4|10,1:2|0:0,0:0:0:0:
330,310,73410,2,0,P|338:240|341:170,1,140,4|8,1:2|0:0,0:0:0:0:
270,113,74026,2,0,L|235:89,3,35,8|8|8|8,0:3|0:3|0:3|0:3,0:0:0:0:
198,109,74437,6,2,P|145:146|74:138,1,140,6|10,0:1|0:0,0:1:0:0:
12,68,75054,1,10,0:0:0:0:
73,137,75259,2,2,P|140:127|197:165,1,140,2|10,1:1|0:0,0:1:0:0:
189,256,75875,1,10,0:0:0:0:
123,319,76081,6,0,P|194:310|287:301,1,140,2|8,1:1|0:0,0:1:0:0:
338,352,76697,1,10,0:0:0:0:
390,277,76903,2,0,L|406:198,1,70,0|2,1:0|0:0,0:0:0:0:
482,161,77314,2,0,L|495:229,1,70,0|2,1:0|0:0,0:0:0:0:
451,346,77725,6,0,P|393:370|325:342,1,140,4|8,1:2|0:0,0:0:0:0:
285,259,78341,1,2,0:0:0:0:
205,304,78547,2,0,L|126:293,1,70,10|8,0:0|0:0,0:0:0:0:
78,222,78958,1,0,1:0:0:0:
78,222,79163,1,0,0:0:0:0:
132,148,79369,6,0,P|141:97|128:40,2,105,4|8|8,1:2|0:3|0:3,0:0:0:0:
41,140,80191,2,0,P|32:89|45:32,2,105,4|8|8,1:2|0:3|0:3,0:0:0:0:
78,222,81012,6,0,P|143:193|221:189,1,140,4|8,1:2|0:0,0:0:0:0:
324,125,81629,2,0,P|260:96|191:90,1,140,4|8,1:2|0:0,0:0:0:0:
116,143,82245,2,0,L|122:203,3,35,8|8|8|8,0:3|0:3|0:3|0:3,0:0:0:0:
147,213,82656,6,0,P|155:277|162:355,1,140,4|8,1:2|0:0,0:0:0:0:
265,384,83273,2,0,P|270:314|279:244,1,140,4|8,1:2|0:0,0:0:0:0:
353,190,83889,2,0,L|388:202,3,35,8|8|8|8,0:3|0:3|0:3|0:3,0:0:0:0:
425,179,84300,6,0,P|449:127|381:86,1,140,4|8,1:2|0:3,0:0:0:0:
305,114,84917,1,8,0:3:0:0:
305,114,85019,1,8,0:3:0:0:
305,114,85122,2,0,L|182:104,2,105,4|2|8,1:0|0:0|0:0,0:0:0:0:
322,24,85944,5,6,1:2:0:0:
322,24,86766,2,0,P|366:13|427:39,2,105,4|8|8,1:2|0:3|0:3,0:0:0:0:
240,66,87588,6,0,L|97:67,1,140,4|0,1:0|0:0,0:0:0:0:
