osu file format v14

[General]
AudioFilename: audio.mp3
AudioLeadIn: 0
PreviewTime: 61184
Countdown: 0
SampleSet: Soft
StackLeniency: 0.7
Mode: 0
LetterboxInBreaks: 0
WidescreenStoryboard: 0

[Editor]
DistanceSpacing: 1.1
BeatDivisor: 4
GridSize: 4
TimelineZoom: 2

[Metadata]
Title:DEAREST DROP (TVsize)
TitleUnicode:DEAREST DROP (TVsize)
Artist:Azusa Tadokoro
ArtistUnicode:田所あずさ
Creator:Karen
Version:Easy
Source:終末なにしてますか? 忙しいですか? 救ってもらっていいですか?
Tags:Sukasuka Worldend tv size Shuumatsu Nani Shitemasu ka? Isogashii desu ka? Sukutte Moratte Ii desu ka? What do you do at the end of the world? Are you busy? Will you save us? chtholly Yohanes xxdeathx Rizia Kawaiwkyik
BeatmapID:1372406
BeatmapSetID:646199

[Difficulty]
HPDrainRate:2
CircleSize:3
OverallDifficulty:2
ApproachRate:3
SliderMultiplier:0.8
SliderTickRate:1

[Events]
//Background and Video events
0,0,"bgg.jpg",0,0
//Break Periods
//Storyboard Layer 0 (Background)
//Storyboard Layer 1 (Fail)
//Storyboard Layer 2 (Pass)
//Storyboard Layer 3 (Foreground)
//Storyboard Sound Samples

[TimingPoints]
465,410.958904109589,4,2,1,30,1,0
465,-100,4,2,1,30,0,0
6629,-100,4,2,1,20,0,0
6834,-100,4,2,1,5,0,0
7040,-100,4,2,1,60,0,0
13615,-100,4,2,1,50,0,0
20191,-100,4,2,1,40,0,0
31697,-100,4,2,1,50,0,0
33341,-100,4,2,1,50,0,0
53067,-100,4,2,1,60,0,0
60054,-100,4,2,1,40,0,0
60362,-100,4,2,1,5,0,0
60464,-100,4,2,1,60,0,0
61286,-100,4,2,1,75,0,0
74026,-100,4,2,1,55,0,0
74437,-100,4,2,1,75,0,0
85944,-100,4,2,1,55,0,0

[Colours]
Combo1 : 255,102,102
Combo2 : 89,172,255

[HitObjects]
42,193,465,6,0,P|108:167|203:203,2,160,2|2|2,0:0|0:0|0:0,0:0:0:0:
87,362,2930,1,2,0:0:0:0:
255,312,3752,2,0,L|420:300,1,160,2|2,0:0|0:0,0:0:0:0:
490,141,5396,2,0,P|423:98|338:130,1,160,2|0,0:0|0:0,0:0:0:0:
203,215,7040,6,0,L|77:211,2,120,4|0|0,1:2|1:0|1:0,0:0:0:0:
282,252,8684,2,0,P|301:310|277:370,2,120,0|0|8,1:0|1:0|0:0,0:0:0:0:
316,169,10328,2,0,L|306:40,2,120,4|0|0,1:2|1:0|1:0,0:0:0:0:
391,218,11971,2,0,L|400:337,2,120,0|0|8,1:0|1:0|0:0,0:0:0:0:
454,152,13615,6,0,P|369:129|311:176,1,160,6|2,1:2|1:2,0:0:0:0:
303,255,14848,1,8,0:0:0:0:
241,318,15259,2,0,L|144:322,2,80,2|10|2,1:2|1:2|1:2,0:0:0:0:
303,255,16492,1,10,0:0:0:0:
236,195,16903,2,0,P|159:168|81:205,1,160,2|2,1:2|0:3,0:0:0:0:
65,281,18136,1,8,0:0:0:0:
4,217,18547,2,0,L|-1:57,1,160,6|4,1:2|1:2,0:0:0:0:
0,57,20191,6,0,P|72:79|153:48,1,160,2|0,0:0|0:0,0:0:0:0:
236,62,21423,1,2,0:0:0:0:
297,126,21834,2,0,L|314:287,1,160,2|0,0:0|0:0,0:0:0:0:
379,344,23067,1,2,0:0:0:0:
453,296,23478,2,0,L|470:127,2,160,2|2|2,0:0|0:0|0:0,0:0:0:0:
379,344,25533,2,0,L|285:336,1,80,0|2,0:0|0:0,0:0:0:0:
217,303,26355,1,2,0:0:0:0:
216,215,26766,6,0,L|211:46,1,160,2|0,0:0|0:0,0:0:0:0:
289,14,27999,1,2,0:0:0:0:
364,59,28410,2,0,L|368:218,1,160,2|2,0:0|0:0,0:0:0:0:
311,285,29643,1,2,0:0:0:0:
247,224,30054,2,0,L|72:215,2,160,2|2|2,0:0|0:0|0:1,0:0:0:0:
311,285,33341,6,0,L|401:278,1,80,4|8,1:2|0:0,0:0:0:0:
465,232,34163,1,2,0:3:0:0:
477,144,34574,1,8,0:0:0:0:
445,61,34985,2,0,P|398:51|357:62,1,80,2|8,0:3|0:0,0:0:0:0:
316,129,35807,2,0,L|227:126,1,80,2|8,0:3|0:0,0:0:0:0:
178,59,36629,6,0,P|141:42|97:44,1,80,2|8,0:3|0:0,0:0:0:0:
28,91,37451,2,0,L|40:172,1,80,2|8,0:3|0:0,0:0:0:0:
62,255,38273,2,0,P|68:308|61:339,1,80,2|8,0:3|0:0,0:0:0:0:
142,371,39095,1,2,0:3:0:0:
225,343,39506,1,8,0:0:0:0:
309,369,39917,6,0,L|436:360,2,120,4|4|8,1:2|1:2|0:0,0:0:0:0:
225,343,41560,2,0,P|202:289|223:217,2,120,4|4|8,1:2|1:2|0:0,0:0:0:0:
286,279,43204,2,0,L|448:270,1,160,4|4,1:2|1:2,0:0:0:0:
473,186,44437,1,8,0:0:0:0:
459,99,44848,2,0,P|410:64|337:76,2,120,12|12|8,1:2|1:2|0:0,0:0:0:0:
387,151,46492,6,0,L|212:159,1,160,12|8,1:2|0:0,0:0:0:0:
245,72,47725,2,0,L|85:64,1,160,12|8,1:2|0:0,0:0:0:0:
12,114,48958,2,0,P|4:155|19:204,1,80,8|2,0:0|0:3,0:0:0:0:
99,204,49780,2,0,L|96:368,1,160,12|8,1:2|0:0,0:0:0:0:
182,380,51012,2,0,L|184:220,1,160,12|8,1:2|0:0,0:0:0:0:
239,150,52245,2,0,P|283:137|327:149,1,80,0|8,1:0|0:0,0:0:0:0:
349,225,53067,6,0,L|483:216,2,120,4|4|0,1:2|1:2|1:0,0:0:0:0:
287,288,54711,2,0,L|167:296,2,120,4|4|0,1:2|1:2|1:0,0:0:0:0:
343,356,56355,6,0,P|417:375|485:318,1,160,4|0,1:2|1:0,0:0:0:0:
400,289,57588,1,8,0:0:0:0:
430,206,57999,2,0,L|428:32,2,160,8|8|0,0:0|0:0|1:0,0:0:0:0:
348,172,60054,2,2,P|297:159|253:146,1,80,2|8,0:1|0:0,0:1:0:0:
143,37,61286,6,0,P|98:23|51:28,1,80,6|10,1:1|0:0,0:0:0:0:
21,101,62108,2,0,P|11:142|21:194,1,80,2|10,1:1|0:0,0:0:0:0:
62,253,62930,2,0,P|131:233|214:260,1,160,2|0,1:1|1:0,0:0:0:0:
226,346,64163,1,0,1:0:0:0:
295,291,64574,6,0,L|311:114,1,160,2|2,1:1|1:1,0:0:0:0:
273,51,65807,1,10,0:0:0:0:
347,3,66218,1,2,1:0:0:0:
433,20,66629,1,2,1:0:0:0:
496,81,67040,2,0,P|489:116|504:173,1,80,2|8,1:0|0:0,0:0:0:0:
466,240,67862,6,0,L|453:332,1,80,4|8,1:2|0:0,0:0:0:0:
370,344,68684,2,0,L|358:264,1,80,0|8,1:0|0:0,0:0:0:0:
308,192,69506,2,0,P|269:172|227:171,1,80,0|8,1:0|0:0,0:0:0:0:
164,224,70328,1,0,1:0:0:0:
184,309,70738,1,8,0:0:0:0:
110,358,71149,6,0,L|-17:342,2,120,4|4|8,1:2|1:2|0:0,0:0:0:0:
184,309,72793,2,0,L|311:293,2,120,4|4|8,1:2|1:2|0:3,0:0:0:0:
111,258,74437,6,0,P|95:220|102:174,1,80,6|10,0:1|0:0,0:0:0:0:
168,128,75259,2,0,L|250:116,1,80,2|10,1:1|0:0,0:0:0:0:
308,179,76081,2,0,P|375:197|454:154,1,160,2|0,1:0|1:0,0:0:0:0:
440,69,77314,1,0,1:0:0:0:
365,22,77725,2,0,L|285:31,1,80,4|8,1:2|0:0,0:0:0:0:
219,89,78547,1,10,0:0:0:0:
142,45,78958,1,0,1:0:0:0:
60,77,79369,6,0,P|44:148|90:235,1,160,4|4,1:2|1:2,0:0:0:0:
252,194,81012,2,0,L|371:178,2,120,4|4|8,1:2|1:2|0:3,0:0:0:0:
188,254,82656,2,0,P|210:297|202:371,2,120,4|4|8,1:2|1:2|0:3,0:0:0:0:
113,206,84300,6,0,P|100:75|222:138,1,320,4|6,1:2|1:2,0:0:0:0:
337,262,86766,2,0,L|506:242,1,160,4|6,1:2|1:1,0:0:0:0:
