osu file format v14

[General]
AudioFilename: DEAREST DROP.mp3
AudioLeadIn: 0
PreviewTime: 61462
Countdown: 0
SampleSet: Soft
StackLeniency: 0.7
Mode: 0
LetterboxInBreaks: 0
WidescreenStoryboard: 0

[Editor]
DistanceSpacing: 0.9
BeatDivisor: 4
GridSize: 4
TimelineZoom: 1.100002

[Metadata]
Title:DEAREST DROP
TitleUnicode:DEAREST DROP
Artist:Azusa Tadokoro
ArtistUnicode:田所あずさ
Creator:Kyle Y
Version:Normal
Source:終末なにしてますか?忙しいですか?救ってもらっていいですか?
Tags:Shuumatsu nani shitemasu ka? Isogashii desu ka? Sukutte moratte ii desu ka? What do you do at the end of the world? are you busy? will you save us? SukaSuka
BeatmapID:1354567
BeatmapSetID:638545

[Difficulty]
HPDrainRate:3
CircleSize:3
OverallDifficulty:3
ApproachRate:4
SliderMultiplier:1.1
SliderTickRate:1

[Events]
//Background and Video events
0,0,"Background.jpg",0,0
//Break Periods
//Storyboard Layer 0 (Background)
//Storyboard Layer 1 (Fail)
//Storyboard Layer 2 (Pass)
//Storyboard Layer 3 (Foreground)
//Storyboard Sound Samples

[TimingPoints]
641,410.958904109589,4,2,0,30,1,0
7216,-100,4,2,0,70,0,0
13791,-100,4,2,0,50,0,0
18723,-100,4,2,0,65,0,0
20367,-100,4,2,0,45,0,0
31873,-100,4,2,0,30,0,0
32182,-100,4,2,0,35,0,0
32490,-100,4,2,0,40,0,0
32695,-100,4,2,0,55,0,0
33517,-100,4,2,0,60,0,0
58175,-100,4,2,0,65,0,0
61462,-100,4,2,0,70,0,1
86120,-100,4,2,0,50,0,0
86942,-100,4,2,0,45,0,0
87764,-100,4,2,0,30,0,0
88586,-100,4,2,0,10,0,0

[Colours]
Combo1 : 250,61,89
Combo2 : 108,137,253
Combo3 : 124,62,253
Combo4 : 239,89,251

[HitObjects]
82,99,641,6,0,P|133:80|201:107,1,110,2|0,2:0|2:0,0:0:0:0:
255,163,1462,2,0,P|307:176|358:157,1,110,2|0,2:0|2:0,0:0:0:0:
423,83,2284,2,0,P|448:119|449:195,1,110,2|0,2:0|2:0,0:0:0:0:
425,279,3106,2,0,L|373:315,1,55,2|0,2:0|2:0,0:0:0:0:
332,296,3517,2,0,L|280:332,1,55,0|0,2:0|2:0,0:0:0:0:
237,327,3928,6,0,L|110:297,1,110,2|0,2:0|2:0,0:0:0:0:
33,326,4750,2,0,P|34:270|74:219,1,110,2|0,2:0|2:0,0:0:0:0:
132,155,5572,2,0,P|145:105|138:35,2,110,2|0|2,2:0|2:0|2:0,0:0:0:0:
132,155,7216,6,0,L|249:168,1,110,12|0,2:0|2:0,0:0:0:0:
274,203,7832,2,0,P|289:145|349:112,1,110,8|0,2:0|2:0,0:0:0:0:
376,106,8449,1,8,2:0:0:0:
437,28,8860,2,0,P|467:68|467:144,1,110,8|0,2:0|2:0,0:0:0:0:
453,172,9476,2,0,P|438:224|452:276,1,110,8|0,2:0|2:0,0:0:0:0:
478,319,10093,1,8,2:0:0:0:
383,347,10504,6,0,L|270:366,1,110,12|0,2:0|2:0,0:0:0:0:
231,340,11120,2,0,L|123:299,1,110,8|0,2:0|2:0,0:0:0:0:
81,318,11736,1,8,2:0:0:0:
26,235,12147,2,0,P|14:182|33:117,1,110,8|0,2:0|2:0,0:0:0:0:
58,90,12764,2,0,L|176:78,1,110,8|0,2:0|2:0,0:0:0:0:
210,102,13380,1,8,2:0:0:0:
277,30,13791,6,0,P|305:79|297:148,1,110,6|8,2:0|2:0,0:0:0:0:
231,199,14613,2,0,P|203:245|203:299,1,110,2|8,2:0|2:0,0:0:0:0:
289,348,15435,1,2,2:0:0:0:
366,286,15846,1,10,2:0:0:0:
448,231,16257,2,0,P|464:273|454:325,2,82.5,2|2|2,2:0|2:0|2:0,0:0:0:0:
418,191,17079,6,0,P|408:148|429:74,1,110,2|8,2:0|2:0,0:0:0:0:
331,45,17901,2,0,P|285:58|224:39,1,110,0|8,2:0|2:0,0:0:0:0:
170,122,18723,2,0,L|157:230,2,82.5,4|4|4,2:0|2:0|2:0,0:0:0:0:
131,90,19545,2,0,P|74:78|18:95,1,110,4|0,2:0|0:0,0:0:0:0:
9,189,20367,6,0,B|45:260|45:260|41:309,1,110,2|2,2:0|2:0,0:0:0:0:
20,335,20983,2,0,P|78:319|137:341,1,110,0|0,2:0|2:0,0:0:0:0:
164,362,21599,1,2,2:0:0:0:
258,332,22010,2,0,P|306:304|324:237,1,110,2|2,2:0|2:0,0:0:0:0:
315,206,22627,2,0,L|200:183,1,110,0|0,2:0|2:0,0:0:0:0:
158,196,23243,1,2,2:0:0:0:
71,147,23654,6,0,P|58:193|72:245,2,82.5,2|0|0,2:0|2:0|2:0,0:0:0:0:
45,104,24476,2,0,B|125:111|125:111|162:87|207:83,1,165,2|0,2:0|2:0,0:0:0:0:
243,113,25298,2,0,P|228:164|236:212,2,82.5,2|0|0,2:0|2:0|2:0,0:0:0:0:
289,95,26120,2,0,P|349:76|401:92,1,110,2|2,2:0|2:0,0:0:0:0:
444,172,26942,6,0,P|479:134|492:88,2,82.5,2|0|0,2:0|2:0|2:0,0:0:0:0:
407,205,27764,2,0,B|384:258|403:300|403:300|374:307|338:332,1,165,2|0,2:0|2:0,0:0:0:0:
293,336,28586,2,0,P|255:360|213:362,2,82.5,2|0|0,2:0|2:0|2:0,0:0:0:0:
267,293,29408,2,0,L|211:195,1,110,2|2,2:0|2:0,0:0:0:0:
116,173,30230,6,0,P|75:187|23:184,2,82.5,2|0|0,2:0|2:0|2:0,0:0:0:0:
139,129,31051,2,0,P|213:97|293:137,1,165,2|0,2:0|2:0,0:0:0:0:
323,162,31873,2,0,P|352:140|379:82,2,82.5,2|2|2,2:0|2:0|2:0,0:0:0:0:
342,207,32695,2,0,L|361:267,1,55,8|8,2:0|2:0,0:0:0:0:
331,301,33106,1,8,2:0:0:0:
232,313,33517,6,0,P|173:328|112:303,1,110,6|8,2:0|2:0,0:0:0:0:
83,289,34134,2,0,L|106:220,1,55,0|0,2:0|2:0,0:0:0:0:
122,192,34545,2,0,L|92:125,1,55,2|8,2:0|2:0,0:0:0:0:
30,71,35161,2,0,P|73:45|142:53,1,110,2|8,2:0|2:0,0:0:0:0:
175,70,35777,2,0,P|206:78|236:72,1,55,0|0,2:0|2:0,0:0:0:0:
270,48,36188,2,0,P|297:45|323:52,1,55,2|8,2:0|2:0,0:0:0:0:
381,133,36805,6,0,P|415:88|422:41,2,82.5,2|0|0,2:0|2:0|2:0,0:0:0:0:
337,156,37627,2,0,B|316:197|341:245|341:245|295:305,1,165,8|0,2:0|2:0,0:0:0:0:
271,344,38449,2,0,L|359:361,2,82.5,8|0|0,2:0|2:0|2:0,0:0:0:0:
222,334,39271,2,0,L|109:353,1,110,10|10,2:0|2:0,0:0:0:0:
64,358,39887,1,0,2:0:0:0:
64,358,40093,6,0,P|87:296|64:244,1,110,4|8,2:0|2:0,0:0:0:0:
45,216,40709,2,0,P|32:163|55:114,1,110,4|0,2:0|2:0,0:0:0:0:
114,34,41531,1,2,2:0:0:0:
114,34,41736,2,0,P|181:32|230:59,1,110,4|8,2:0|2:0,0:0:0:0:
264,69,42353,2,0,P|314:89|368:84,1,110,4|0,2:0|2:0,0:0:0:0:
408,52,42969,1,0,2:0:0:0:
469,129,43380,6,0,L|509:221,2,82.5,6|0|0,2:0|2:0|2:0,0:0:0:0:
425,151,44202,2,0,P|384:192|408:293,1,165,6|2,2:0|2:0,0:0:0:0:
401,338,45024,2,0,P|429:341|478:360,2,55,4|0|0,2:0|2:0|0:0,0:0:0:0:
353,350,45640,2,0,P|289:357|225:329,1,110,4|2,2:0|2:0,0:0:0:0:
208,310,46257,1,8,2:0:0:0:
132,245,46668,6,0,L|37:273,2,82.5,12|0|0,2:0|2:0|2:0,0:0:0:0:
152,199,47490,1,8,2:0:0:0:
227,134,47901,2,0,L|247:49,2,82.5,12|0|0,2:0|2:0|2:0,0:0:0:0:
273,155,48723,1,8,2:0:0:0:
253,252,49134,2,0,P|271:276|274:312,1,55,8|2,2:0|2:0,0:0:0:0:
309,335,49545,2,0,P|342:329|374:302,1,55,8|0,2:0|2:0,0:0:0:0:
398,286,49956,6,0,L|452:370,2,82.5,4|0|0,2:0|2:0|2:0,0:0:0:0:
420,242,50777,1,8,2:0:0:0:
403,144,51188,2,0,P|429:115|455:52,2,82.5,8|0|0,2:0|2:0|2:0,0:0:0:0:
359,167,52010,1,8,2:0:0:0:
290,95,52421,2,0,L|234:70,1,55,8|2,2:0|2:0,0:0:0:0:
200,102,52832,2,0,L|141:115,1,55,8|0,2:0|2:0,0:0:0:0:
109,147,53243,6,0,L|122:204,1,55,12|2,2:0|2:0,0:0:0:0:
61,280,53860,2,0,P|132:299|211:239,1,165,8|8,2:0|2:0,0:0:0:0:
289,201,54887,2,0,L|350:229,1,55,4|2,2:0|2:0,0:0:0:0:
358,321,55504,2,0,P|419:281|425:175,1,165,10|8,2:0|2:0,0:0:0:0:
501,123,56531,6,0,P|452:97|398:100,1,110,6|8,2:0|2:0,0:0:0:0:
351,115,57147,2,0,P|296:117|248:92,1,110,0|2,2:0|2:0,0:0:0:0:
210,60,57764,1,8,2:0:0:0:
138,128,58175,6,0,P|118:98|116:36,2,82.5,2|2|2,2:0|2:0|2:0,0:0:0:0:
122,175,58997,2,0,L|30:192,2,82.5,8|2|2,2:0|2:0|2:0,0:0:0:0:
159,207,59819,1,12,2:0:0:0:
117,296,60230,2,0,P|224:280|254:184,1,220,2|2,2:0|2:0,0:0:0:0:
174,124,61462,6,0,P|212:94|279:89,1,110,12|8,2:0|2:0,0:0:0:0:
354,140,62284,2,0,P|408:135|451:103,1,110,8|8,2:0|2:0,0:0:0:0:
499,190,63106,2,0,L|474:300,1,110,8|8,2:0|2:0,0:0:0:0:
386,343,63928,2,0,L|336:311,1,55,8|0,2:0|2:0,0:0:0:0:
290,318,64339,2,0,L|230:335,1,55,8|0,2:0|2:0,0:0:0:0:
194,358,64750,6,0,L|71:337,1,110,8|8,2:0|2:0,0:0:0:0:
22,262,65572,2,0,L|145:241,1,110,8|8,2:0|2:0,0:0:0:0:
205,178,66394,2,0,P|223:124|207:64,1,110,8|8,2:0|2:0,0:0:0:0:
301,30,67216,2,0,L|397:9,2,82.5,8|0|0,2:0|2:0|2:0,0:0:0:0:
316,77,68038,6,0,P|318:138|300:194,1,110,12|8,2:0|2:0,0:0:0:0:
343,276,68860,2,0,L|432:303,2,82.5,8|0|0,2:0|2:0|2:0,0:0:0:0:
295,290,69682,2,0,L|267:379,2,82.5,8|0|0,2:0|2:0|2:0,0:0:0:0:
250,267,70504,2,0,L|129:291,1,110,8|8,2:0|0:0,0:0:0:0:
58,341,71325,6,0,P|44:281|63:227,1,110,12|8,2:0|2:0,0:0:0:0:
96,205,71942,2,0,P|109:152|95:99,1,110,4|0,2:0|2:0,0:0:0:0:
61,63,72558,1,8,2:0:0:0:
147,15,72969,2,0,L|261:33,1,110,12|8,2:0|2:0,0:0:0:0:
284,73,73586,2,0,L|401:50,1,110,4|0,2:0|2:0,0:0:0:0:
436,72,74202,1,8,2:0:0:0:
378,152,74613,6,0,P|341:205|358:263,1,110,8|8,2:0|2:0,0:0:0:0:
405,327,75435,2,0,P|355:345|283:323,1,110,10|8,2:0|2:0,0:0:0:0:
235,259,76257,2,0,P|181:248|130:266,1,110,8|8,2:0|2:0,0:0:0:0:
32,253,77079,2,0,L|56:190,1,55,8|0,2:0|2:0,0:0:0:0:
36,154,77490,2,0,L|21:91,1,55,8|0,2:0|2:0,0:0:0:0:
49,58,77901,6,0,L|182:66,1,110,12|8,2:0|2:0,0:0:0:0:
197,95,78517,2,0,P|251:78|317:99,1,110,2|8,2:0|2:0,0:0:0:0:
342,118,79134,1,8,2:0:0:0:
379,209,79545,2,0,P|419:178|435:146,2,82.5,12|0|0,2:0|2:0|2:0,0:0:0:0:
371,257,80367,2,0,L|466:301,2,82.5,12|0|0,2:0|2:0|2:0,0:0:0:0:
327,280,81188,6,0,L|212:306,1,110,12|8,2:0|2:0,0:0:0:0:
172,287,81805,1,4,2:0:0:0:
75,308,82216,2,0,L|50:363,2,55,2|8|8,2:0|2:0|2:0,0:0:0:0:
49,265,82832,2,0,L|25:155,1,110,12|8,2:0|2:0,0:0:0:0:
49,113,83449,1,0,0:0:0:0:
94,94,83654,2,0,L|204:95,1,110,8|8,2:0|2:0,0:0:0:0:
262,15,84476,6,0,P|296:61|276:163,1,165,12|0,2:0|2:0,0:0:0:0:
243,197,85298,2,0,L|138:172,2,82.5,8|0|8,2:0|2:0|2:0,0:0:0:0:
268,239,86120,1,4,2:0:0:0:
268,239,86942,6,0,P|255:295|268:333,2,82.5,8|8|8,2:0|2:0|2:0,0:0:0:0:
302,203,87764,2,0,B|368:182|368:182|454:211|454:211|514:186,1,220,12|2,2:0|2:0,0:0:0:0:
