osu file format v14

[General]
AudioFilename: DEAREST DROP.mp3
AudioLeadIn: 0
PreviewTime: 61462
Countdown: 0
SampleSet: Soft
StackLeniency: 0.7
Mode: 0
LetterboxInBreaks: 0
WidescreenStoryboard: 0

[Editor]
DistanceSpacing: 0.6
BeatDivisor: 4
GridSize: 4
TimelineZoom: 1.600002

[Metadata]
Title:DEAREST DROP
TitleUnicode:DEAREST DROP
Artist:Azusa Tadokoro
ArtistUnicode:田所あずさ
Creator:Kyle Y
Version:Insane
Source:終末なにしてますか?忙しいですか?救ってもらっていいですか?
Tags:Shuumatsu nani shitemasu ka? Isogashii desu ka? Sukutte moratte ii desu ka? What do you do at the end of the world? are you busy? will you save us? SukaSuka
BeatmapID:1354566
BeatmapSetID:638545

[Difficulty]
HPDrainRate:6
CircleSize:4
OverallDifficulty:7
ApproachRate:9
SliderMultiplier:1.8
SliderTickRate:1

[Events]
//Background and Video events
0,0,"Background.jpg",0,0
//Break Periods
//Storyboard Layer 0 (Background)
//Storyboard Layer 1 (Fail)
//Storyboard Layer 2 (Pass)
//Storyboard Layer 3 (Foreground)
//Storyboard Sound Samples

[TimingPoints]
641,410.958904109589,4,2,0,30,1,0
641,-133.333333333333,4,2,0,30,0,0
7216,-100,4,2,0,70,0,0
13791,-100,4,2,0,50,0,0
18723,-100,4,2,0,65,0,0
19545,-133.333333333333,4,2,0,65,0,0
20367,-100,4,2,0,45,0,0
31873,-133.333333333333,4,2,0,30,0,0
32182,-133.333333333333,4,2,0,35,0,0
32490,-133.333333333333,4,2,0,40,0,0
32695,-100,4,2,0,55,0,0
33517,-100,4,2,0,60,0,0
58175,-100,4,2,0,65,0,0
59819,-200,4,2,0,65,0,0
60743,-100,4,2,0,65,0,0
61462,-100,4,2,0,70,0,1
86120,-100,4,2,0,50,0,0
86942,-100,4,2,0,45,0,0
87764,-100,4,2,0,30,0,0
88586,-100,4,2,0,10,0,0

[Colours]
Combo1 : 250,61,89
Combo2 : 108,137,253
Combo3 : 124,62,253
Combo4 : 239,89,251

[HitObjects]
248,264,641,6,0,P|335:229|327:135,1,202.500007724762,2|0,2:0|2:0,0:0:0:0:
92,173,1462,2,0,B|164:192|164:192|200:184|264:180|264:180|232:160,1,202.500007724762,2|0,2:0|2:0,0:0:0:0:
34,103,2284,6,0,B|41:149|64:171|64:171|16:236|63:299,1,202.500007724762,2|0,2:0|2:0,0:0:0:0:
288,268,3106,1,2,2:0:0:0:
416,336,3312,1,0,2:0:0:0:
288,268,3517,1,0,2:0:0:0:
416,336,3723,1,0,2:0:0:0:
468,200,3928,6,0,P|452:328|508:352,1,202.500007724762,2|0,2:0|2:0,0:0:0:0:
468,200,4750,2,0,L|324:164,1,135.000005149842,2|0,2:0|2:0,0:0:0:0:
337,167,5572,6,0,L|220:178,1,101.250003862381,2|0,2:0|0:0,0:0:0:0:
207,146,5983,1,0,2:0:0:0:
72,305,6394,1,2,2:0:0:0:
72,305,7216,1,0,0:0:0:0:
80,294,7319,1,0,0:0:0:0:
87,283,7421,2,0,P|82:254|67:226,1,45,0|0,2:0|2:0,0:0:0:0:
128,164,7627,2,0,P|100:153|69:152,1,45,0|0,2:0|2:0,0:0:0:0:
31,82,7832,6,0,P|8:100|-8:126,2,45,8|0|0,2:0|2:0|2:0,0:0:0:0:
182,48,8140,2,0,P|205:30|221:4,2,45,8|0|0,2:0|2:0|2:0,0:0:0:0:
305,132,8449,6,0,L|315:183,1,45,8|0,2:0|2:0,0:0:0:0:
438,255,8654,2,0,L|451:212,1,45,0|0,2:0|2:0,0:0:0:0:
305,132,8860,6,0,L|204:132,1,90,8|0,2:0|2:0,0:0:0:0:
135,239,9168,1,0,0:0:0:0:
139,255,9270,1,0,0:0:0:0:
144,272,9373,1,0,0:0:0:0:
148,287,9476,6,0,L|163:333,2,45,0|0|0,2:0|2:0|0:0,0:0:0:0:
281,210,9784,2,0,L|298:157,2,45,0|0|0,2:0|2:0|0:0,0:0:0:0:
380,355,10093,6,0,L|334:348,1,45,8|0,2:0|2:0,0:0:0:0:
470,222,10298,2,0,L|504:254,1,45,8|0,2:0|2:0,0:0:0:0:
362,246,10504,5,0,0:0:0:0:
367,224,10606,1,0,0:0:0:0:
372,202,10709,1,0,0:0:0:0:
379,180,10812,1,0,0:0:0:0:
386,158,10914,1,0,0:0:0:0:
393,136,11017,1,0,0:0:0:0:
393,136,11120,6,0,L|387:91,2,45,0|0|0,2:0|2:0|0:0,0:0:0:0:
267,49,11428,2,0,L|283:2,2,45,0|0|0,2:0|2:0|0:0,0:0:0:0:
156,221,11736,6,0,L|118:164,1,45,8|0,2:0|2:0,0:0:0:0:
56,53,11942,2,0,L|32:91,1,45,8|0,2:0|2:0,0:0:0:0:
165,86,12147,5,8,2:0:0:0:
165,86,12250,1,0,2:0:0:0:
165,86,12353,1,0,2:0:0:0:
165,86,12456,1,0,2:0:0:0:
165,86,12558,1,0,2:0:0:0:
165,86,12661,1,0,2:0:0:0:
165,86,12764,5,8,2:0:0:0:
200,119,12866,1,0,2:0:0:0:
246,136,12969,1,0,2:0:0:0:
295,135,13072,1,0,2:0:0:0:
340,114,13174,1,0,2:0:0:0:
373,77,13277,1,0,2:0:0:0:
340,114,13380,5,8,2:0:0:0:
334,171,13482,1,0,2:3:0:0:
329,230,13586,2,0,L|323:285,1,45,0|0,2:3|2:3,0:0:0:0:
448,337,13791,6,0,B|422:313|422:313|368:299|295:338,1,135,6|0,2:0|2:0,0:0:0:0:
252,293,14202,2,0,P|209:319|156:321,1,90,8|0,2:0|2:0,0:0:0:0:
72,185,14613,2,0,L|46:74,1,90,2|0,2:0|2:0,0:0:0:0:
242,185,15024,1,8,2:0:0:0:
84,289,15230,1,0,2:0:0:0:
158,123,15435,5,2,2:0:0:0:
242,185,15641,1,0,2:0:0:0:
335,56,15846,1,10,2:0:0:0:
252,93,16051,1,0,2:0:0:0:
401,202,16257,2,0,L|497:167,1,90,2|0,2:0|2:0,0:0:0:0:
503,185,16565,2,0,L|418:215,1,90,2|0,2:0|2:0,0:0:0:0:
465,221,16873,2,0,L|528:197,1,45,2|0,2:0|0:0,0:0:0:0:
399,300,17079,6,0,P|333:238|367:148,1,180,2|8,2:0|2:0,0:0:0:0:
232,246,17695,1,0,0:0:0:0:
235,272,17798,1,0,0:0:0:0:
236,299,17901,1,0,0:0:0:0:
41,308,18106,5,0,2:0:0:0:
48,282,18208,1,0,2:0:0:0:
53,255,18312,2,0,L|27:197,1,45
195,148,18517,2,0,L|185:204,1,45
36,120,18723,6,0,L|118:67,1,90,4|0,2:0|2:0,0:0:0:0:
176,131,19031,2,0,P|130:101|107:58,1,90,4|0,2:0|2:0,0:0:0:0:
60,20,19339,2,0,L|9:53,1,45,4|0,2:0|2:0,0:0:0:0:
242,81,19545,6,0,P|258:150|144:217,1,202.500007724762,4|0,2:0|2:0,0:0:0:0:
273,190,20264,1,2,2:0:0:0:
273,190,20367,6,0,B|363:196|363:196|448:244,1,180,2|2,2:0|2:0,0:0:0:0:
294,285,20983,1,0,2:0:0:0:
427,149,21188,1,2,2:0:0:0:
441,240,21394,1,0,2:0:0:0:
270,85,21599,1,2,2:0:0:0:
427,149,21805,1,0,2:0:0:0:
198,141,22010,6,0,B|151:143|151:143|90:110|90:110|25:115,1,180,2|2,2:0|2:0,0:0:0:0:
212,40,22627,1,0,2:0:0:0:
293,190,22832,1,2,2:0:0:0:
305,99,23038,1,0,2:0:0:0:
128,236,23243,1,2,2:0:0:0:
223,254,23449,1,0,2:0:0:0:
410,134,23654,6,0,L|421:30,1,90,2|0,2:0|2:0,0:0:0:0:
410,134,23962,2,0,P|464:144|499:184,1,90,0|0,2:0|0:0,0:0:0:0:
410,134,24271,2,0,L|372:176,1,45,0|0,2:0|2:0,0:0:0:0:
369,286,24476,2,0,P|322:270|258:296,1,90,2|0,2:0|2:0,0:0:0:0:
203,308,24784,2,0,P|256:300|292:262,1,90,0|0,2:0|0:0,0:0:0:0:
218,231,25093,2,0,L|158:212,1,45,0|0,2:0|2:0,0:0:0:0:
68,298,25298,6,0,L|47:190,1,90,2|0,2:0|2:0,0:0:0:0:
105,156,25606,2,0,L|84:48,1,90,0|0,2:0|0:0,0:0:0:0:
179,12,25914,2,0,L|166:62,1,45,0|0,2:0|2:0,0:0:0:0:
294,79,26120,2,0,B|244:102|167:56|167:56|192:107,1,180,2|2,2:0|2:0,0:0:0:0:
294,79,26634,2,0,L|314:35,1,45,0|0,0:0|2:0,0:0:0:0:
438,170,26942,6,0,L|443:271,1,90,2|0,2:0|2:0,0:0:0:0:
431,333,27250,2,0,L|426:232,1,90,0|0,2:0|0:0,0:0:0:0:
413,334,27558,2,0,L|416:394,1,45,0|0,2:0|2:0,0:0:0:0:
287,298,27764,2,0,P|241:282|189:299,1,90,2|0,2:0|2:0,0:0:0:0:
116,283,28072,2,0,P|162:299|214:282,1,90,0|0,2:0|0:0,0:0:0:0:
150,353,28380,2,0,L|92:359,1,45,0|0,2:0|2:0,0:0:0:0:
159,208,28586,6,0,B|157:147|157:147|174:119,1,90,2|0,2:0|2:0,0:0:0:0:
103,91,28894,2,0,B|118:66|118:66|116:5,1,90,0|0,2:0|0:0,0:0:0:0:
223,49,29202,2,0,L|271:37,1,45,0|0,2:0|2:0,0:0:0:0:
422,42,29408,2,0,B|370:47|342:65|342:65|302:66|302:66|261:117,1,180,2|2,2:0|2:0,0:0:0:0:
373,295,30024,1,0,2:0:0:0:
373,295,30230,6,0,P|322:293|280:323,1,90,2|0,2:0|2:0,0:0:0:0:
323,234,30538,2,0,P|291:274|292:325,1,90,0|0,2:0|0:0,0:0:0:0:
212,369,30846,2,0,L|203:316,1,45,0|0,2:0|2:0,0:0:0:0:
58,222,31051,2,0,L|75:133,1,90,2|0,2:0|2:0,0:0:0:0:
96,228,31360,2,0,L|109:317,1,90,0|0,2:0|0:0,0:0:0:0:
23,372,31668,2,0,L|34:319,1,45,0|0,2:0|0:0,0:0:0:0:
191,133,31873,6,0,P|234:111|279:100,1,67.5000025749208,2|0,2:0|2:0,0:0:0:0:
157,200,32182,2,0,P|114:222|69:233,1,67.5000025749208,2|0,2:0|2:0,0:0:0:0:
237,205,32490,1,2,2:0:0:0:
387,77,32695,5,8,2:0:0:0:
386,69,32797,1,8,2:0:0:0:
385,62,32901,2,0,L|363:166,1,90,8|8,2:0|2:0,0:0:0:0:
307,247,33209,1,8,2:0:0:0:
307,247,33312,2,0,L|320:298,1,45,8|0,2:0|2:0,0:0:0:0:
286,358,33517,6,0,P|289:279|197:247,1,180,6|8,2:0|2:0,0:0:0:0:
224,316,34134,1,0,2:0:0:0:
98,194,34339,1,0,2:0:0:0:
126,292,34545,1,2,2:0:0:0:
266,146,34750,1,8,2:0:0:0:
294,243,34956,1,0,2:0:0:0:
168,121,35161,6,0,P|124:99|71:93,1,90,2|0,2:0|2:0,0:0:0:0:
193,218,35572,1,8,2:0:0:0:
367,156,35777,1,0,2:0:0:0:
294,243,35983,1,0,2:0:0:0:
464,308,36188,1,2,2:0:0:0:
472,195,36394,1,8,2:0:0:0:
358,339,36599,1,0,2:0:0:0:
293,243,36805,6,0,B|250:271|250:271|207:273,1,90,2|0,2:0|2:0,0:0:0:0:
140,225,37113,2,0,B|183:197|183:197|226:195,1,90,0|0,2:0|2:0,0:0:0:0:
117,299,37421,2,0,P|89:286|77:265,1,45,0|0,2:0|2:0,0:0:0:0:
29,97,37627,2,0,P|43:139|32:198,1,90,8|0,2:0|2:0,0:0:0:0:
71,27,37935,2,0,P|66:71|80:113,1,90,0|0,2:0|2:0,0:0:0:0:
190,58,38243,2,0,L|143:63,1,45,0|0,2:0|2:0,0:0:0:0:
287,109,38449,6,0,B|324:94|324:94|344:95|344:95|383:81,1,90,8|0,2:0|2:0,0:0:0:0:
401,162,38757,2,0,P|443:172|472:223,1,90,0|0,2:0|2:0,0:0:0:0:
400,248,39065,2,0,B|380:264|380:264|377:245,1,45,0|0,2:0|2:0,0:0:0:0:
440,323,39271,2,0,P|396:345|298:263,1,180,10|10,2:0|2:0,0:0:0:0:
288,110,39887,1,0,2:0:0:0:
56,191,40093,5,4,2:0:0:0:
204,228,40298,1,0,2:0:0:0:
211,253,40401,2,0,B|196:302,1,45,0|8,2:0|2:0,0:0:0:0:
134,33,40709,5,4,2:0:0:0:
259,112,40914,1,2,2:0:0:0:
398,48,41120,1,0,2:0:0:0:
424,72,41223,2,0,L|439:132,1,45,0|8,2:0|2:0,0:0:0:0:
370,253,41531,1,2,2:0:0:0:
382,296,41634,1,0,2:0:0:0:
394,338,41736,5,4,2:0:0:0:
224,286,41942,1,0,2:0:0:0:
253,288,42045,2,0,L|303:291,1,45,0|8,2:0|2:0,0:0:0:0:
128,204,42353,5,4,2:0:0:0:
140,184,42456,1,0,2:0:0:0:
152,164,42558,2,0,L|111:117,1,45,2|0,2:0|2:0,0:0:0:0:
76,20,42764,2,0,L|15:31,1,45,0|0,2:0|2:0,0:0:0:0:
173,63,42969,1,8,2:0:0:0:
199,63,43071,1,0,2:0:0:0:
226,64,43174,1,0,2:0:0:0:
253,65,43277,1,0,2:0:0:0:
283,65,43380,6,0,L|367:114,1,90,6|0,2:0|2:0,0:0:0:0:
432,73,43688,2,0,P|437:124|409:171,1,90,0|0,2:0|2:0,0:0:0:0:
351,189,43997,2,0,P|333:214|325:239,1,45,0|0,2:0|2:0,0:0:0:0:
491,249,44202,2,0,L|391:249,1,90,6|0,2:0|2:0,0:0:0:0:
336,305,44510,2,0,P|281:294|256:251,1,90,2|0,2:0|2:0,0:0:0:0:
255,190,44819,1,2,2:0:0:0:
216,367,45024,5,4,2:0:0:0:
104,220,45230,1,0,2:0:0:0:
89,198,45332,2,0,L|80:97,1,90,0|0,2:0|2:0,0:0:0:0:
154,44,45640,2,0,B|187:76|250:66|250:66|243:30,1,135,4|0,2:0|2:0,0:0:0:0:
199,124,46051,2,0,L|211:176,1,45,2|0,2:0|2:0,0:0:0:0:
233,278,46257,2,0,L|251:183,1,90,8|8,2:0|2:0,0:0:0:0:
486,154,46668,5,12,2:0:0:0:
244,34,46976,1,0,2:0:0:0:
312,336,47284,1,0,2:0:0:0:
486,154,47490,1,8,2:0:0:0:
486,154,47901,1,12,2:0:0:0:
367,86,48106,6,0,P|344:157|373:225,1,135,0|0,2:0|2:0,0:0:0:0:
386,243,48517,1,0,2:0:0:0:
486,34,48723,1,8,2:0:0:0:
486,34,49134,2,0,P|440:41|394:12,1,90,8|2,2:0|2:0,0:0:0:0:
208,120,49545,1,8,2:0:0:0:
280,16,49750,1,0,2:0:0:0:
253,233,49956,5,4,2:0:0:0:
14,359,50264,1,0,2:0:0:0:
71,54,50572,1,0,2:0:0:0:
253,233,50777,1,8,2:0:0:0:
253,233,51188,2,0,P|282:166|254:98,1,135,8|0,2:0|2:0,0:0:0:0:
232,89,51599,5,0,0:0:0:0:
417,160,51805,1,0,2:0:0:0:
261,351,52010,1,8,2:0:0:0:
56,324,52216,1,2,2:0:0:0:
56,324,52319,1,0,0:0:0:0:
56,324,52421,2,0,P|72:276|105:244,1,90,8|2,2:0|2:0,0:0:0:0:
228,83,52832,2,0,P|236:124|220:176,1,90,8|0,2:0|2:0,0:0:0:0:
142,127,53243,5,12,2:0:0:0:
339,194,53449,1,2,2:0:0:0:
339,194,53551,2,0,P|355:241|345:286,1,90,2|0,2:0|2:0,0:0:0:0:
344,376,53860,2,0,B|378:275|378:275|438:272|461:192,1,225,8|0,2:0|0:0,0:0:0:0:
512,262,54476,2,0,B|490:199|490:199|483:94,1,135,8|0,2:0|2:0,0:0:0:0:
437,60,54887,5,4,2:0:0:0:
263,142,55093,1,2,2:0:0:0:
263,142,55195,2,0,P|220:168|157:151,1,90,2|0,2:0|2:0,0:0:0:0:
116,111,55504,2,0,P|96:200|181:166,1,225,10|0,2:0|2:0,0:0:0:0:
215,71,56120,2,0,B|268:61|268:61|317:81,1,90,8|2,2:0|2:0,0:0:0:0:
347,12,56428,1,2,2:0:0:0:
347,12,56531,6,0,B|309:65|309:65|357:100|343:196,1,180,6|8,2:0|2:0,0:0:0:0:
255,324,57147,1,0,2:0:0:0:
381,244,57353,1,0,2:0:0:0:
255,168,57558,1,2,2:0:0:0:
369,352,57764,2,0,P|421:321|402:258,1,135,8|0,2:0|2:0,0:0:0:0:
381,244,58175,6,0,L|442:153,1,90,2|0,2:0|2:0,0:0:0:0:
437,141,58483,2,0,L|376:232,1,90,2|0,2:0|2:0,0:0:0:0:
292,217,58791,2,0,L|315:285,1,45
139,145,58997,2,0,P|88:135|43:152,1,90,8|0,2:0|2:0,0:0:0:0:
25,229,59305,2,0,P|45:193|51:137,1,90,2|0,2:0|2:0,0:0:0:0:
23,79,59613,2,0,L|-1:41,1,45
164,263,59819,6,0,B|167:280|187:281|187:281|186:199|134:139,1,180,12|8,2:0|2:0,0:0:0:0:
138,144,60743,6,0,P|196:138|229:106,1,90,8|8,2:0|2:0,0:0:0:0:
278,51,61051,1,2,2:0:0:0:
295,91,61153,1,2,2:0:0:0:
315,132,61256,1,2,2:0:0:0:
334,173,61359,1,2,2:0:0:0:
348,216,61462,6,0,P|396:165|497:200,1,180,12|8,2:0|2:0,0:0:0:0:
296,352,62079,1,0,2:0:0:0:
428,244,62284,2,0,P|445:284|441:329,1,90,8|0,2:0|2:0,0:0:0:0:
190,266,62695,2,0,L|208:165,1,90,8|0,2:0|2:0,0:0:0:0:
409,119,63106,6,0,P|328:148|263:92,1,180,8|8,2:0|2:0,0:0:0:0:
343,66,63723,1,0,2:0:0:0:
105,81,63928,1,8,2:0:0:0:
199,259,64134,1,0,2:0:0:0:
288,246,64339,1,8,2:0:0:0:
92,168,64545,1,0,2:0:0:0:
307,170,64750,6,0,P|348:195|369:251,1,90,8|0,2:0|2:0,0:0:0:0:
149,216,65161,1,8,2:0:0:0:
243,69,65367,1,0,2:0:0:0:
288,246,65572,1,8,2:0:0:0:
151,356,65777,1,0,2:0:0:0:
307,170,65983,1,8,2:0:0:0:
367,303,66188,1,0,2:0:0:0:
375,109,66394,6,0,P|396:151|392:211,1,90,8|0,2:0|2:0,0:0:0:0:
316,360,66805,2,0,P|295:318|302:258,1,90,8|0,2:0|2:0,0:0:0:0:
317,63,67216,2,0,P|358:37|419:50,1,90,8|0,2:0|2:0,0:0:0:0:
375,109,67524,2,0,P|334:135|273:122,1,90,0|0,2:0|0:0,0:0:0:0:
260,115,67832,2,0,L|231:164,1,45
76,76,68038,6,0,P|134:64|173:76,1,90,12|0,2:0|2:0,0:0:0:0:
238,237,68449,2,0,L|260:346,1,90,8|0,2:0|2:0,0:0:0:0:
435,204,68860,2,0,P|402:218|347:203,1,90,8|0,2:0|2:0,0:0:0:0:
305,143,69168,2,0,P|347:129|390:142,1,90,0|0,2:0|2:0,0:0:0:0:
313,229,69476,2,0,L|253:236,1,45
162,83,69682,6,0,P|114:103|97:166,1,90,8|0,2:0|2:0,0:0:0:0:
168,156,69990,2,0,P|220:134|236:92,1,90,0|0,2:0|2:0,0:0:0:0:
256,32,70298,2,0,L|209:9,1,45
382,100,70504,2,0,L|402:200,1,90,8|0,2:0|2:0,0:0:0:0:
448,260,70812,1,0,2:0:0:0:
448,260,70914,2,0,L|428:360,1,90,8|0,0:0|0:0,0:0:0:0:
165,266,71325,6,0,L|250:298,1,90,12|0,2:0|2:0,0:0:0:0:
151,172,71736,1,8,2:0:0:0:
169,352,71942,2,0,P|92:313|122:191,1,225,4|0,2:0|2:0,0:0:0:0:
151,171,72558,1,8,2:0:0:0:
346,141,72764,2,0,P|368:166|377:189,1,45,0|0,2:0|0:0,0:0:0:0:
386,279,72969,6,0,B|356:315|356:315|321:379,1,90,12|0,2:0|2:0,0:0:0:0:
490,277,73380,1,8,2:0:0:0:
239,248,73586,2,0,B|182:251|182:251|128:273,1,90,4|8,2:0|2:0,0:0:0:0:
102,354,73894,1,0,0:0:0:0:
102,354,73997,2,0,L|67:308,1,45,0|0,2:0|2:0,0:0:0:0:
16,245,74202,2,0,L|0:287,1,45,8|0,2:0|2:0,0:0:0:0:
20,164,74408,1,2,2:0:0:0:
20,164,74613,6,0,P|87:130|76:18,1,180,8|8,2:0|2:0,0:0:0:0:
230,101,75230,1,0,2:0:0:0:
159,180,75435,2,0,L|195:299,1,90,10|0,2:0|2:0,0:0:0:0:
242,11,75846,2,0,L|230:101,1,90,8|0,2:0|2:0,0:0:0:0:
452,128,76257,6,0,P|396:93|310:167,1,180,8|8,2:0|2:0,0:0:0:0:
372,49,76873,1,0,2:0:0:0:
315,230,77079,1,8,2:0:0:0:
387,170,77284,1,0,2:0:0:0:
228,201,77490,1,8,2:0:0:0:
334,323,77695,1,0,2:0:0:0:
143,260,77901,6,0,P|124:209|142:152,1,90,12|0,2:0|2:0,0:0:0:0:
281,118,78312,1,8,2:0:0:0:
196,327,78517,2,0,B|154:310|154:310|99:327|45:312|45:312|57:302|72:297,1,180,2|8,2:0|2:0,0:0:0:0:
308,211,79134,2,0,P|347:248|358:299,1,90,8|0,2:0|2:0,0:0:0:0:
357,281,79545,6,0,P|406:284|445:261,1,90,12|0,2:0|2:0,0:0:0:0:
284,290,79853,2,0,P|305:333|345:356,1,90,0|0,2:0|2:0,0:0:0:0:
241,231,80161,2,0,P|213:271|215:291,1,45,0|0,2:0|2:0,0:0:0:0:
308,99,80367,2,0,P|259:85|210:96,1,90,12|0,2:0|2:0,0:0:0:0:
338,177,80675,2,0,P|382:136|388:83,1,90,0|0,2:0|2:0,0:0:0:0:
257,165,80983,2,0,L|244:232,1,45
71,205,81188,6,0,B|140:223|140:223|262:207,1,180,12|8,2:0|2:0,0:0:0:0:
105,107,81805,2,0,L|9:83,1,90,4|8,2:0|2:0,0:0:0:0:
13,271,82216,1,2,2:0:0:0:
238,306,82421,1,8,2:0:0:0:
211,301,82523,1,8,2:0:0:0:
184,297,82626,1,8,2:0:0:0:
157,293,82729,1,0,2:0:0:0:
131,289,82832,6,0,B|224:284|224:284|311:254,1,180,12|8,2:0|2:0,0:0:0:0:
193,199,83449,1,4,2:0:0:0:
387,326,83654,2,0,P|411:279|409:232,1,90,8|0,2:0|2:0,0:0:0:0:
367,76,84065,2,0,P|343:123|345:170,1,90,8|0,2:0|2:0,0:0:0:0:
471,23,84476,6,0,B|381:45|381:45|276:30,1,180,12|8,2:0|2:0,0:0:0:0:
148,109,85093,1,0,2:0:0:0:
200,288,85298,2,0,L|184:170,1,90,8|0,2:0|2:0,0:0:0:0:
150,348,85606,2,0,L|163:235,1,90,0|0,2:0|2:0,0:0:0:0:
79,375,85914,2,0,L|125:323,1,45,8|0,2:0|2:0,0:0:0:0:
34,144,86120,5,4,2:0:0:0:
148,109,86942,6,0,P|192:74|269:96,2,135,8|8|8,2:0|2:0|2:0,0:0:0:0:
320,37,87764,6,0,P|186:85|312:151,1,360,12|2,2:0|2:0,0:0:0:0:
