osu file format v14

[General]
AudioFilename: DEAREST DROP.mp3
AudioLeadIn: 0
PreviewTime: 61462
Countdown: 0
SampleSet: Soft
StackLeniency: 0.7
Mode: 0
LetterboxInBreaks: 0
WidescreenStoryboard: 0

[Editor]
DistanceSpacing: 1.3
BeatDivisor: 4
GridSize: 4
TimelineZoom: 1.100002

[Metadata]
Title:DEAREST DROP
TitleUnicode:DEAREST DROP
Artist:Azusa Tadokoro
ArtistUnicode:田所あずさ
Creator:Kyle Y
Version:Advanced
Source:終末なにしてますか?忙しいですか?救ってもらっていいですか?
Tags:Shuumatsu nani shitemasu ka? Isogashii desu ka? Sukutte moratte ii desu ka? What do you do at the end of the world? are you busy? will you save us? SukaSuka
BeatmapID:1354563
BeatmapSetID:638545

[Difficulty]
HPDrainRate:4
CircleSize:3
OverallDifficulty:4
ApproachRate:5
SliderMultiplier:1.3
SliderTickRate:1

[Events]
//Background and Video events
0,0,"Background.jpg",0,0
//Break Periods
//Storyboard Layer 0 (Background)
//Storyboard Layer 1 (Fail)
//Storyboard Layer 2 (Pass)
//Storyboard Layer 3 (Foreground)
//Storyboard Sound Samples

[TimingPoints]
641,410.958904109589,4,2,0,30,1,0
7216,-100,4,2,0,70,0,0
13791,-100,4,2,0,50,0,0
18723,-100,4,2,0,65,0,0
20367,-100,4,2,0,45,0,0
31873,-100,4,2,0,30,0,0
32182,-100,4,2,0,35,0,0
32490,-100,4,2,0,40,0,0
32695,-100,4,2,0,55,0,0
33517,-100,4,2,0,60,0,0
58175,-100,4,2,0,65,0,0
61462,-100,4,2,0,70,0,1
86120,-100,4,2,0,50,0,0
86942,-100,4,2,0,45,0,0
87764,-100,4,2,0,30,0,0
88586,-100,4,2,0,10,0,0

[Colours]
Combo1 : 250,61,89
Combo2 : 108,137,253
Combo3 : 124,62,253
Combo4 : 239,89,251

[HitObjects]
343,195,641,6,0,P|257:209|204:124,1,195,2|0,2:0|2:0,0:0:0:0:
288,131,1462,2,0,P|374:117|427:202,1,195,2|0,2:0|2:0,0:0:0:0:
497,245,2284,6,0,P|429:282|376:265,1,130,2|0,2:0|2:0,0:0:0:0:
227,339,3106,2,0,L|155:318,1,65,2|0,2:0|2:0,0:0:0:0:
95,272,3517,1,0,2:0:0:0:
39,336,3723,1,0,2:0:0:0:
39,336,3928,6,0,P|61:240|6:159,1,195,2|0,2:0|2:0,0:0:0:0:
61,95,4750,2,0,L|193:109,1,130,2|0,2:0|2:0,0:0:0:0:
358,126,5572,6,0,P|421:106|445:33,2,130,2|0|2,2:0|2:0|2:0,0:0:0:0:
291,259,7216,6,0,L|302:305,4,32.5,12|0|0|0|0,2:0|2:0|2:0|2:0|2:0,0:0:0:0:
227,203,7832,2,0,L|241:160,4,32.5,8|0|0|0|0,2:0|2:0|2:0|2:0|2:0,0:0:0:0:
176,271,8449,2,0,P|140:270|95:255,1,65,8|0,2:0|2:0,0:0:0:0:
48,207,8860,6,0,L|-6:234,4,32.5,8|0|0|0|0,2:0|2:0|2:0|0:0|2:0,0:0:0:0:
56,122,9476,2,0,L|24:114,4,32.5,8|0|0|0|0,2:0|2:0|2:0|2:0|2:0,0:0:0:0:
120,64,10093,2,0,P|155:52|201:50,1,65,8|0,2:0|2:0,0:0:0:0:
247,103,10504,6,0,L|270:144,4,32.5,12|0|0|0|0,2:0|2:0|2:0|2:0|2:0,0:0:0:0:
307,43,11120,2,0,L|319:10,4,32.5,8|0|0|0|0,2:0|2:0|2:0|2:0|2:0,0:0:0:0:
373,95,11736,2,0,P|411:111|430:136,1,65,8|0,2:0|2:0,0:0:0:0:
473,198,12147,6,0,L|508:187,4,32.5,8|0|0|0|0,2:0|2:0|2:0|2:0|2:0,0:0:0:0:
394,231,12764,2,0,L|356:218,4,32.5,8|0|0|0|0,2:0|2:0|2:0|2:0|2:0,0:0:0:0:
452,291,13380,2,0,L|383:309,1,65
333,342,13791,6,0,P|270:320|201:345,1,130,6|8,2:0|2:0,0:0:0:0:
131,367,14408,1,0,2:0:0:0:
131,367,14613,2,0,P|162:312|144:237,1,130,2|8,2:0|2:0,0:0:0:0:
95,184,15230,1,0,2:0:0:0:
151,121,15435,6,0,L|220:98,1,65,2|0,2:0|2:0,0:0:0:0:
284,55,15846,2,0,L|355:76,1,65,10|0,2:0|2:0,0:0:0:0:
382,150,16257,2,0,P|418:120|425:48,2,97.5,2|2|2,2:0|2:0|2:0,0:0:0:0:
314,200,17079,6,0,P|292:259|338:324,1,130,2|8,2:0|2:0,0:0:0:0:
391,363,17695,1,0,2:0:0:0:
391,363,17901,2,0,L|241:371,1,130,0|8,2:0|2:0,0:0:0:0:
184,333,18517,1,2,2:0:0:0:
134,263,18723,6,0,P|101:300|106:364,2,97.5,4|4|4,2:0|2:0|2:0,0:0:0:0:
201,211,19545,2,0,P|221:153|188:83,1,130,4|0,2:0|0:0,0:0:0:0:
142,26,20161,1,0,2:0:0:0:
224,5,20367,6,0,L|357:27,1,130,2|2,2:0|2:0,0:0:0:0:
407,90,20983,2,0,L|488:73,2,65,0|2|0,2:0|2:0|2:0,0:0:0:0:
357,158,21599,1,2,2:0:0:0:
390,235,21805,1,0,2:0:0:0:
390,235,22010,6,0,L|266:273,1,130,2|2,2:0|2:0,0:0:0:0:
191,314,22627,2,0,P|214:343|250:356,2,65,0|2|0,2:0|2:0|2:0,0:0:0:0:
106,304,23243,2,0,P|115:267|153:239,1,65,2|0,2:0|2:0,0:0:0:0:
100,170,23654,6,0,B|69:162|69:162|30:167|30:167|3:157,2,97.5,2|0|0,2:0|2:0|2:0,0:0:0:0:
174,130,24476,2,0,B|198:139|198:139|237:134|237:134|268:142,2,97.5,2|0|0,2:0|2:0|2:0,0:0:0:0:
123,61,25298,6,0,B|92:53|92:53|53:58|53:58|26:48,2,97.5,2|0|0,2:0|2:0|2:0,0:0:0:0:
203,35,26120,2,0,L|335:22,1,130,2|2,2:0|2:0,0:0:0:0:
378,93,26736,1,0,2:0:0:0:
427,161,26942,6,0,B|455:125|455:125|458:71,2,97.5,2|0|0,2:0|2:0|2:0,0:0:0:0:
404,242,27764,2,0,B|432:285|432:285|474:302,2,97.5,2|0|0,2:0|2:0|2:0,0:0:0:0:
346,179,28586,6,0,B|294:176|294:176|258:148,2,97.5,2|0|0,2:0|2:0|2:0,0:0:0:0:
322,260,29408,2,0,L|179:250,1,130,2|2,2:0|2:0,0:0:0:0:
112,278,30024,1,0,2:0:0:0:
28,262,30230,6,0,P|35:314|76:356,2,97.5,2|0|0,2:0|2:0|2:0,0:0:0:0:
43,179,31051,2,0,P|36:127|-5:85,2,97.5,2|0|0,2:0|2:0|2:0,0:0:0:0:
127,171,31873,6,0,P|165:141|212:136,2,97.5,2|2|2,2:0|2:0|2:0,0:0:0:0:
197,217,32695,2,0,L|270:228,1,65,8|8,2:0|2:0,0:0:0:0:
334,268,33106,2,0,L|349:300,3,32.5,8|8|8|0,2:0|2:0|2:0|2:0,0:0:0:0:
377,327,33517,6,0,L|415:180,1,130,6|8,2:0|2:0,0:0:0:0:
446,124,34134,2,0,P|476:147|490:175,2,65,0|0|2,2:0|2:0|2:0,0:0:0:0:
362,107,34750,1,8,2:0:0:0:
329,28,34956,1,0,2:0:0:0:
329,28,35161,6,0,P|266:50|200:29,1,130,2|8,2:0|2:0,0:0:0:0:
134,77,35777,2,0,P|93:70|57:77,2,65,0|0|2,2:0|2:0|2:0,0:0:0:0:
186,143,36394,1,8,2:0:0:0:
133,209,36599,1,0,2:0:0:0:
133,209,36805,6,0,L|21:231,2,97.5,2|0|0,2:0|2:0|2:0,0:0:0:0:
200,260,37627,2,0,L|302:271,2,97.5,8|0|0,2:0|2:0|2:0,0:0:0:0:
153,330,38449,6,0,B|83:301|83:301|58:307,2,97.5,8|0|0,2:0|2:0|2:0,0:0:0:0:
230,365,39271,2,0,B|299:353|299:353|369:367,1,130,10|10,2:0|2:0,0:0:0:0:
425,314,39887,1,0,2:0:0:0:
425,314,40093,6,0,P|401:250|417:183,1,130,4|8,2:0|2:0,0:0:0:0:
344,142,40709,1,4,2:0:0:0:
344,142,40914,2,0,P|311:82|258:57,1,130,2|8,2:0|2:0,0:0:0:0:
173,45,41531,1,2,2:0:0:0:
118,109,41736,5,4,2:0:0:0:
118,109,41942,2,0,L|100:188,1,65,0|8,2:0|2:0,0:0:0:0:
170,224,42353,1,4,2:0:0:0:
170,224,42558,2,0,P|207:197|245:138,2,97.5,2|0|0,2:0|2:0|2:0,0:0:0:0:
198,304,43380,6,0,P|153:333|93:328,2,97.5,6|2|2,3:0|3:0|3:0,3:0:0:0:
276,271,44202,2,0,P|279:324|245:374,2,97.5,6|2|2,2:0|2:0|2:0,0:0:0:0:
235,196,45024,6,0,P|231:154|271:89,1,97.5,4|0,2:0|2:0,0:0:0:0:
369,53,45640,2,0,L|402:135,1,65,4|0,2:0|0:0,0:0:0:0:
459,166,46051,1,2,2:0:0:0:
390,216,46257,2,0,L|371:298,1,65,8|8,2:0|2:0,0:0:0:0:
291,264,46668,6,0,P|296:311|334:356,2,97.5,12|0|0,2:0|2:0|2:0,0:0:0:0:
224,211,47490,1,8,2:0:0:0:
76,293,47901,6,0,P|119:312|177:301,2,97.5,12|0|0,2:0|2:0|2:0,0:0:0:0:
35,218,48723,1,8,2:0:0:0:
107,65,49134,2,0,L|187:84,1,65,8|2,2:0|2:0,0:0:0:0:
231,138,49545,1,8,2:0:0:0:
288,76,49750,1,0,2:0:0:0:
357,124,49956,6,0,L|477:93,2,97.5,4|0|0,2:0|2:0|2:0,0:0:0:0:
330,204,50777,1,8,2:0:0:0:
191,300,51188,6,0,L|90:323,2,97.5,8|0|0,2:0|2:0|2:0,0:0:0:0:
182,215,52010,1,8,2:0:0:0:
40,123,52421,2,0,L|115:93,1,65,8|2,2:0|2:0,0:0:0:0:
185,88,52832,1,0,0:0:0:0:
254,137,53038,1,0,2:0:0:0:
282,217,53243,6,0,P|323:187|339:131,2,97.5
244,295,54065,1,0,0:0:0:0:
304,354,54271,2,0,P|267:376|227:375,2,65,0|8|0,2:0|2:0|2:0,0:0:0:0:
375,307,54887,6,0,P|412:337|485:353,2,97.5
416,233,55709,1,0,0:0:0:0:
408,149,55914,2,0,L|347:99,1,65,0|8,2:0|2:0,0:0:0:0:
275,93,56325,1,2,2:0:0:0:
202,49,56531,6,0,P|147:36|76:93,1,130,6|8,2:0|2:0,0:0:0:0:
54,150,57147,2,0,P|22:132|8:100,2,65,0|0|2,2:0|2:0|2:0,0:0:0:0:
107,216,57764,1,8,2:0:0:0:
264,278,58175,6,0,L|145:298,2,97.5,2|2|2,2:0|2:0|2:0,0:0:0:0:
348,280,58997,2,0,P|326:336|281:356,2,97.5,8|2|2,2:0|2:0|2:0,0:0:0:0:
311,203,59819,5,12,2:0:0:0:
469,147,60230,2,0,B|404:132|404:132|344:146|344:146|276:125|276:125|243:125|218:151,1,260,2|2,2:0|2:0,0:0:0:0:
106,271,61462,6,0,P|54:215|78:149,1,130,12|8,2:0|2:0,0:0:0:0:
115,100,62079,1,0,2:0:0:0:
59,36,62284,2,0,P|133:17|193:67,1,130,8|8,2:0|2:0,0:0:0:0:
248,86,62901,1,0,2:0:0:0:
312,31,63106,6,0,P|298:100|313:165,1,130,8|8,2:0|2:0,0:0:0:0:
252,220,63723,1,0,2:0:0:0:
252,220,63928,2,0,L|182:256,1,65,8|0,2:0|2:0,0:0:0:0:
120,291,64339,1,8,2:0:0:0:
50,242,64545,1,0,2:0:0:0:
50,242,64750,6,0,B|75:158|75:158|44:140|26:94|45:50,1,195,8|0,2:0|2:0,0:0:0:0:
121,88,65572,2,0,B|181:93|181:93|218:76|254:68,1,130,8|8,2:0|2:0,0:0:0:0:
319,113,66188,1,0,2:0:0:0:
376,51,66394,6,0,P|403:104|376:175,1,130,8|8,2:0|2:0,0:0:0:0:
328,233,67010,1,0,2:0:0:0:
328,233,67216,2,0,P|373:254|432:236,2,97.5,8|0|0,2:0|2:0|2:0,0:0:0:0:
279,302,68038,6,0,P|220:282|152:300,1,130,12|8,2:0|2:0,0:0:0:0:
80,335,68654,1,0,2:0:0:0:
40,259,68860,2,0,P|1:300|0:359,2,97.5,8|0|0,2:0|2:0|2:0,0:0:0:0:
57,176,69682,6,0,P|75:135|60:70,2,97.5,8|0|0,2:0|2:0|2:0,0:0:0:0:
123,228,70504,2,0,B|179:212|179:212|259:214,1,130,8|8,2:0|0:0,0:0:0:0:
317,265,71120,1,0,0:0:0:0:
390,223,71325,6,0,L|407:148,1,65,12|0,2:0|2:0,0:0:0:0:
362,86,71736,1,8,2:0:0:0:
282,115,71942,2,0,P|233:125|149:83,1,130,4|0,2:0|2:0,0:0:0:0:
92,46,72558,1,8,2:0:0:0:
43,115,72764,1,0,2:0:0:0:
43,115,72969,6,0,L|71:250,1,130,12|8,2:0|2:0,0:0:0:0:
142,285,73586,2,0,P|150:256|148:218,1,65,4|8,2:0|2:0,0:0:0:0:
194,150,73997,1,0,2:0:0:0:
260,201,74202,2,0,P|308:211|335:200,1,65,8|2,2:0|2:0,0:0:0:0:
362,281,74613,6,0,P|402:240|391:159,1,130,8|8,2:0|2:0,0:0:0:0:
453,105,75230,1,0,2:0:0:0:
453,105,75435,2,0,L|313:105,1,130,10|8,2:0|2:0,0:0:0:0:
250,61,76051,1,0,2:0:0:0:
184,7,76257,6,0,P|161:54|208:135,1,130,8|8,2:0|2:0,0:0:0:0:
131,186,76873,1,0,2:0:0:0:
131,186,77079,2,0,L|161:264,1,65,8|0,2:0|2:0,0:0:0:0:
226,290,77490,1,8,2:0:0:0:
292,238,77695,1,0,2:0:0:0:
359,289,77901,6,0,P|378:236|329:162,1,130,12|8,2:0|2:0,0:0:0:0:
403,110,78517,2,0,B|336:125|336:125|265:116,1,130,2|8,2:0|2:0,0:0:0:0:
190,120,79134,2,0,L|120:145,1,65,8|0,2:0|2:0,0:0:0:0:
67,198,79545,6,0,P|45:152|66:88,2,97.5,12|0|0,2:0|2:0|2:0,0:0:0:0:
117,265,80367,2,0,P|73:282|16:265,2,97.5,12|0|0,2:0|2:0|2:0,0:0:0:0:
181,319,81188,6,0,P|244:299|307:313,1,130,12|8,2:0|2:0,0:0:0:0:
383,345,81805,2,0,P|427:353|462:340,1,65,4|8,2:0|2:0,0:0:0:0:
499,282,82216,1,2,2:0:0:0:
449,213,82421,2,0,L|427:132,1,65,8|8,2:0|2:0,0:0:0:0:
490,89,82832,6,0,P|428:65|363:100,1,130,12|8,2:0|2:0,0:0:0:0:
299,132,83449,1,4,2:0:0:0:
299,132,83654,2,0,P|236:149|164:121,1,130,8|8,2:0|2:0,0:0:0:0:
112,73,84271,1,0,2:0:0:0:
112,73,84476,6,0,P|155:153|85:225,1,195,12|0,2:0|2:0,0:0:0:0:
99,307,85298,2,0,P|48:324|5:359,2,97.5,8|0|8,2:0|2:0|2:0,0:0:0:0:
178,335,86120,5,4,2:0:0:0:
315,205,86942,2,0,L|325:310,2,97.5,8|8|8,2:0|2:0|2:0,0:0:0:0:
384,155,87764,6,0,B|342:178|342:178|293:152|293:152|246:178|246:178|196:154|196:154|153:175,1,260,12|2,2:0|2:0,0:0:0:0:
