osu file format v14

[General]
AudioFilename: audio.mp3
AudioLeadIn: 0
PreviewTime: 28547
Countdown: 0
SampleSet: Soft
StackLeniency: 0.2
Mode: 0
LetterboxInBreaks: 0
WidescreenStoryboard: 0

[Editor]
Bookmarks: 14587,60135
DistanceSpacing: 0.8
BeatDivisor: 4
GridSize: 8
TimelineZoom: 2.2

[Metadata]
Title:1HOPE SNIPER
TitleUnicode:1HOPE SNIPER
Artist:Azusa Tadokoro
ArtistUnicode:Azusa Tadokoro
Creator:FoxyGrandpa
Version:i hate the ranked version
Source:
Tags:
BeatmapID:1856053
BeatmapSetID:887923

[Difficulty]
HPDrainRate:5
CircleSize:4.2
OverallDifficulty:9.5
ApproachRate:10
SliderMultiplier:1.9
SliderTickRate:1

[Events]
//Background and Video events
0,0,"70150501_p0.jpg",0,0
//Break Periods
2,773,1626
2,2523,3379
2,4275,5159
2,48017,58809
//Storyboard Layer 0 (Background)
//Storyboard Layer 1 (Fail)
//Storyboard Layer 2 (Pass)
//Storyboard Layer 3 (Foreground)
//Storyboard Sound Samples

[TimingPoints]
573,218.978102189781,4,2,1,70,1,0
5828,-133.333333333333,4,2,1,70,0,0
5992,-133.333333333333,4,2,1,5,0,0
6047,-133.333333333333,4,2,1,70,0,0
6156,-80,4,2,1,70,0,0
6321,-80,4,2,1,5,0,0
6375,-80,4,2,1,70,0,0
6485,-57.1428571428571,4,2,1,70,0,0
6649,-57.1428571428571,4,2,1,5,0,0
6704,-200,4,2,1,70,0,0
6868,-200,4,2,1,5,0,0
6923,-200,4,2,1,70,0,0
7580,-100,4,2,1,70,0,0
12835,-66.6666666666667,4,2,1,70,0,0
14587,-100,4,2,1,70,0,0
26850,-80,4,2,1,70,0,0
27014,-66.6666666666667,4,2,1,5,0,0
27069,-66.6666666666667,4,2,1,70,0,0
28602,-66.6666666666667,4,2,1,70,0,1
38237,-100,4,2,1,70,0,0
38401,-100,4,2,1,5,0,0
38456,-66.6666666666667,4,2,1,70,0,0
38620,-66.6666666666667,4,2,1,5,0,0
38675,-50,4,2,1,70,0,0
38839,-50,4,2,1,5,0,0
38894,-66.6666666666667,4,2,1,70,0,1
41950,222.634508348794,4,2,1,70,1,0
42617,218.978102189781,4,2,1,70,1,0
42617,-66.6666666666667,4,2,1,70,0,1
43930,-50,4,2,1,70,0,0
45682,-200,4,2,1,70,0,0
46120,-100,4,2,1,70,0,0
59259,-200,4,2,1,70,0,0
60135,-66.6666666666667,4,2,1,70,0,1
74149,-66.6666666666667,4,2,1,70,0,0
131522,218.978102189781,4,2,1,70,1,0
145317,218.978102189781,4,2,1,70,1,0
149039,218.978102189781,4,2,1,70,1,0

[Colours]
Combo1 : 128,128,192
Combo2 : 128,255,255
Combo3 : 17,254,176
Combo4 : 255,128,128
Combo5 : 255,255,128

[HitObjects]
41,261,355,5,0,0:0:0:0:
376,128,573,1,0,0:0:0:0:
376,256,2105,5,0,0:0:0:0:
41,123,2323,1,0,0:0:0:0:
446,182,3857,5,0,0:0:0:0:
111,315,4075,1,0,0:0:0:0:
312,323,5609,5,0,0:0:0:0:
312,313,5718,1,0,0:0:0:0:
333,145,5828,6,0,P|274:124|208:142,1,106.875004076958
188,136,6047,1,0,0:0:0:0:
353,138,6156,6,0,P|272:166|183:132,1,178.125
146,143,6375,1,0,0:0:0:0:
376,134,6485,6,0,P|277:98|129:159,1,249.375002378225
120,153,6704,6,0,P|122:165|137:140,1,71.25
95,85,6923,5,0,0:0:0:0:
169,272,7032,1,0,0:0:0:0:
188,136,7142,5,0,0:0:0:0:
114,323,7251,1,0,0:0:0:0:
97,191,7361,5,0,0:0:0:0:
186,346,7470,1,0,0:0:0:0:
276,192,7580,6,0,P|340:196|375:127,1,142.5
385,59,7799,2,0,P|373:117|406:205,1,142.5
469,238,8017,6,0,P|482:192|472:146,1,95
276,192,8237,1,0,0:0:0:0:
485,143,8346,2,0,P|494:189|481:234,1,95
262,194,8565,1,0,0:0:0:0:
497,233,8675,2,0,P|510:187|500:141,1,95
248,196,8894,6,0,B|266:267|266:267|341:246,1,142.5
385,59,9113,2,0,B|367:-12|367:-12|292:9,1,142.5
241,103,9332,6,0,B|183:95|148:149|148:149|150:182,1,142.5
49,186,9551,2,0,B|107:178|142:232|142:232|140:265,1,142.5
54,338,9770,6,0,B|91:343|91:343|168:339,1,95
302,341,9989,1,0,0:0:0:0:
35,338,10098,2,0,B|72:333|72:333|129:335,1,95
320,343,10317,1,0,0:0:0:0:
16,338,10427,2,0,B|53:343|53:343|110:340,1,95
336,343,10645,6,0,B|277:306|277:306|265:231,1,142.5
409,149,10864,2,0,B|406:218|406:218|347:266,1,142.5
356,45,11083,6,0,B|321:83|315:129|315:129|333:176,1,142.5
265,234,11302,2,0,B|230:196|224:150|224:150|240:105,1,142.5
332,174,11521,6,0,P|289:192|243:184,1,95
121,73,11740,1,0,0:0:0:0:
317,202,11850,2,0,P|273:209|227:188,1,95
133,54,12069,1,0,0:0:0:0:
292,223,12178,2,0,P|248:218|209:186,1,95
152,38,12397,6,0,P|159:103|105:163,1,142.5
19,208,12616,2,0,P|72:255|142:262,1,142.5
210,187,12835,6,0,P|255:291|141:257,1,285.000010871888
359,198,13164,6,0,P|371:267|351:335,1,142.500005435944
210,187,13383,1,0,0:0:0:0:
367,56,13492,6,0,P|424:117|464:313,1,285.000010871888
351,334,13821,1,0,0:0:0:0:
359,198,13930,1,0,0:0:0:0:
376,356,14040,1,0,0:0:0:0:
196,327,14149,5,0,0:0:0:0:
359,198,14259,1,0,0:0:0:0:
210,187,14368,1,0,0:0:0:0:
210,187,14587,6,0,B|149:158|149:158|281:145,1,190
447,98,15025,5,0,0:0:0:0:
452,114,15244,1,0,0:0:0:0:
446,330,15463,5,0,0:0:0:0:
414,329,15681,1,0,0:0:0:0:
440,261,15791,2,0,P|383:330|354:332,1,95
364,253,16010,5,0,0:0:0:0:
351,329,16119,1,0,0:0:0:0:
289,220,16229,1,0,0:0:0:0:
226,329,16339,5,0,0:0:0:0:
414,120,16558,1,0,0:0:0:0:
65,98,16777,5,0,0:0:0:0:
60,114,16996,1,0,0:0:0:0:
66,330,17215,5,0,0:0:0:0:
98,329,17433,1,0,0:0:0:0:
72,261,17543,2,0,P|129:330|158:332,1,95
148,253,17762,5,0,0:0:0:0:
161,329,17871,1,0,0:0:0:0:
223,220,17981,1,0,0:0:0:0:
286,329,18091,5,0,0:0:0:0:
98,120,18310,1,0,0:0:0:0:
405,233,18529,5,0,0:0:0:0:
412,215,18748,1,0,0:0:0:0:
193,45,18967,5,0,0:0:0:0:
268,48,19186,1,0,0:0:0:0:
315,129,19295,2,0,P|342:80|333:41,1,95
221,125,19514,5,0,0:0:0:0:
315,129,19624,1,0,0:0:0:0:
208,202,19733,1,0,0:0:0:0:
294,272,19843,6,0,P|229:315|139:247,1,190
208,202,20171,2,0,P|237:263|215:384,1,190
70,317,20500,2,0,P|56:271|58:224,1,95
196,109,20718,5,0,0:0:0:0:
196,109,20828,2,0,P|209:154|207:201,1,95
99,85,21047,1,0,0:0:0:0:
290,44,21156,5,0,0:0:0:0:
118,166,21266,1,0,0:0:0:0:
306,120,21375,1,0,0:0:0:0:
99,85,21485,1,0,0:0:0:0:
325,219,21594,5,0,0:0:0:0:
109,0,21813,1,0,0:0:0:0:
214,325,22032,5,0,0:0:0:0:
236,340,22251,1,0,0:0:0:0:
290,44,22470,5,0,0:0:0:0:
394,159,22689,1,0,0:0:0:0:
306,120,22799,1,0,0:0:0:0:
306,120,23018,5,0,0:0:0:0:
394,159,23128,1,0,0:0:0:0:
290,44,23237,1,0,0:0:0:0:
242,191,23346,5,0,0:0:0:0:
483,12,23565,1,0,0:0:0:0:
366,310,23784,5,0,0:0:0:0:
380,292,24003,1,0,0:0:0:0:
194,338,24222,5,0,0:0:0:0:
90,223,24441,1,0,0:0:0:0:
178,262,24550,1,0,0:0:0:0:
178,262,24770,5,0,0:0:0:0:
90,223,24880,1,0,0:0:0:0:
194,338,24989,1,0,0:0:0:0:
242,191,25098,5,0,0:0:0:0:
0,384,25317,1,0,0:0:0:0:
72,92,25536,5,0,0:0:0:0:
91,96,25755,1,0,0:0:0:0:
396,58,25974,5,0,0:0:0:0:
215,220,26193,5,0,0:0:0:0:
195,91,26302,1,0,0:0:0:0:
289,209,26412,1,0,0:0:0:0:
168,161,26521,1,0,0:0:0:0:
263,88,26631,2,0,P|306:170|280:216,1,142.5
113,214,26850,6,0,P|61:229|107:169,1,178.125
168,161,27069,1,0,0:0:0:0:
153,247,27178,6,0,P|26:237|60:110,1,285.000010871888
392,154,27507,5,0,0:0:0:0:
157,259,27726,1,0,0:0:0:0:
157,259,28602,6,0,P|213:208|125:103,1,213.750008153916
13,117,28821,2,0,L|144:183,1,142.500005435944
138,336,29040,6,0,P|82:285|170:180,1,213.750008153916
284,194,29259,2,0,L|153:260,1,142.500005435944
271,93,29478,6,0,P|339:107|392:154,1,142.500005435944
446,331,29697,1,0,0:0:0:0:
209,97,29806,2,0,P|345:91|420:205,1,285.000010871888
278,336,30135,2,0,L|285:158,1,142.500005435944
266,115,30354,6,0,P|210:166|298:271,1,213.750008153916
410,257,30573,2,0,L|279:191,1,142.500005435944
285,38,30792,6,0,P|341:89|253:194,1,213.750008153916
139,180,31011,2,0,L|270:114,1,142.500005435944
7,177,31229,5,0,0:0:0:0:
168,255,31339,1,0,0:0:0:0:
155,76,31448,1,0,0:0:0:0:
98,337,31558,2,0,P|180:344|281:187,1,285.000010871888
32,265,31886,2,0,P|74:208|139:180,1,142.500005435944
371,30,32105,6,0,P|307:58|265:115,1,142.500005435944
378,239,32324,2,0,P|442:211|484:154,1,142.500005435944
359,15,32543,6,0,P|295:43|253:100,1,142.500005435944
37,163,32762,2,0,P|102:137|172:148,1,142.500005435944
388,84,32981,6,0,P|322:110|252:99,1,142.500005435944
65,233,33200,2,0,P|130:204|172:147,1,142.500005435944
262,210,33419,5,0,0:0:0:0:
152,27,33529,1,0,0:0:0:0:
353,209,33638,2,0,P|296:291|241:301,1,142.500005435944
187,313,33857,6,0,P|244:231|308:358,1,285.000010871888
101,249,34186,1,0,0:0:0:0:
199,89,34295,2,0,P|247:142|261:211,1,142.500005435944
68,329,34514,2,0,P|20:276|6:207,1,142.500005435944
121,99,34733,5,0,0:0:0:0:
101,249,34843,1,0,0:0:0:0:
17,71,34952,5,0,0:0:0:0:
199,89,35062,1,0,0:0:0:0:
5,208,35171,5,0,0:0:0:0:
152,27,35281,1,0,0:0:0:0:
262,210,35390,5,0,0:0:0:0:
262,210,35609,6,0,P|344:231|294:107,1,285.000010871888
121,99,35937,1,0,0:0:0:0:
184,248,36047,2,0,P|270:308|325:310,1,142.500005435944
190,161,36266,6,0,P|105:188|53:306,1,213.750008153916
52,294,36485,2,0,P|71:206|-5:102,1,213.750008153916
5,107,36704,2,0,P|54:159|122:178,1,142.500005435944
303,104,36923,5,0,0:0:0:0:
121,99,37032,1,0,0:0:0:0:
300,118,37142,1,0,0:0:0:0:
122,83,37251,1,0,0:0:0:0:
329,201,37361,6,0,P|388:84|281:10,1,285.000010871888
308,279,37689,1,0,0:0:0:0:
389,23,37799,2,0,P|429:79|421:149,1,142.500005435944
266,355,38018,2,0,P|225:298|233:228,1,142.500005435944
299,118,38237,6,0,P|243:122|282:167,1,142.5
249,95,38456,6,0,P|193:158|282:165,1,213.750008153916
180,126,38675,6,0,P|187:239|279:161,1,285
267,355,38894,6,0,P|362:267|281:166,1,285.000010871888
70,272,39222,1,0,0:0:0:0:
70,272,39332,2,0,P|143:288|190:336,1,142.500005435944
427,216,39551,2,0,P|353:232|306:280,1,142.500005435944
70,160,39770,2,0,P|143:176|190:224,1,142.500005435944
453,95,39989,6,0,P|356:103|448:206,1,285.000010871888
497,345,40317,1,0,0:0:0:0:
497,345,40427,2,0,P|522:279|512:209,1,142.500005435944
292,142,40645,2,0,P|281:211|307:277,1,142.500005435944
453,95,40864,5,0,0:0:0:0:
426,215,40974,1,0,0:0:0:0:
351,61,41083,2,0,P|431:14|497:28,1,142.500005435944
292,142,41302,5,0,0:0:0:0:
201,8,41412,1,0,0:0:0:0:
181,235,41521,2,0,P|261:282|327:268,1,142.500005435944
186,140,41740,6,0,P|75:174|47:264,1,213.750008153916
66,307,41950,5,0,0:0:0:0:
96,252,42024,1,0,0:0:0:0:
104,189,42098,1,0,0:0:0:0:
86,129,42172,5,0,0:0:0:0:
74,140,42246,1,0,0:0:0:0:
73,165,42321,1,0,0:0:0:0:
83,173,42395,5,0,0:0:0:0:
89,174,42469,1,0,0:0:0:0:
96,171,42543,1,0,0:0:0:0:
86,129,42617,5,0,0:0:0:0:
261,310,42726,2,0,P|269:240|242:175,1,142.500005435944
66,307,42945,5,0,0:0:0:0:
279,175,43054,2,0,P|287:244|260:309,1,142.500005435944
87,119,43273,5,0,0:0:0:0:
297,309,43383,2,0,P|305:239|278:174,1,142.500005435944
64,316,43602,5,0,0:0:0:0:
316,174,43711,1,0,0:0:0:0:
297,309,43820,1,0,0:0:0:0:
150,67,43930,6,0,P|57:165|143:267,1,285
137,365,44149,2,0,P|229:266|144:165,1,285
135,265,44368,5,0,0:0:0:0:
135,265,45463,5,0,0:0:0:0:
135,265,45682,2,0,P|169:227|96:236,1,166.25
95,223,46120,6,0,P|159:233|209:169,1,142.5
228,111,46339,2,0,P|272:67|342:128,1,142.5
368,171,46558,2,0,P|415:111|398:51,1,142.5
336,98,46777,5,0,0:0:0:0:
288,162,46887,2,0,P|283:220|323:299,1,142.5
394,293,47106,5,0,0:0:0:0:
360,360,47215,2,0,P|267:364|224:328,1,142.5
194,276,47434,2,0,P|101:272|58:308,1,142.5
118,350,47653,2,0,P|138:272|103:204,1,142.5
190,92,59259,6,0,P|217:92|191:71,1,71.25
151,7,59478,5,0,0:0:0:0:
328,81,59587,1,0,0:0:0:0:
121,163,59697,1,0,0:0:0:0:
337,239,59806,1,0,0:0:0:0:
82,306,59916,1,0,0:0:0:0:
368,372,60025,1,0,0:0:0:0:
40,171,60135,6,0,B|60:69|60:69|150:6,1,213.750008153916
230,223,60354,2,0,P|161:218|120:162,1,142.500005435944
357,136,60573,6,0,B|336:237|336:237|246:300,1,213.750008153916
167,84,60792,2,0,P|235:88|276:144,1,142.500005435944
156,332,61011,6,0,B|169:264|169:264|229:222,1,142.500005435944
368,372,61230,1,0,0:0:0:0:
77,354,61339,2,0,B|105:212|105:212|230:124,1,285.000010871888
368,372,61668,2,0,L|237:295,1,142.500005435944
477,207,61887,6,0,B|457:309|457:309|367:372,1,213.750008153916
287,155,62106,2,0,P|356:160|397:216,1,142.500005435944
160,242,62325,6,0,B|181:141|181:141|271:78,1,213.750008153916
350,294,62544,2,0,P|282:290|241:234,1,142.500005435944
347,55,62762,5,0,0:0:0:0:
102,77,62872,1,0,0:0:0:0:
287,155,62981,1,0,0:0:0:0:
117,5,63091,2,0,B|201:47|199:113|199:113|137:168|166:275,1,285.000010871888
36,372,63419,2,0,P|84:321|153:314,1,142.500005435944
353,298,63638,6,0,P|305:349|236:356,1,142.500005435944
287,155,63857,2,0,P|335:104|404:97,1,142.500005435944
489,269,64076,6,0,P|420:252|380:196,1,142.500005435944
158,180,64295,2,0,P|226:191|286:154,1,142.500005435944
508,170,64514,6,0,P|439:159|380:196,1,142.500005435944
177,82,64733,2,0,P|245:97|286:154,1,142.500005435944
