osu file format v14

[General]
AudioFilename: audio.mp3
AudioLeadIn: 0
PreviewTime: 54655
Countdown: 0
SampleSet: Soft
StackLeniency: 0.4
Mode: 2
LetterboxInBreaks: 0
WidescreenStoryboard: 1

[Editor]
Bookmarks: 661,11045,20276,29507,38737,45497,54727,73189,89343
DistanceSpacing: 1.2
BeatDivisor: 4
GridSize: 8
TimelineZoom: 3.299999

[Metadata]
Title:keep weaving your spider way (TV Size)
TitleUnicode:keep weaving your spider way (TV Size)
Artist:Azuna Riko
ArtistUnicode:安月名莉子
Creator:Secre
Version:Nightmare
Source:蜘蛛ですが、なにか?
Tags:chickenbible -rustyy -joakh So I'm a Spider, So What? Kumo Desu ga, Nani ka? kumodesu anime op opening theme japanese rock jrock j-rock
BeatmapID:3417222
BeatmapSetID:1672890

[Difficulty]
HPDrainRate:5
CircleSize:4.1
OverallDifficulty:9.4
ApproachRate:9.4
SliderMultiplier:1.89
SliderTickRate:2

[Events]
//Background and Video events
0,0,"ayame as a spider.jpg",0,0
//Break Periods
//Storyboard Layer 0 (Background)
//Storyboard Layer 1 (Fail)
//Storyboard Layer 2 (Pass)
//Storyboard Layer 3 (Foreground)
//Storyboard Layer 4 (Overlay)
//Storyboard Sound Samples

[TimingPoints]
645,288.461538461538,4,2,1,55,1,0
645,-100,4,2,1,55,0,0
5260,-100,4,2,1,60,0,0
7568,-100,4,2,1,65,0,0
9875,-100,4,2,1,40,0,0
10596,-100,4,2,1,45,0,0
10741,-100,4,2,1,50,0,0
10885,-100,4,2,1,60,0,0
11029,-100,4,2,1,70,0,0
11606,-100,4,2,1,70,0,0
12760,-100,4,2,1,70,0,0
15644,-100,4,2,1,70,0,0
16221,-100,4,2,1,70,0,0
17375,-100,4,2,1,70,0,0
18818,-100,4,2,1,70,0,0
19106,-100,4,2,2,70,0,0
19178,-100,4,2,1,70,0,0
19683,-100,4,2,1,70,0,0
20260,-100,4,2,1,60,0,0
24298,-100,4,2,1,60,0,0
28337,-100,4,2,1,60,0,0
29491,-100,4,2,1,70,0,0
34683,-100,4,2,1,70,0,0
35548,-100,4,2,1,70,0,0
37712,-100,4,2,1,70,0,0
38721,422.535211267606,4,2,1,70,1,0
38721,-100,4,2,1,70,0,0
45481,288.461538461538,4,2,1,50,1,0
45481,-100,4,2,1,50,0,0
46346,-100,4,2,1,50,0,0
46562,-100,4,2,1,50,0,0
47500,-100,4,2,1,50,0,0
48365,-100,4,2,1,50,0,0
48942,-100,4,2,1,50,0,0
49519,-100,4,2,1,50,0,0
50096,-100,4,2,1,60,0,0
52404,-100,4,2,1,40,0,0
53557,-100,4,2,1,100,0,0
54134,-100,4,2,1,70,0,0
54711,-100,4,2,1,90,0,1
71154,-100,4,2,1,90,0,1
71443,-100,4,2,1,90,0,1
73173,-100,4,2,1,70,0,0
73750,-100,4,2,1,70,0,0
74903,-100,4,2,1,70,0,0
75769,-100,4,2,1,70,0,0
76923,-100,4,2,1,70,0,0
78365,-100,4,2,1,70,0,0
79519,-100,4,2,1,70,0,0
80384,-100,4,2,1,70,0,0
82404,-100,4,2,1,80,0,1
84711,-100,4,2,1,80,0,0

[Colours]
Combo1 : 244,157,247
Combo2 : 239,154,152
Combo3 : 227,70,70

[HitObjects]
348,233,645,6,0,L|350:111,1,94.5,0|0,3:0|0:0,0:0:0:0:
217,160,933,2,0,L|213:51,1,94.5,0|0,3:0|0:0,0:0:0:0:
343,93,1221,2,0,L|346:-7,1,94.5,0|0,3:0|0:0,0:0:0:0:
221,73,1510,2,0,L|116:73,1,94.5,0|0,3:0|0:0,0:0:0:0:
269,154,1798,5,0,3:0:0:0:
131,158,1943,1,0,0:0:0:0:
269,154,2087,1,0,3:0:0:0:
131,158,2231,1,0,0:0:0:0:
352,226,2375,2,0,P|411:203|331:138,1,189,0|0,3:0|3:0,0:0:0:0:
131,117,2808,1,0,3:0:0:0:
331,207,2952,6,0,L|336:92,1,94.5,0|0,3:0|0:0,0:0:0:0:
215,122,3241,2,0,L|211:23,1,94.5,0|0,3:0|0:0,0:0:0:0:
337,62,3529,2,0,L|341:163,1,94.5,0|0,3:0|0:0,0:0:0:0:
206,229,3818,2,0,L|86:225,1,94.5,0|0,3:0|0:0,0:0:0:0:
243,125,4106,5,0,3:0:0:0:
112,125,4250,1,0,0:0:0:0:
243,125,4394,1,0,3:0:0:0:
112,125,4539,1,0,0:0:0:0:
358,138,4683,2,0,L|469:139,1,94.5,0|0,3:0|0:0,0:0:0:0:
237,59,4971,1,0,3:0:0:0:
452,66,5116,1,0,3:0:0:0:
237,59,5260,6,0,L|106:61,1,94.5,6|0,3:2|0:0,0:0:0:0:
369,177,5548,2,0,L|498:176,1,94.5,8|0,0:0|3:0,0:0:0:0:
399,115,5765,1,0,3:0:0:0:
223,132,5837,2,0,L|88:132,1,94.5,0|0,3:0|3:0,0:0:0:0:
452,50,6125,2,0,L|458:164,1,94.5,8|0,0:0|3:0,0:0:0:0:
198,217,6414,5,0,3:0:0:0:
333,214,6558,1,0,3:0:0:0:
198,217,6702,1,8,0:0:0:0:
333,214,6846,1,0,3:0:0:0:
265,216,6919,1,0,3:0:0:0:
74,159,6991,2,0,L|65:43,1,94.5,0|0,3:0|3:0,0:0:0:0:
308,43,7279,1,8,0:0:0:0:
66,64,7423,1,0,3:0:0:0:
337,118,7568,6,0,L|466:119,1,94.5,6|0,3:2|0:0,0:0:0:0:
168,77,7856,2,0,L|48:79,1,94.5,8|0,0:0|3:0,0:0:0:0:
370,200,8144,1,6,3:2:0:0:
240,206,8289,1,0,3:0:0:0:
468,150,8433,1,0,3:0:0:0:
188,115,8577,6,0,L|191:242,1,94.5,8|0,0:0|3:0,0:0:0:0:
397,210,8866,1,0,3:0:0:0:
118,102,9010,2,0,L|4:100,1,94.5,14|0,3:2|0:0,0:0:0:0:
325,146,9298,1,6,3:2:0:0:
118,178,9443,1,8,3:2:0:0:
180,171,9515,1,8,3:2:0:0:
346,88,9587,1,8,3:2:0:0:
404,82,9659,1,8,3:2:0:0:
151,57,9731,1,8,3:2:0:0:
93,51,9803,1,8,3:2:0:0:
245,22,9875,6,0,P|319:28|326:271,1,378,0|0,3:0|0:0,0:0:0:0:
256,239,10596,1,0,0:0:0:0:
335,204,10741,2,0,L|337:93,1,94.5
66,136,11029,6,0,L|186:124,1,94.5,6|0,3:2|0:0,0:0:0:0:
381,90,11318,2,0,L|387:218,1,94.5,8|2,0:0|0:0,0:0:0:0:
183,223,11606,2,0,L|180:115,1,94.5,0|2,3:0|0:0,0:0:0:0:
465,108,11894,2,0,L|339:92,1,94.5,8|2,0:0|0:0,0:0:0:0:
100,203,12183,6,0,L|92:88,1,94.5,0|2,3:0|0:0,0:0:0:0:
311,93,12471,2,0,L|428:96,1,94.5,8|2,0:0|0:0,0:0:0:0:
183,173,12760,2,0,L|69:170,1,94.5,0|2,3:0|0:0,0:0:0:0:
401,154,13048,1,8,0:0:0:0:
146,262,13193,6,0,L|341:253,1,189,4|0,3:2|3:0,0:0:0:0:
52,168,13625,1,8,0:0:0:0:
167,131,13769,1,0,3:0:0:0:
226,123,13841,1,0,3:0:0:0:
410,117,13914,2,0,L|414:228,1,94.5,0|0,3:0|3:0,0:0:0:0:
165,219,14202,1,8,0:0:0:0:
430,217,14346,6,0,L|236:203,1,189,0|0,3:0|3:0,0:0:0:0:
486,144,14779,2,0,L|495:262,1,94.5,8|0,0:0|3:0,0:0:0:0:
432,257,14995,1,0,3:0:0:0:
241,175,15068,2,0,L|115:170,1,94.5,0|0,3:0|3:0,0:0:0:0:
448,84,15356,2,0,L|446:194,1,94.5,4|0,3:2|0:0,0:0:0:0:
124,235,15644,6,0,L|237:225,1,94.5,6|0,3:2|0:0,0:0:0:0:
460,151,15933,2,0,L|467:272,1,94.5,8|2,0:0|0:0,0:0:0:0:
211,137,16221,2,0,L|92:137,1,94.5,0|2,3:0|0:0,0:0:0:0:
340,72,16510,2,0,L|451:68,1,94.5,8|2,0:0|0:0,0:0:0:0:
153,195,16798,6,0,L|146:81,1,94.5,0|2,3:0|0:0,0:0:0:0:
357,69,17087,2,0,L|452:69,1,94.5,8|2,0:0|0:0,0:0:0:0:
220,133,17375,2,0,L|103:133,1,94.5,0|2,3:0|0:0,0:0:0:0:
339,226,17664,1,8,0:0:0:0:
206,225,17808,1,2,0:0:0:0:
446,186,17952,6,0,L|453:78,1,94.5,4|8,3:2|3:2,0:0:0:0:
320,90,18169,1,8,3:2:0:0:
186,92,18241,1,8,3:2:0:0:
399,76,18385,2,0,P|461:88|391:151,1,189,4|0,3:2|3:0,0:0:0:0:
147,275,18818,6,0,L|351:267,1,189,4|2,3:2|0:0,0:0:0:0:
81,188,19250,1,0,3:0:0:0:
382,88,19394,1,8,3:2:0:0:
325,82,19467,1,8,3:2:0:0:
116,196,19539,5,8,3:2:0:0:
62,195,19611,1,0,3:0:0:0:
25,156,19683,1,0,3:0:0:0:
27,100,19755,1,0,3:0:0:0:
67,64,19827,1,0,3:0:0:0:
121,67,19899,1,0,3:0:0:0:
288,188,19971,1,0,3:0:0:0:
355,190,20043,1,0,3:0:0:0:
175,88,20116,1,8,3:0:0:0:
110,88,20188,1,8,3:2:0:0:
336,64,20260,6,0,L|436:64,1,94.5,4|0,3:2|0:0,0:0:0:0:
290,159,20548,2,0,L|286:50,1,94.5
414,59,20837,1,0,3:0:0:0:
287,65,20981,1,0,0:0:0:0:
414,59,21125,2,0,L|418:179,1,94.5,0|0,3:0|0:0,0:0:0:0:
199,251,21414,6,0,L|389:243,1,189,0|0,3:0|3:0,0:0:0:0:
288,189,21846,1,0,0:0:0:0:
149,158,21991,2,0,L|146:46,1,94.5,0|0,3:0|0:0,0:0:0:0:
278,47,22279,1,0,3:0:0:0:
146,73,22423,1,0,0:0:0:0:
359,87,22568,6,0,P|374:132|365:178,1,94.5,2|0,3:2|0:0,0:0:0:0:
222,150,22856,1,0,3:0:0:0:
358,87,23000,2,0,L|361:182,1,94.5,0|0,0:0|3:0,0:0:0:0:
222,150,23289,1,0,0:0:0:0:
457,113,23433,2,0,L|332:99,1,94.5,0|0,3:0|0:0,0:0:0:0:
226,93,23721,6,0,L|224:-12,1,94.5,0|2,3:0|0:0,0:0:0:0:
361,29,24010,2,0,L|462:31,1,94.5,0|0,3:0|0:0,0:0:0:0:
220,175,24298,2,0,L|120:175,1,94.5,0|0,3:0|0:0,0:0:0:0:
362,100,24587,1,2,3:2:0:0:
232,102,24731,1,0,0:0:0:0:
439,105,24875,6,0,L|446:221,1,94.5,4|0,3:2|0:0,0:0:0:0:
300,200,25164,2,0,L|201:204,1,94.5,0|0,3:0|0:0,0:0:0:0:
344,128,25452,1,0,3:0:0:0:
205,203,25596,1,0,0:0:0:0:
434,149,25741,1,0,3:0:0:0:
309,151,25885,1,0,0:0:0:0:
434,149,26029,5,2,3:2:0:0:
199,101,26173,2,0,L|201:199,1,94.5,0|0,0:0|3:0,0:0:0:0:
348,209,26462,1,0,0:0:0:0:
96,203,26606,1,0,3:0:0:0:
227,202,26750,1,0,0:0:0:0:
96,203,26894,1,0,3:0:0:0:
355,139,27039,1,0,0:0:0:0:
96,203,27183,6,0,L|92:86,1,94.5,2|0,3:2|0:0,0:0:0:0:
247,84,27471,2,0,L|363:83,1,94.5,0|0,3:0|0:0,0:0:0:0:
187,157,27760,2,0,L|79:154,1,94.5,0|0,3:0|0:0,0:0:0:0:
332,242,28048,1,2,3:2:0:0:
90,228,28193,1,0,0:0:0:0:
402,151,28337,5,0,3:0:0:0:
269,148,28481,1,0,0:0:0:0:
136,143,28625,1,8,3:0:0:0:
402,151,28769,1,0,3:0:0:0:
136,143,29058,1,8,3:2:0:0:
198,139,29130,1,8,3:2:0:0:
364,83,29202,1,8,3:2:0:0:
421,78,29274,1,8,3:2:0:0:
192,49,29346,1,8,3:2:0:0:
129,48,29418,1,8,3:2:0:0:
331,121,29491,6,0,L|336:232,1,94.5,6|0,3:2|0:0,0:0:0:0:
129,245,29779,1,8,0:0:0:0:
268,192,29923,2,0,L|387:194,1,94.5,2|0,0:0|3:0,0:0:0:0:
152,161,30212,2,0,P|96:141|176:79,1,189,2|2,3:2|0:0,0:0:0:0:
404,151,30644,6,0,L|285:146,1,94.5,0|2,3:0|0:0,0:0:0:0:
171,148,30933,1,8,0:0:0:0:
417,92,31077,2,0,L|419:194,1,94.5,2|0,0:0|3:0,0:0:0:0:
210,251,31366,2,0,L|422:247,1,189,2|2,3:2|0:0,0:0:0:0:
131,201,31798,6,0,P|83:173|156:88,1,189,6|8,3:2|0:0,0:0:0:0:
399,189,32231,2,0,L|402:78,1,94.5,2|0,0:0|3:0,0:0:0:0:
188,128,32519,2,0,L|388:123,1,189,2|2,3:2|0:0,0:0:0:0:
155,220,32952,6,0,L|152:100,1,94.5,0|2,3:0|0:0,0:0:0:0:
300,91,33241,1,8,0:0:0:0:
46,158,33385,2,0,L|158:150,1,94.5,2|0,0:0|3:0,0:0:0:0:
366,212,33673,2,0,L|146:206,1,189,2|2,3:2|0:0,0:0:0:0:
422,175,34106,6,0,L|434:60,1,94.5,4|0,3:2|0:0,0:0:0:0:
202,71,34394,2,0,L|86:77,1,94.5,8|2,0:0|0:0,0:0:0:0:
347,182,34683,2,0,L|356:67,1,94.5,0|2,3:0|3:2,0:0:0:0:
136,108,34971,1,8,0:0:0:0:
269,106,35116,1,2,0:0:0:0:
59,190,35260,6,0,L|60:66,1,94.5,0|2,3:0|0:0,0:0:0:0:
275,68,35548,2,0,L|389:68,1,94.5,8|2,0:0|0:0,0:0:0:0:
132,161,35837,2,0,L|27:157,1,94.5,0|2,3:0|3:2,0:0:0:0:
321,95,36125,2,0,L|422:91,1,94.5,8|2,0:0|0:0,0:0:0:0:
159,218,36414,6,0,L|157:100,1,94.5,4|0,3:2|0:0,0:0:0:0:
297,103,36630,1,8,0:0:0:0:
436,92,36702,1,8,0:0:0:0:
159,218,36846,2,0,L|24:213,2,94.5,4|0|0,3:2|0:0|3:0,0:0:0:0:
403,278,37279,6,0,L|172:274,1,189,10|2,3:2|0:0,0:0:0:0:
265,221,37640,1,0,0:0:0:0:
435,193,37712,1,8,3:2:0:0:
477,182,37784,1,8,3:2:0:0:
477,139,37856,1,0,3:0:0:0:
434,129,37928,1,0,3:0:0:0:
261,117,38000,6,0,L|188:116,1,47.25,0|0,3:0|3:0,0:0:0:0:
270,58,38144,2,0,L|329:57,1,47.25,4|4,3:0|3:0,0:0:0:0:
250,166,38289,2,0,L|186:165,1,47.25,4|4,3:0|3:0,0:0:0:0:
275,225,38433,2,0,L|333:226,1,47.25,8|8,3:0|3:0,0:0:0:0:
171,117,38577,2,0,L|89:117,1,47.25,8|8,3:0|3:0,0:0:0:0:
328,92,38721,6,0,B|414:101|414:101|419:163,1,126,4|0,3:2|3:0,0:0:0:0:
165,212,39143,1,8,0:0:0:0:
72,179,39284,1,0,0:0:0:0:
165,212,39425,1,0,3:0:0:0:
377,157,39566,6,0,P|432:133|445:68,1,126,8|0,0:0|3:0,0:0:0:0:
229,190,39988,1,8,0:0:0:0:
330,171,40128,1,0,0:0:0:0:
431,180,40269,1,0,3:0:0:0:
171,87,40411,6,0,P|94:98|93:170,1,126,12|0,3:2|3:0,0:0:0:0:
304,222,40833,2,0,P|379:192|388:134,1,126,8|0,0:0|3:0,0:0:0:0:
157,136,41256,5,8,0:0:0:0:
68,135,41397,1,0,0:0:0:0:
157,136,41537,1,0,3:0:0:0:
378,233,41678,1,8,0:0:0:0:
276,194,41819,1,8,3:0:0:0:
174,181,41960,1,8,3:0:0:0:
415,150,42101,5,0,3:0:0:0:
311,146,42242,1,0,3:0:0:0:
415,150,42382,1,0,3:0:0:0:
168,227,42523,2,0,P|94:203|93:141,1,126,12|0,3:2|0:0,0:0:0:0:
326,130,42946,5,0,3:0:0:0:
221,129,43087,1,0,3:0:0:0:
326,130,43228,1,0,3:0:0:0:
111,175,43368,2,0,P|51:144|41:81,1,126,12|0,3:2|0:0,0:0:0:0:
304,91,43791,5,0,3:0:0:0:
199,82,43932,1,0,3:0:0:0:
95,80,44073,1,0,3:0:0:0:
332,117,44213,2,0,P|403:141|412:209,1,126,12|0,3:2|0:0,0:0:0:0:
186,208,44636,5,0,3:0:0:0:
290,200,44777,1,0,3:0:0:0:
395,196,44918,1,0,3:0:0:0:
173,113,45059,2,0,P|107:125|87:200,1,126,12|0,3:2|0:0,0:0:0:0:
336,209,45481,5,6,3:2:0:0:
256,192,45625,12,0,47500,0:0:0:0:
148,212,47788,6,0,P|136:149|289:24,1,283.5
160,242,48365,2,0,P|69:220|178:138,1,283.5
271,82,48942,6,0,P|340:86|404:266,1,283.5
177,246,49519,2,0,P|114:182|186:147,1,189,2|0,3:2|0:0,0:0:0:0:
396,164,50096,5,10,3:2:0:0:
263,164,50240,1,0,3:0:0:0:
396,164,50384,1,0,3:0:0:0:
129,167,50529,1,8,3:2:0:0:
263,164,50673,2,0,L|262:62,1,94.5,0|0,3:0|3:0,0:0:0:0:
44,81,50961,5,8,3:2:0:0:
175,82,51105,1,0,3:0:0:0:
44,81,51250,1,0,3:0:0:0:
306,84,51394,1,8,3:2:0:0:
175,82,51538,2,0,L|175:-20,1,94.5,0|0,3:0|3:0,0:0:0:0:
381,126,51827,6,0,L|477:123,1,94.5,8|0,3:2|0:0,0:0:0:0:
204,167,52115,2,0,L|101:160,1,94.5,8|0,3:2|0:0,0:0:0:0:
256,192,52404,12,0,53269,0:0:0:0:
117,200,53557,5,2,3:2:0:0:
261,168,53630,1,0,3:2:0:0:
403,150,53702,1,0,3:2:0:0:
474,146,53774,1,8,3:2:0:0:
232,83,53846,1,10,3:2:0:0:
100,90,53990,1,0,3:0:0:0:
173,136,54062,1,0,3:0:0:0:
392,88,54134,2,0,L|397:174,1,47.25,8|8,3:0|3:0,0:0:0:0:
255,207,54279,5,8,3:2:0:0:
117,203,54351,1,8,3:2:0:0:
255,207,54423,1,8,3:2:0:0:
393,210,54495,1,8,3:2:0:0:
255,207,54567,1,8,3:2:0:0:
117,203,54639,1,8,3:2:0:0:
255,207,54711,5,6,3:2:0:0:
376,210,54855,1,0,0:0:0:0:
130,107,55000,2,0,L|18:107,1,94.5,8|2,0:0|0:0,0:0:0:0:
353,70,55288,2,0,L|362:198,1,94.5,0|2,3:0|0:0,0:0:0:0:
131,183,55577,1,8,0:0:0:0:
378,187,55721,1,2,0:0:0:0:
86,242,55865,5,0,3:0:0:0:
216,245,56009,1,2,0:0:0:0:
86,242,56154,1,8,0:0:0:0:
387,232,56298,2,0,L|396:111,1,94.5,2|0,0:0|3:0,0:0:0:0:
176,112,56586,2,0,L|382:108,1,189,2|2,0:0|0:0,0:0:0:0:
108,216,57019,6,0,L|106:98,1,94.5,4|0,3:2|0:0,0:0:0:0:
336,103,57307,1,8,0:0:0:0:
117,106,57452,1,2,0:0:0:0:
362,161,57596,1,0,3:0:0:0:
230,163,57740,1,2,0:0:0:0:
362,161,57884,1,8,0:0:0:0:
230,163,58029,1,2,0:0:0:0:
472,117,58173,6,0,L|364:112,1,94.5,0|2,3:0|0:0,0:0:0:0:
151,163,58461,1,8,0:0:0:0:
386,195,58605,2,0,P|440:211|376:289,1,189,2|2,0:0|0:0,0:0:0:0:
174,190,59038,2,0,L|68:187,1,94.5,8|8,0:0|0:0,0:0:0:0:
140,118,59255,1,8,0:0:0:0:
350,112,59327,6,0,L|470:109,1,94.5,6|0,3:2|0:0,0:0:0:0:
223,201,59615,2,0,L|103:198,1,94.5,8|2,0:0|0:0,0:0:0:0:
368,157,59904,2,0,L|377:55,1,94.5,0|2,3:0|0:0,0:0:0:0:
167,62,60192,1,8,0:0:0:0:
376,52,60336,1,2,0:0:0:0:
151,170,60480,5,0,3:0:0:0:
291,171,60625,1,2,0:0:0:0:
151,170,60769,1,8,0:0:0:0:
402,110,60913,2,0,L|407:230,1,94.5,2|0,0:0|3:0,0:0:0:0:
172,231,61202,2,0,L|48:231,1,94.5,2|8,0:0|0:0,0:0:0:0:
358,166,61490,1,2,0:0:0:0:
105,154,61634,5,4,3:2:0:0:
243,148,61779,1,0,0:0:0:0:
34,105,61923,2,0,L|30:-3,1,94.5,8|2,0:0|0:0,0:0:0:0:
316,117,62211,1,0,3:0:0:0:
180,111,62355,1,2,0:0:0:0:
316,117,62500,1,8,0:0:0:0:
180,111,62644,1,2,0:0:0:0:
451,191,62788,5,4,3:2:0:0:
231,193,62932,1,8,0:0:0:0:
451,191,63077,1,0,3:0:0:0:
141,264,63221,2,0,L|357:252,1,189,4|0,3:2|3:0,0:0:0:0:
82,181,63654,1,8,0:0:0:0:
354,172,63798,1,0,0:0:0:0:
60,132,63942,6,0,L|176:128,1,94.5,12|0,3:2|3:0,0:0:0:0:
382,110,64230,1,8,3:2:0:0:
154,128,64375,1,0,3:0:0:0:
452,131,64519,2,0,L|336:127,1,94.5,8|0,3:2|3:0,0:0:0:0:
130,110,64807,1,8,3:2:0:0:
358,128,64952,1,0,3:0:0:0:
115,192,65096,6,0,L|112:52,1,94.5,8|0,3:2|3:0,0:0:0:0:
356,69,65384,1,8,3:2:0:0:
117,85,65529,2,0,L|18:84,1,94.5,0|8,3:0|3:2,0:0:0:0:
294,98,65817,2,0,P|374:108|415:217,1,189,0|0,3:0|3:0,0:0:0:0:
38,210,66250,6,0,L|148:204,1,94.5,12|0,3:2|3:0,0:0:0:0:
390,203,66538,1,8,3:2:0:0:
132,204,66682,1,0,3:0:0:0:
474,210,66827,2,0,L|364:204,1,94.5,8|0,3:2|3:0,0:0:0:0:
122,203,67115,1,8,3:2:0:0:
380,204,67259,1,0,3:0:0:0:
111,137,67404,6,0,L|109:37,1,94.5,12|0,3:2|3:0,0:0:0:0:
396,54,67692,1,8,3:2:0:0:
79,171,67836,2,0,L|204:160,1,94.5,0|8,3:0|3:2,0:0:0:0:
389,214,68125,2,0,L|164:199,1,189,0|0,3:0|3:0,0:0:0:0:
429,149,68557,6,0,L|440:36,1,94.5,6|0,3:2|3:0,0:0:0:0:
206,101,68846,2,0,L|72:101,1,94.5,8|0,3:2|3:0,0:0:0:0:
356,177,69134,2,0,L|456:180,1,94.5,8|0,3:2|3:0,0:0:0:0:
146,75,69423,1,2,3:2:0:0:
380,112,69567,6,0,L|184:112,1,189,0|0,3:0|3:0,0:0:0:0:
460,88,70000,2,0,L|468:209,1,94.5,4|0,3:2|0:0,0:0:0:0:
90,236,70288,1,4,3:2:0:0:
150,228,70360,1,0,3:2:0:0:
330,162,70432,1,8,3:2:0:0:
390,154,70504,1,8,3:2:0:0:
197,80,70577,1,8,0:0:0:0:
131,72,70649,1,8,0:0:0:0:
341,61,70721,1,8,0:0:0:0:
407,52,70793,1,8,0:0:0:0:
154,149,70865,6,0,L|48:154,1,94.5,6|0,3:2|0:0,0:0:0:0:
299,195,71154,1,0,3:0:0:0:
170,198,71298,1,0,0:0:0:0:
378,123,71442,1,0,3:0:0:0:
129,124,71586,1,8,3:0:0:0:
378,123,71730,1,0,3:0:0:0:
129,124,71875,1,0,3:0:0:0:
414,76,72019,6,0,L|418:201,1,94.5,4|8,3:2|3:2,0:0:0:0:
273,198,72235,1,8,3:2:0:0:
130,195,72307,1,0,3:0:0:0:
378,123,72452,2,0,P|435:135|380:215,1,189,4|0,3:2|3:0,0:0:0:0:
129,109,72884,2,0,L|20:109,1,94.5,0|0,3:0|0:0,0:0:0:0:
342,217,73173,6,0,L|345:94,1,94.5,6|0,3:2|0:0,0:0:0:0:
210,138,73461,2,0,L|207:26,1,94.5,8|2,0:0|0:0,0:0:0:0:
417,131,73750,2,0,L|424:17,1,94.5,0|2,3:0|0:0,0:0:0:0:
124,187,74038,2,0,L|121:76,1,94.5,8|2,0:0|0:0,0:0:0:0:
334,118,74327,6,0,L|337:14,1,94.5,0|2,3:0|0:0,0:0:0:0:
195,107,74615,2,0,L|188:7,1,94.5,8|2,0:0|0:0,0:0:0:0:
397,71,74904,2,0,L|498:69,1,94.5,0|2,3:0|0:0,0:0:0:0:
200,151,75192,2,0,L|92:151,1,94.5,8|2,0:0|0:0,0:0:0:0:
381,106,75480,6,0,P|443:123|370:192,1,189,6|8,3:2|0:0,0:0:0:0:
253,205,75913,1,2,0:0:0:0:
396,181,76057,2,0,L|400:65,1,94.5,0|2,3:0|0:0,0:0:0:0:
192,62,76346,2,0,L|80:68,1,94.5,8|2,0:0|0:0,0:0:0:0:
368,57,76634,6,0,P|416:72|359:165,1,189,0|8,3:0|0:0,0:0:0:0:
233,164,77067,1,2,0:0:0:0:
367,109,77211,2,0,L|474:108,1,94.5,0|2,3:0|0:0,0:0:0:0:
183,72,77500,2,0,L|73:72,1,94.5,8|8,0:0|0:0,0:0:0:0:
145,129,77716,1,8,0:0:0:0:
336,182,77788,6,0,L|451:179,1,94.5,4|0,3:2|0:0,0:0:0:0:
294,122,78077,2,0,L|181:122,1,94.5,8|2,0:0|0:0,0:0:0:0:
434,61,78365,2,0,L|439:158,1,94.5,0|2,3:0|0:0,0:0:0:0:
145,197,78654,2,0,L|41:198,1,94.5,8|2,0:0|0:0,0:0:0:0:
268,134,78942,6,0,L|368:134,1,94.5,0|2,3:0|0:0,0:0:0:0:
224,68,79230,2,0,L|116:70,1,94.5,8|2,0:0|0:0,0:0:0:0:
378,86,79519,2,0,L|382:190,1,94.5,0|2,3:0|0:0,0:0:0:0:
132,187,79807,2,0,L|26:186,1,94.5,8|2,0:0|0:0,0:0:0:0:
323,119,80096,6,0,L|434:117,1,94.5,4|0,3:2|0:0,0:0:0:0:
182,196,80384,1,8,0:0:0:0:
316,197,80529,1,2,0:0:0:0:
105,114,80673,1,0,3:0:0:0:
359,110,80817,1,2,0:0:0:0:
105,114,80961,1,8,0:0:0:0:
359,110,81105,1,2,0:0:0:0:
91,212,81250,6,0,L|85:99,1,94.5,4|8,3:2|0:0,0:0:0:0:
237,96,81466,1,8,0:0:0:0:
389,84,81538,1,0,3:0:0:0:
143,182,81682,2,0,P|75:154|163:114,1,189,4|0,3:2|3:0,0:0:0:0:
348,113,82115,1,8,0:0:0:0:
137,113,82259,1,8,0:0:0:0:
381,178,82404,6,0,L|491:177,1,94.5,12|0,3:2|3:0,0:0:0:0:
200,88,82692,2,0,L|83:89,1,94.5,8|0,3:2|3:0,0:0:0:0:
345,49,82980,2,0,L|447:49,1,94.5,10|0,3:2|3:0,0:0:0:0:
127,28,83269,2,0,L|19:27,1,94.5,10|0,3:2|3:0,0:0:0:0:
81,79,83485,1,0,0:0:0:0:
318,77,83557,6,0,L|440:77,1,94.5,12|0,3:2|3:0,0:0:0:0:
160,61,83846,2,0,L|53:61,1,94.5,8|0,3:2|3:0,0:0:0:0:
358,142,84134,2,0,L|472:139,1,94.5,12|8,3:2|3:2,0:0:0:0:
392,88,84351,1,8,3:2:0:0:
206,90,84423,1,8,3:2:0:0:
143,89,84495,1,8,3:2:0:0:
359,40,84567,1,8,3:0:0:0:
422,39,84639,1,8,3:0:0:0:
176,180,84711,6,0,L|64:179,1,94.5,4|0,3:2|0:0,0:0:0:0:
300,205,85000,2,0,L|308:108,1,94.5,8|0,0:0|3:0,0:0:0:0:
173,87,85288,2,0,L|59:83,1,94.5,0|0,3:0|3:0,0:0:0:0:
354,154,85577,1,8,0:0:0:0:
100,238,85721,6,0,P|45:213|116:137,1,189,0|0,0:0|3:0,0:0:0:0:
321,130,86154,2,0,L|434:127,1,94.5,8|0,0:0|0:0,0:0:0:0:
196,75,86442,2,0,L|93:74,1,94.5,0|0,3:0|3:0,0:0:0:0:
423,65,86730,2,0,L|432:184,1,94.5,8|0,0:0|0:0,0:0:0:0:
103,227,87019,6,0,L|221:220,1,94.5,4|0,3:2|3:0,0:0:0:0:
422,214,87307,1,12,3:2:0:0:
220,213,87452,1,0,3:0:0:0:
431,209,87596,2,0,L|432:104,1,94.5,8|0,3:2|3:2,0:0:0:0:
185,108,87884,1,0,3:0:0:0:
430,93,88029,6,0,P|485:113|432:197,1,189,12|0,3:2|3:0,0:0:0:0:
159,163,88461,2,0,L|45:164,1,94.5,12|0,3:2|0:0,0:0:0:0:
344,106,88750,2,0,L|456:106,1,94.5,10|8,3:2|3:2,0:0:0:0:
383,167,88966,1,8,3:2:0:0:
218,138,89038,1,8,3:2:0:0:
53,92,89110,1,8,3:2:0:0:
218,138,89182,1,8,3:2:0:0:
383,167,89254,1,8,3:2:0:0:
