osu file format v14

[General]
AudioFilename: audio.mp3
AudioLeadIn: 0
PreviewTime: 54655
Countdown: 0
SampleSet: Soft
StackLeniency: 0.7
Mode: 0
LetterboxInBreaks: 0
WidescreenStoryboard: 1

[Editor]
Bookmarks: 661,11045,20276,29507,38737,45497,54727,73189,89343
DistanceSpacing: 1
BeatDivisor: 4
GridSize: 8
TimelineZoom: 1

[Metadata]
Title:keep weaving your spider way (TV Size)
TitleUnicode:keep weaving your spider way (TV Size)
Artist:Azuna Riko
ArtistUnicode:安月名莉子
Creator:Oriental
Version:Normal
Source:蜘蛛ですが、なにか?
Tags:So I'm a Spider, So What? Kumo Desu ga, Nani ka? kumodesu anime op opening theme japanese rock
BeatmapID:2788497
BeatmapSetID:1346476

[Difficulty]
HPDrainRate:4
CircleSize:3.2
OverallDifficulty:4.5
ApproachRate:6
SliderMultiplier:0.999999999999999
SliderTickRate:1

[Events]
//Background and Video events
0,0,"BG.jpg",0,0
//Break Periods
//Storyboard Layer 0 (Background)
//Storyboard Layer 1 (Fail)
//Storyboard Layer 2 (Pass)
//Storyboard Layer 3 (Foreground)
//Storyboard Layer 4 (Overlay)
//Storyboard Sound Samples

[TimingPoints]
645,288.461538461538,4,2,1,55,1,0
645,-100,4,2,1,55,0,0
5260,-100,4,2,1,60,0,0
7568,-100,4,2,1,65,0,0
9875,-100,4,2,1,40,0,0
11029,-100,4,2,2,70,0,0
19683,-100,4,2,1,70,0,0
20260,-111.111111111111,4,2,3,60,0,0
29491,-100,4,2,1,70,0,0
38721,422.535211267606,4,2,1,70,1,0
38721,-100,4,2,1,70,0,0
45481,288.461538461538,4,2,1,50,1,0
45481,-100,4,2,1,50,0,0
50096,-100,4,2,1,60,0,0
53557,-100,4,2,2,100,0,0
54134,-100,4,2,2,70,0,0
54711,-90.9090909090909,4,2,2,90,0,1
73173,-100,4,2,2,70,0,0
82404,-100,4,2,2,80,0,1
84711,-100,4,2,2,70,0,0

[Colours]
Combo1 : 247,249,145
Combo2 : 239,154,152
Combo3 : 158,239,221
Combo4 : 218,156,241

[HitObjects]
50,178,645,6,0,P|94:173|167:166,1,99.9999999999999,2|2,3:2|3:2,0:0:0:0:
236,217,1221,2,0,P|280:212|353:205,1,99.9999999999999,2|2,3:2|3:2,0:0:0:0:
383,220,1654,1,2,0:2:0:0:
432,231,1798,2,0,P|463:193|465:144,1,99.9999999999999,2|2,3:2|3:2,0:0:0:0:
398,73,2375,2,0,P|348:78|298:83,1,99.9999999999999,2|2,3:2|3:2,0:0:0:0:
202,54,2952,6,0,P|209:103|211:153,1,99.9999999999999,2|2,3:2|3:2,0:0:0:0:
151,233,3529,2,0,P|158:282|160:332,1,99.9999999999999,2|2,3:2|3:2,0:0:0:0:
114,351,3962,1,2,0:2:0:0:
66,366,4106,2,0,P|28:335|27:287,1,99.9999999999999,2|2,3:2|3:2,0:0:0:0:
67,195,4683,2,0,P|77:146|78:96,1,99.9999999999999,2|2,3:2|3:2,0:0:0:0:
147,23,5260,6,0,P|198:16|241:42,1,99.9999999999999,6|10,3:2|0:2,0:0:0:0:
289,125,5837,2,0,P|290:174|300:223,1,99.9999999999999,2|10,3:2|0:2,0:0:0:0:
329,264,6269,1,2,3:2:0:0:
364,300,6414,2,0,P|415:307|458:281,1,99.9999999999999,2|10,3:2|0:2,0:0:0:0:
489,189,6991,2,0,P|499:137|497:89,1,99.9999999999999,2|10,3:2|0:2,0:0:0:0:
413,35,7568,5,14,0:2:0:0:
318,67,7856,1,10,0:2:0:0:
222,37,8144,2,0,P|173:24|124:31,1,99.9999999999999,14|2,0:2|3:2,0:0:0:0:
79,51,8577,1,10,1:2:0:0:
37,78,8721,2,0,L|45:184,1,99.9999999999999,2|14,3:2|0:2,0:0:0:0:
122,240,9298,1,14,3:2:0:0:
207,187,9587,1,14,3:2:0:0:
294,233,9875,1,2,1:2:0:0:
294,232,11029,6,0,P|296:183|301:133,1,99.9999999999999,6|10,3:2|0:2,0:0:0:0:
400,122,11606,1,2,3:2:0:0:
453,206,11894,1,10,0:2:0:0:
407,298,12183,2,0,P|367:327|318:327,1,99.9999999999999,2|10,3:2|0:2,0:0:0:0:
224,292,12760,1,2,3:2:0:0:
131,329,13048,1,10,0:2:0:0:
131,329,13193,6,0,P|136:277|142:210,1,99.9999999999999,4|0,3:2|3:0,0:0:0:0:
167,187,13625,1,8,0:0:0:0:
221,102,13914,2,0,P|216:77|215:52,2,50,0|0|8,3:0|3:0|0:0,0:0:0:0:
305,156,14491,2,0,P|303:180|299:205,2,50,0|0|8,3:0|3:0|0:0,0:0:0:0:
366,76,15068,2,0,P|415:72|458:96,1,99.9999999999999,0|12,3:0|0:0,0:0:0:0:
490,191,15644,6,0,P|486:242|482:290,1,99.9999999999999,6|10,3:2|0:2,0:0:0:0:
401,350,16221,1,2,3:2:0:0:
306,315,16510,1,10,0:2:0:0:
210,341,16798,2,0,P|180:301|180:252,1,99.9999999999999,2|10,3:2|0:2,0:0:0:0:
235,169,17375,1,2,3:2:0:0:
224,69,17663,1,10,0:2:0:0:
139,15,17952,6,0,P|90:5|46:32,1,99.9999999999999,12|0,0:0|3:0,0:0:0:0:
30,75,18385,2,0,P|36:122|42:178,1,99.9999999999999,12|0,0:0|3:0,0:0:0:0:
79,207,18818,1,12,0:0:0:0:
121,297,19106,2,0,P|113:326|109:351,2,50,4|8|8,3:2|0:3|0:3,0:0:0:0:
215,264,19683,1,10,3:0:0:0:
391,299,20260,5,4,3:2:0:0:
452,234,20548,2,0,P|456:184|464:135,1,89.999997253418,2|2,3:2|3:2,0:0:0:0:
412,69,21125,2,0,P|354:51|309:65,1,89.999997253418,2|2,3:2|3:2,0:0:0:0:
242,88,21702,1,2,3:2:0:0:
273,172,21991,2,0,P|269:227|264:281,1,89.999997253418,2|2,3:2|3:2,0:0:0:0:
204,327,22568,6,0,P|154:323|106:324,1,89.999997253418,2|2,3:2|3:2,0:0:0:0:
70,314,23000,2,0,P|46:268|63:222,1,89.999997253418,2|2,0:2|0:2,0:0:0:0:
90,205,23433,1,2,3:2:0:0:
157,145,23721,2,0,P|158:101|161:56,1,89.999997253418,0|0,3:0|3:0,0:0:0:0:
245,23,24298,1,2,3:2:0:0:
305,89,24587,1,2,3:2:0:0:
261,168,24875,6,0,P|245:209|253:252,1,89.999997253418,6|0,3:2|3:0,0:0:0:0:
304,326,25452,2,0,P|330:323|366:320,2,44.999998626709,2|2|2,3:2|0:2|3:2,0:0:0:0:
273,359,25885,2,0,P|230:350|185:347,1,89.999997253418,2|2,0:2|0:2,0:0:0:0:
141,357,26318,1,0,3:0:0:0:
57,324,26606,2,0,P|46:297|46:262,1,44.999998626709,2|2,3:2|0:2,0:0:0:0:
47,236,26894,1,2,3:2:0:0:
71,198,27039,6,0,P|120:203|162:204,1,89.999997253418,2|2,0:2|0:2,0:0:0:0:
201,185,27471,1,2,3:2:0:0:
269,126,27760,2,0,L|273:72,2,44.999998626709,2|2|6,3:2|0:2|3:2,0:0:0:0:
334,188,28337,1,6,3:2:0:0:
423,183,28625,1,2,3:2:0:0:
423,182,28769,2,0,P|455:152|458:109,1,89.999997253418,6|6,3:2|1:2,0:0:0:0:
443,66,29202,1,0,1:0:0:0:
352,21,29491,6,0,P|303:31|253:36,1,99.9999999999999,6|10,3:2|0:0,0:0:0:0:
202,31,29923,2,0,P|154:21|104:24,1,99.9999999999999,2|2,0:2|0:2,0:0:0:0:
63,53,30356,1,8,0:0:0:0:
20,142,30644,2,0,P|26:192|33:242,1,99.9999999999999,2|10,3:2|0:2,0:0:0:0:
58,283,31077,2,0,P|103:305|152:299,1,99.9999999999999,2|2,0:2|0:2,0:0:0:0:
191,269,31510,1,8,0:0:0:0:
276,216,31798,6,0,P|325:220|380:226,1,99.9999999999999,6|10,3:2|0:2,0:0:0:0:
423,216,32231,2,0,P|452:176|447:127,1,99.9999999999999,2|2,0:2|0:2,0:0:0:0:
423,83,32664,1,8,0:0:0:0:
337,31,32952,2,0,P|287:36|237:40,1,99.9999999999999,2|10,3:2|0:2,0:0:0:0:
187,46,33385,2,0,P|151:84|163:135,1,99.9999999999999,2|2,0:2|0:2,0:0:0:0:
181,172,33818,1,8,0:0:0:0:
269,218,34106,5,4,3:2:0:0:
241,313,34394,2,0,P|191:307|141:303,2,99.9999999999999,10|2|10,0:2|3:2|0:2,0:0:0:0:
286,335,35116,1,2,0:2:0:0:
333,351,35260,2,0,P|378:340|397:287,1,99.9999999999999,2|10,3:2|0:2,0:0:0:0:
359,201,35837,2,0,P|351:151|352:101,1,99.9999999999999,2|10,3:2|0:2,0:0:0:0:
422,29,36414,6,0,P|467:48|482:95,1,99.9999999999999,14|0,0:2|3:0,0:0:0:0:
487,143,36846,2,0,P|481:192|478:242,1,99.9999999999999,14|0,0:2|3:0,0:0:0:0:
446,281,37279,1,14,0:2:0:0:
355,238,37568,2,0,L|351:182,2,50,4|8|8,3:2|0:0|0:0,0:0:0:0:
284,309,38144,2,0,P|234:298|183:298,1,99.9999999999999,8|4,0:3|0:3,0:0:0:0:
90,276,38721,6,0,P|67:226|84:180,1,99.9999999999999,6|2,3:1|3:2,0:0:0:0:
167,136,39566,2,0,P|216:135|266:127,1,99.9999999999999,2|2,3:2|3:2,0:0:0:0:
353,77,40411,2,0,P|367:135|353:177,2,99.9999999999999,6|2|2,3:2|3:2|3:2,0:0:0:0:
265,29,41678,1,0,3:0:0:0:
171,63,42101,6,0,P|176:104|179:143,1,66.6666666666666,2|2,3:2|3:2,0:0:0:0:
182,162,42523,1,14,0:2:0:0:
272,202,42946,2,0,P|267:235|264:268,1,66.6666666666666,2|2,3:2|3:2,0:0:0:0:
261,301,43368,1,14,0:2:0:0:
175,352,43791,2,0,P|142:355|111:343,1,66.6666666666666,2|2,3:2|3:2,0:0:0:0:
90,317,44213,1,14,0:2:0:0:
43,229,44636,2,0,P|48:180|53:120,1,99.9999999999999,2|14,3:2|0:2,0:0:0:0:
127,62,45481,1,6,0:2:0:0:
127,62,47788,5,2,0:2:0:0:
325,47,48365,1,2,0:2:0:0:
338,245,48942,1,2,0:2:0:0:
140,260,49519,2,0,P|85:258|21:245,1,99.9999999999999,2|0,0:3|0:0,0:0:0:0:
9,155,50096,6,0,P|18:105|24:56,1,99.9999999999999,14|2,0:2|3:2,0:0:0:0:
65,27,50529,1,14,0:2:0:0:
200,90,50961,2,0,P|248:97|299:76,1,99.9999999999999,14|2,0:2|3:2,0:0:0:0:
335,49,51394,1,14,0:2:0:0:
480,83,51827,1,14,0:2:0:0:
468,182,52115,1,14,0:2:0:0:
467,181,53557,6,2,P|368:171|268:164,1,200,6|0,2:1|3:0,2:1:0:0:
175,202,54423,1,8,1:3:0:0:
78,176,54711,6,0,L|74:63,1,110.000003356934,6|10,3:2|0:2,0:0:0:0:
164,10,55288,2,0,P|214:3|278:15,1,110.000003356934,2|10,3:2|0:2,0:0:0:0:
312,46,55721,1,2,0:2:0:0:
347,85,55865,1,2,3:2:0:0:
446,48,56154,1,10,0:2:0:0:
446,48,56298,2,0,P|439:97|435:159,1,110.000003356934,2|2,0:2|0:2,0:0:0:0:
456,205,56730,1,8,0:0:0:0:
404,294,57019,6,0,P|351:282|291:281,1,110.000003356934,6|10,3:2|0:2,0:0:0:0:
245,296,57452,1,2,0:2:0:0:
200,321,57596,2,0,L|208:378,2,55.0000016784668,2|2|10,3:2|0:2|0:2,0:0:0:0:
157,226,58173,2,0,P|160:201|161:172,2,55.0000016784668,2|2|10,3:2|0:2|0:2,0:0:0:0:
122,264,58605,2,0,P|74:275|18:243,1,110.000003356934,2|0,0:2|0:0,0:0:0:0:
1,200,59038,1,8,0:0:0:0:
18,97,59327,6,0,P|68:94|131:85,1,110.000003356934,6|10,3:2|0:2,0:0:0:0:
226,55,59904,2,0,P|273:67|294:124,1,110.000003356934,2|10,3:2|0:2,0:0:0:0:
269,166,60336,1,0,0:0:0:0:
239,209,60480,1,2,3:2:0:0:
274,307,60769,1,10,0:2:0:0:
274,307,60913,2,0,P|324:303|389:304,1,110.000003356934,2|2,0:2|0:2,0:0:0:0:
423,269,61346,1,8,0:0:0:0:
484,185,61634,6,0,L|488:129,1,55.0000016784668,6|2,3:2|0:2,0:0:0:0:
442,104,61923,2,0,L|445:50,1,55.0000016784668,10|0,0:2|0:0,0:0:0:0:
401,21,62211,2,0,P|351:24|284:25,1,110.000003356934,2|10,3:2|0:2,0:0:0:0:
187,19,62788,2,0,P|152:54|151:112,1,110.000003356934,6|2,3:2|1:2,0:0:0:0:
188,148,63221,2,0,P|238:145|298:142,1,110.000003356934,6|0,3:2|3:0,0:0:0:0:
347,124,63654,1,12,0:0:0:0:
437,177,63942,6,0,P|433:226|431:291,1,110.000003356934,14|10,0:2|0:2,0:0:0:0:
342,340,64519,2,0,P|313:335|273:331,1,55.0000016784668,14|2,0:2|3:2,0:0:0:0:
240,352,64807,2,0,P|211:347|172:343,1,55.0000016784668,10|2,0:2|3:2,0:0:0:0:
143,312,65096,2,0,P|117:270|127:211,1,110.000003356934,14|10,0:2|0:2,0:0:0:0:
169,183,65529,2,0,P|180:135|185:71,1,110.000003356934,6|6,3:2|3:2,0:0:0:0:
153,33,65961,1,8,0:0:0:0:
52,0,66250,6,0,P|59:53|60:109,1,110.000003356934,14|10,0:2|0:2,0:0:0:0:
7,201,66827,2,0,P|5:229|4:265,1,55.0000016784668,14|2,0:2|3:2,0:0:0:0:
46,287,67115,2,0,P|47:311|49:343,1,55.0000016784668,10|2,0:2|3:2,0:0:0:0:
96,364,67404,2,0,P|144:372|200:350,1,110.000003356934,14|10,0:2|0:2,0:0:0:0:
244,321,67836,2,0,P|292:312|346:335,1,110.000003356934,6|6,3:2|3:2,0:0:0:0:
382,375,68269,1,8,0:0:0:0:
473,322,68557,6,0,P|475:270|481:211,1,110.000003356934,14|10,3:2|0:2,0:0:0:0:
414,130,69134,1,10,0:2:0:0:
320,177,69423,1,2,3:2:0:0:
320,177,69567,2,0,P|270:170|208:168,1,110.000003356934,6|2,3:2|3:2,0:0:0:0:
163,189,70000,1,14,0:2:0:0:
70,143,70288,2,0,P|51:99|75:42,1,110.000003356934,14|4,0:2|1:3,0:0:0:0:
172,16,70865,6,0,P|221:22|283:27,1,110.000003356934,6|2,3:2|3:2,0:0:0:0:
384,23,71442,2,0,L|378:81,1,55.0000016784668,2|2,3:2|0:2,0:0:0:0:
341,113,71730,2,0,L|336:168,1,55.0000016784668,2|2,3:2|0:2,0:0:0:0:
366,211,72019,2,0,P|380:258|351:321,1,110.000003356934,6|10,3:2|1:2,0:0:0:0:
314,341,72452,2,0,P|265:330|204:328,1,110.000003356934,6|8,3:2|0:0,0:0:0:0:
156,344,72884,1,0,3:0:0:0:
76,282,73173,6,0,P|82:234|83:183,1,99.9999999999999,6|10,3:2|0:2,0:0:0:0:
63,84,73750,1,2,3:2:0:0:
149,32,74038,1,10,0:2:0:0:
232,89,74327,2,0,P|279:103|329:104,1,99.9999999999999,2|10,3:2|0:2,0:0:0:0:
414,50,74904,1,2,3:2:0:0:
504,92,75192,1,10,0:2:0:0:
501,192,75480,6,0,P|496:241|491:291,1,99.9999999999999,6|10,3:2|0:2,0:0:0:0:
455,325,75913,1,2,0:2:0:0:
415,355,76057,2,0,P|366:359|323:334,1,99.9999999999999,2|10,3:2|0:2,0:0:0:0:
263,254,76634,2,0,P|270:205|274:151,1,99.9999999999999,2|10,3:2|0:2,0:0:0:0:
254,108,77067,1,2,0:2:0:0:
223,68,77211,2,0,P|174:56|128:74,1,99.9999999999999,2|10,3:2|0:2,0:0:0:0:
47,131,77788,6,0,P|50:180|55:230,1,99.9999999999999,6|10,3:2|0:2,0:0:0:0:
117,308,78365,1,2,3:2:0:0:
209,269,78654,1,10,0:2:0:0:
302,303,78942,2,0,P|329:262|321:214,1,99.9999999999999,2|10,3:2|0:2,0:0:0:0:
243,150,79519,1,2,3:2:0:0:
150,177,79807,1,10,0:2:0:0:
61,130,80096,6,0,P|67:80|73:30,1,99.9999999999999,6|10,3:2|0:2,0:0:0:0:
122,20,80529,1,2,0:2:0:0:
163,48,80673,2,0,P|158:76|154:114,2,50,2|2|10,3:2|0:2|0:2,0:0:0:0:
258,21,81250,2,0,P|308:21|361:18,1,99.9999999999999,14|2,0:2|3:2,0:0:0:0:
406,32,81682,2,0,P|431:73|421:121,1,99.9999999999999,14|0,0:2|3:0,0:0:0:0:
388,159,82115,1,12,0:0:0:0:
298,204,82404,6,0,P|301:253|304:303,1,99.9999999999999,14|14,0:2|0:2,0:0:0:0:
216,349,82981,2,0,P|211:320|208:282,1,50,14|0,0:2|3:0,0:0:0:0:
182,257,83269,2,0,P|186:232|189:207,1,50,14|0,0:2|3:0,0:0:0:0:
216,165,83557,1,14,0:2:0:0:
174,72,83846,2,0,P|124:79|74:81,2,99.9999999999999,14|14|14,0:2|0:2|0:2,0:0:0:0:
266,33,84711,6,0,P|313:15|364:30,1,99.9999999999999,4|8,3:2|0:0,0:0:0:0:
423,104,85288,2,0,P|415:153|411:203,1,99.9999999999999,0|8,3:0|0:0,0:0:0:0:
416,253,85721,1,0,0:0:0:0:
388,294,85865,2,0,P|339:313|289:303,1,99.9999999999999,0|8,3:0|0:0,0:0:0:0:
225,231,86442,2,0,P|224:178|222:122,1,99.9999999999999,0|8,3:0|0:0,0:0:0:0:
168,45,87019,6,0,P|124:25|75:34,1,99.9999999999999,4|12,3:2|0:2,0:0:0:0:
22,119,87596,2,0,P|17:176|13:220,1,99.9999999999999,12|0,3:2|3:0,0:0:0:0:
51,251,88029,1,12,0:0:0:0:
95,273,88173,2,0,P|143:282|188:261,1,99.9999999999999,4|12,3:2|0:0,0:0:0:0:
258,190,88750,2,0,L|313:197,1,50,12|0,3:2|1:0,0:0:0:0:
352,218,89038,2,0,L|406:213,1,50,12|0,1:2|1:0,0:0:0:0:
