osu file format v14

[General]
AudioFilename: audio.mp3
AudioLeadIn: 0
PreviewTime: 54655
Countdown: 0
SampleSet: Soft
StackLeniency: 0.5
Mode: 0
LetterboxInBreaks: 0
WidescreenStoryboard: 0

[Editor]
Bookmarks: 661,11045,20276,29507,38737,45497,54727,73189,89343
DistanceSpacing: 1.2
BeatDivisor: 4
GridSize: 8
TimelineZoom: 2.4

[Metadata]
Title:keep weaving your spider way (TV Size)
TitleUnicode:keep weaving your spider way (TV Size)
Artist:Azuna Riko
ArtistUnicode:安月名莉子
Creator:Oriental
Version:Extra
Source:蜘蛛ですが、なにか?
Tags:So I'm a Spider, So What? Kumo Desu ga, Nani ka? kumodesu anime op opening theme japanese rock
BeatmapID:2791409
BeatmapSetID:1346476

[Difficulty]
HPDrainRate:5
CircleSize:3.8
OverallDifficulty:8.8
ApproachRate:9.3
SliderMultiplier:1.95
SliderTickRate:1

[Events]
//Background and Video events
0,0,"BG.jpg",0,0
//Break Periods
//Storyboard Layer 0 (Background)
//Storyboard Layer 1 (Fail)
//Storyboard Layer 2 (Pass)
//Storyboard Layer 3 (Foreground)
//Storyboard Layer 4 (Overlay)
//Storyboard Sound Samples

[TimingPoints]
645,288.461538461538,4,2,1,55,1,0
645,-166.666666666667,4,2,1,55,0,0
5260,-125,4,2,1,60,0,0
7568,-100,4,2,1,65,0,0
9875,-250,4,2,1,40,0,0
10524,-333.333333333333,4,2,1,5,0,0
10596,-200,4,2,1,45,0,0
10669,-200,4,2,1,5,0,0
10741,-133.333333333333,4,2,1,50,0,0
10813,-133.333333333333,4,2,1,5,0,0
10885,-100,4,2,1,60,0,0
10957,-100,4,2,1,5,0,0
11029,-80,4,2,2,70,0,0
15572,-80,4,2,2,5,0,0
15644,-80,4,2,2,70,0,0
18818,-100,4,2,2,70,0,0
19683,-100,4,2,1,70,0,0
20188,-100,4,2,1,5,0,0
20260,-133.333333333333,4,2,3,60,0,0
28265,-133.333333333333,4,2,3,5,0,0
28337,-111.111111111111,4,2,3,60,0,0
29491,-100,4,2,1,70,0,0
34611,-100,4,2,1,5,0,0
34683,-100,4,2,1,70,0,0
35476,-100,4,2,1,5,0,0
35548,-100,4,2,1,70,0,0
38721,422.535211267606,4,2,1,70,1,0
38721,-71.4285714285714,4,2,1,70,0,0
45481,288.461538461538,4,2,1,50,1,0
45481,-166.666666666667,4,2,1,50,0,0
45553,-166.666666666667,4,2,1,5,0,0
46346,-166.666666666667,4,2,1,50,0,0
46562,-250,4,2,1,50,0,0
46634,-250,4,2,1,5,0,0
47500,-250,4,2,1,50,0,0
48221,-250,4,2,1,5,0,0
48365,-181.818181818182,4,2,1,50,0,0
48798,-181.818181818182,4,2,1,5,0,0
48942,-142.857142857143,4,2,1,50,0,0
49375,-142.857142857143,4,2,1,5,0,0
49519,-90.9090909090909,4,2,1,50,0,0
49952,-90.9090909090909,4,2,1,5,0,0
50096,-100,4,2,1,60,0,0
52404,-200,4,2,2,40,0,0
53485,-200,4,2,2,5,0,0
53557,-83.3333333333333,4,2,2,100,0,0
54062,-83.3333333333333,4,2,2,5,0,0
54134,-83.3333333333333,4,2,2,70,0,0
54711,-71.4285714285714,4,2,2,90,0,1
71081,-71.4285714285714,4,2,2,5,0,1
71154,-71.4285714285714,4,2,2,90,0,1
71370,-71.4285714285714,4,2,2,5,0,1
71443,-71.4285714285714,4,2,2,90,0,1
73101,-71.4285714285714,4,2,2,5,0,1
73173,-80,4,2,2,70,0,0
75697,-80,4,2,2,5,0,0
75769,-80,4,2,2,70,0,0
76851,-80,4,2,2,5,0,0
76923,-80,4,2,2,70,0,0
80312,-80,4,2,2,5,0,0
80384,-80,4,2,2,70,0,0
82404,-80,4,2,2,70,0,1
84711,-80,4,2,2,70,0,0

[Colours]
Combo1 : 247,249,145
Combo2 : 239,154,152
Combo3 : 158,239,221
Combo4 : 218,156,241

[HitObjects]
85,289,645,6,0,P|76:251|56:217,1,58.4999982147217,2|0,3:2|0:0,0:0:0:0:
163,154,933,2,0,P|159:183|156:212,1,58.4999982147217,2|0,3:2|0:0,0:0:0:0:
210,302,1221,2,0,P|226:267|252:238,1,58.4999982147217,2|0,3:2|0:0,0:0:0:0:
393,212,1510,1,2,3:2:0:0:
404,331,1654,1,2,0:2:0:0:
323,284,1798,5,2,3:2:0:0:
326,272,1943,1,0,0:0:0:0:
274,159,2087,5,2,3:2:0:0:
428,199,2231,1,2,0:2:0:0:
326,272,2375,5,2,3:2:0:0:
329,260,2520,1,0,0:0:0:0:
365,118,2664,2,0,B|373:88|373:88|362:62,1,58.4999982147217,2|0,3:2|3:0,0:0:0:0:
238,28,2952,6,0,P|209:32|179:34,1,58.4999982147217,2|0,3:2|0:0,0:0:0:0:
53,85,3241,2,0,L|110:93,1,58.4999982147217,2|0,3:2|0:0,0:0:0:0:
214,196,3529,2,0,P|187:183|159:174,1,58.4999982147217,2|0,3:2|0:0,0:0:0:0:
44,78,3818,1,2,3:2:0:0:
77,212,3962,1,2,0:2:0:0:
33,304,4106,5,2,3:2:0:0:
45,301,4251,1,0,0:0:0:0:
159,174,4394,5,2,3:2:0:0:
140,338,4539,1,2,0:2:0:0:
45,301,4683,5,2,3:2:0:0:
57,298,4828,1,0,0:0:0:0:
191,258,4971,2,0,B|221:250|221:250|246:259,1,58.4999982147217,2|0,3:2|3:0,0:0:0:0:
398,367,5260,6,0,P|401:328|404:289,1,78,6|0,3:2|0:0,0:0:0:0:
330,207,5548,2,0,P|368:203|407:200,1,78,10|0,0:2|3:0,0:0:0:0:
414,189,5765,1,0,3:0:0:0:
421,179,5837,1,2,3:2:0:0:
465,96,5981,1,0,3:0:0:0:
365,12,6125,2,0,P|327:4|292:20,1,78,10|2,0:2|3:2,0:0:0:0:
229,133,6413,5,2,3:2:0:0:
229,133,6558,1,0,3:0:0:0:
163,3,6702,2,0,P|159:42|152:81,1,78,10|2,0:2|3:2,0:0:0:0:
147,92,6919,1,0,3:0:0:0:
142,103,6991,1,2,3:2:0:0:
70,161,7134,1,0,3:0:0:0:
106,285,7279,2,0,P|144:278|184:276,1,78,10|0,0:2|3:0,0:0:0:0:
272,216,7568,5,14,0:2:0:0:
251,338,7712,1,0,3:0:0:0:
344,162,7856,5,10,0:2:0:0:
361,328,8000,1,0,3:0:0:0:
416,108,8144,5,14,0:2:0:0:
458,290,8289,2,0,P|493:252|469:207,1,97.5,0|2,3:0|3:2,0:0:0:0:
344,162,8577,1,10,1:2:0:0:
333,163,8649,1,0,1:0:0:0:
323,165,8721,5,2,3:2:0:0:
396,233,8866,1,0,3:0:0:0:
416,97,9010,2,0,P|390:57|343:52,1,97.5,14|0,0:2|0:0,0:0:0:0:
244,140,9298,2,0,P|196:144|147:149,1,97.5,14|0,3:2|1:0,0:0:0:0:
136,151,9515,1,0,1:0:0:0:
125,153,9587,1,14,3:2:0:0:
12,95,9731,1,0,1:0:0:0:
9,86,9803,1,0,1:0:0:0:
6,77,9875,6,0,B|29:23|29:23|108:32|108:32|96:67,1,175.5,2|0,1:2|0:0,0:0:0:0:
125,153,10596,6,0,P|130:172|137:193,1,24.375,2|0,0:0|0:0,0:0:0:0:
111,151,10741,6,0,P|115:168|121:185,1,36.5625013947487,2|0,0:0|0:0,0:0:0:0:
98,150,10885,6,0,P|104:172|111:195,1,48.75,2|0,0:0|0:0,0:0:0:0:
55,265,11029,6,0,B|77:281|89:314|89:314|107:287|135:275,1,121.875,6|0,3:2|0:0,0:0:0:0:
210,243,11245,1,0,0:0:0:0:
223,235,11318,2,0,P|288:232|349:261,1,121.875,10|0,0:2|0:0,0:0:0:0:
391,357,11606,2,0,P|355:302|350:234,1,121.875,2|0,3:2|0:0,0:0:0:0:
452,112,11894,2,0,P|463:160|403:188,1,121.875,10|0,0:2|0:0,0:0:0:0:
262,131,12183,6,0,P|202:119|141:116,1,121.875,2|0,3:2|0:0,0:0:0:0:
66,287,12471,2,0,P|121:267|133:210,1,121.875,10|0,0:2|0:0,0:0:0:0:
21,62,12760,2,0,P|10:120|53:159,1,121.875,2|0,3:2|0:0,0:0:0:0:
148,105,13048,1,10,0:2:0:0:
223,221,13193,6,0,B|348:249|319:135|446:159,1,243.75,4|0,3:2|3:0,0:0:0:0:
485,308,13625,1,8,0:0:0:0:
403,264,13769,1,0,3:0:0:0:
405,253,13842,1,0,3:0:0:0:
407,242,13914,1,0,3:0:0:0:
455,166,14058,1,0,3:0:0:0:
496,304,14202,1,8,0:0:0:0:
353,333,14346,6,0,P|367:193|375:75,1,243.75,0|0,3:0|3:0,0:0:0:0:
281,20,14779,1,8,0:0:0:0:
205,72,14923,1,0,3:0:0:0:
206,83,14996,1,0,3:0:0:0:
207,94,15068,1,0,3:0:0:0:
278,167,15212,1,0,3:0:0:0:
168,242,15356,2,0,B|150:255|122:278|122:278|137:208|146:155,1,182.8125,12|0,0:0|0:0,0:0:0:0:
123,72,15644,6,0,B|156:66|175:42|175:42|185:71|206:93,1,121.875,6|0,3:2|0:0,0:0:0:0:
269,158,15861,1,0,0:0:0:0:
278,167,15933,2,0,P|347:178|418:136,1,121.875,10|0,0:2|0:0,0:0:0:0:
483,299,16221,2,0,P|427:307|408:254,1,121.875,2|0,3:2|0:0,0:0:0:0:
447,83,16510,2,0,P|482:131|480:191,1,121.875,10|0,0:2|0:0,0:0:0:0:
321,288,16798,6,0,P|262:276|201:269,1,121.875,2|0,3:2|0:0,0:0:0:0:
43,293,17087,2,0,P|59:344|122:330,1,121.875,10|0,0:2|0:0,0:0:0:0:
104,124,17375,2,0,P|90:182|113:241,1,121.875,2|0,3:2|0:0,0:0:0:0:
243,349,17664,2,0,P|303:330|314:272,1,121.875,10|0,0:2|0:0,0:0:0:0:
462,200,17952,6,0,B|434:173|434:173|349:184,1,121.875,12|0,0:0|3:0,0:0:0:0:
340,188,18169,1,0,3:0:0:0:
328,192,18241,1,0,3:0:0:0:
230,32,18385,2,0,B|186:59|186:59|199:199|199:199|246:219,1,243.75,12|0,0:0|3:0,0:0:0:0:
410,307,18818,6,0,P|312:313|215:320,1,195,12|4,0:0|3:2,0:0:0:0:
90,363,19250,1,8,0:3:0:0:
141,283,19394,1,8,0:3:0:0:
142,273,19467,1,8,0:3:0:0:
144,263,19539,1,4,0:3:0:0:
49,206,19683,6,0,B|79:164|83:110|83:110|103:154|106:185|106:185|123:163|134:137|134:137|144:158|152:176|152:176|165:168|174:158|174:158|189:171|205:167,1,341.25,10|0,3:0|0:0,0:0:0:0:
277,117,20260,6,0,B|299:148|299:148|287:181,1,73.1250027894975,4|0,3:2|0:0,0:0:0:0:
228,294,20548,1,2,3:2:0:0:
312,267,20693,1,2,0:2:0:0:
217,298,20837,2,0,P|180:301|147:286,1,73.1250027894975,2|0,3:2|0:0,0:0:0:0:
48,191,21125,1,2,3:2:0:0:
20,277,21269,1,2,0:2:0:0:
52,181,21414,6,0,P|85:166|121:169,1,73.1250027894975,2|0,3:2|0:0,0:0:0:0:
196,218,21702,1,2,3:2:0:0:
196,218,21847,1,2,0:2:0:0:
289,149,21991,2,0,P|283:221|277:294,1,146.250005578995,2|2,3:2|3:2,0:0:0:0:
200,354,22423,1,2,0:2:0:0:
364,325,22568,6,0,P|421:283|423:213,1,146.250005578995,2|2,3:2|3:2,0:0:0:0:
344,78,23000,2,0,P|277:91|280:157,1,146.250005578995,2|2,0:2|0:2,0:0:0:0:
422,126,23433,2,0,P|436:92|432:56,1,73.1250027894975,2|0,3:2|0:0,0:0:0:0:
255,53,23721,6,0,P|219:59|182:63,1,73.1250027894975,0|0,3:0|0:0,0:0:0:0:
28,54,24010,2,0,P|100:60|172:75,1,146.250005578995,0|2,3:0|3:2,0:0:0:0:
216,187,24443,1,2,0:2:0:0:
160,259,24587,2,0,P|123:264|87:268,1,73.1250027894975,2|2,3:2|0:2,0:0:0:0:
53,151,24875,5,6,3:2:0:0:
217,187,25019,2,0,P|210:264|206:347,1,146.250005578995,2|2,0:2|0:0,0:0:0:0:
297,239,25452,1,2,3:2:0:0:
199,340,25596,1,2,0:2:0:0:
306,230,25741,1,2,3:2:0:0:
356,330,25885,6,0,P|388:316|401:277,1,73.1250027894975,2|0,0:2|3:0,0:0:0:0:
233,180,26173,2,0,P|266:195|385:181,1,146.250005578995,2|0,0:0|0:0,0:0:0:0:
487,47,26606,1,2,3:2:0:0:
381,179,26750,1,2,0:2:0:0:
320,20,26894,1,2,3:2:0:0:
474,167,27039,6,0,P|476:240|482:312,1,146.250005578995,2|2,0:2|0:2,0:0:0:0:
304,368,27471,1,2,3:2:0:0:
341,284,27616,1,2,0:2:0:0:
408,363,27760,1,2,3:2:0:0:
395,358,27904,1,2,0:2:0:0:
249,291,28048,2,0,P|193:312|188:364,1,109.687504184246,6|0,3:2|0:0,0:0:0:0:
175,368,28337,6,0,P|170:324|162:281,1,87.7499973220826,6|0,3:2|0:0,0:0:0:0:
68,122,28625,1,2,3:2:0:0:
11,245,28769,2,0,B|97:264|86:183|169:190,1,175.499994644165,6|6,3:2|1:2,0:0:0:0:
250,212,29130,1,0,1:0:0:0:
263,217,29202,2,0,P|260:244|259:282,1,43.8749986610413,0|0,1:0|1:0,0:0:0:0:
350,201,29346,2,0,P|347:228|346:266,1,43.8749986610413,0|0,1:0|1:0,0:0:0:0:
415,361,29491,6,0,B|437:338|437:338|426:271,1,97.5,6|0,3:2|0:0,0:0:0:0:
380,108,29779,1,10,0:0:0:0:
510,146,29924,2,0,P|479:181|432:181,1,97.5,2|0,0:2|3:0,0:0:0:0:
307,54,30212,2,0,P|268:28|220:30,1,97.5,2|8,0:2|0:0,0:0:0:0:
136,124,30500,1,0,0:0:0:0:
33,26,30644,6,0,P|38:74|41:123,1,97.5,2|0,3:2|0:0,0:0:0:0:
144,217,30932,1,10,0:2:0:0:
8,283,31077,2,0,B|47:311|47:311|93:294,1,97.5,2|0,0:2|3:0,0:0:0:0:
232,361,31366,2,0,P|227:313|224:264,1,97.5,2|8,0:2|0:0,0:0:0:0:
296,175,31653,1,0,0:0:0:0:
445,244,31798,6,0,P|465:287|453:333,1,97.5,6|0,3:2|0:0,0:0:0:0:
364,374,32086,1,10,0:2:0:0:
288,185,32231,2,0,P|336:183|382:168,1,97.5,2|0,0:2|3:0,0:0:0:0:
498,56,32519,2,0,P|473:17|427:18,1,97.5,2|8,0:2|0:0,0:0:0:0:
485,168,32807,1,0,0:0:0:0:
345,72,32952,6,0,P|298:56|250:54,1,97.5,2|0,3:2|0:0,0:0:0:0:
110,172,33240,1,10,0:2:0:0:
159,9,33385,2,0,P|164:57|169:105,1,97.5,2|0,0:2|3:0,0:0:0:0:
47,243,33673,2,0,P|22:207|24:144,1,97.5,2|8,0:2|0:0,0:0:0:0:
196,203,33961,1,0,0:0:0:0:
107,311,34106,6,0,B|129:299|135:273|135:273|143:297|167:305,1,97.5,4|0,3:2|0:0,0:0:0:0:
291,205,34394,2,0,P|278:276|271:349,1,146.25,10|0,0:2|0:0,0:0:0:0:
347,383,34683,2,0,P|391:351|375:302,1,97.5,2|0,3:2|0:0,0:0:0:0:
302,199,34971,1,10,0:2:0:0:
452,151,35116,1,2,0:2:0:0:
256,60,35260,6,0,P|339:72|412:76,1,146.25,2|0,3:2|0:0,0:0:0:0:
447,8,35548,2,0,P|493:7|511:49,1,97.5,10|0,0:2|0:0,0:0:0:0:
481,241,35837,2,0,P|432:242|388:221,1,97.5,2|0,3:2|0:0,0:0:0:0:
223,140,36125,2,0,P|174:143|126:149,1,97.5,10|0,0:2|0:0,0:0:0:0:
98,25,36414,6,0,P|52:38|37:82,1,97.5,14|0,0:2|3:0,0:0:0:0:
39,95,36630,1,0,3:0:0:0:
42,107,36702,1,0,3:0:0:0:
86,241,36846,2,0,P|184:243|281:255,1,195,14|0,0:2|3:0,0:0:0:0:
446,199,37279,2,0,B|475:160|475:160|456:115,1,97.5,14|0,0:2|0:0,0:0:0:0:
334,51,37568,5,4,3:2:0:0:
227,173,37712,2,0,P|226:197|237:218,1,48.75,8|0,0:0|0:0,0:0:0:0:
374,248,37856,2,0,P|353:235|329:234,1,48.75,8|0,0:0|0:0,0:0:0:0:
233,337,38000,2,0,P|254:325|267:305,1,48.75,0|0,3:0|0:0,0:0:0:0:
300,133,38144,1,8,0:3:0:0:
280,133,38216,1,8,0:3:0:0:
260,134,38288,1,8,0:3:0:0:
240,135,38360,1,8,0:3:0:0:
221,136,38432,1,4,0:3:0:0:
202,136,38504,1,4,0:3:0:0:
182,137,38576,1,4,0:3:0:0:
163,138,38648,1,4,0:3:0:0:
143,139,38721,6,0,B|172:182|172:182|179:102|187:46,1,181.999994445801,6|2,3:1|0:2,0:0:0:0:
4,37,39143,2,0,P|14:120|24:217,1,181.999994445801,2|0,3:2|0:0,0:0:0:0:
120,325,39566,2,0,B|162:314|183:265|183:265|205:310|255:312,1,181.999994445801,2|0,3:2|0:0,0:0:0:0:
437,284,39988,5,2,3:2:0:0:
400,190,40129,1,2,1:2:0:0:
337,268,40270,1,2,1:2:0:0:
491,151,40411,6,0,P|400:143|309:133,1,181.999994445801,6|2,3:2|0:2,0:0:0:0:
196,43,40833,2,0,B|235:8|235:8|224:78|218:136,1,181.999994445801,2|0,3:2|0:0,0:0:0:0:
244,257,41256,2,0,B|279:218|279:218|209:229|150:234,1,181.999994445801,2|0,3:2|0:0,0:0:0:0:
17,312,41678,5,0,3:0:0:0:
115,314,41819,2,0,P|70:306|24:301,1,90.9999972229005,0|0,1:0|1:0,0:0:0:0:
39,118,42101,5,2,3:2:0:0:
135,148,42242,1,2,3:2:0:0:
60,216,42383,1,2,3:2:0:0:
116,58,42523,2,0,B|188:54|188:54|221:76|221:76|290:72,1,181.999994445801,14|2,0:2|0:0,0:0:0:0:
465,156,42946,5,2,3:2:0:0:
369,126,43087,1,2,3:2:0:0:
442,57,43228,1,2,3:2:0:0:
386,215,43368,2,0,B|298:230|308:151|215:172,1,181.999994445801,14|0,0:2|0:0,0:0:0:0:
47,232,43791,5,2,3:2:0:0:
143,259,43932,1,2,3:2:0:0:
120,161,44073,1,2,3:2:0:0:
72,322,44213,2,0,P|160:309|255:304,1,181.999994445801,14|0,0:2|0:0,0:0:0:0:
293,182,44636,6,0,P|328:207|329:251,1,90.9999972229005,2|0,3:2|3:0,0:0:0:0:
245,313,44918,1,2,3:2:0:0:
215,135,45059,2,0,P|303:147|398:152,1,181.999994445801,14|0,0:2|0:0,0:0:0:0:
486,90,45481,6,0,B|453:59|398:77|387:130|413:165|445:171|445:171|489:179|508:233|473:275|429:275|405:252,1,350.99998928833,6|2,0:2|0:2,0:0:0:0:
307,190,46562,6,0,P|180:198|53:203,1,253.5,2|0,0:2|0:0,0:0:0:0:
161,154,47788,6,0,B|141:104|187:93|167:41,1,117,2|0,0:2|0:0,0:0:0:0:
245,159,48365,6,0,B|169:110|238:74|158:32,1,160.875004909516,2|0,0:2|0:0,0:0:0:0:
324,119,48942,6,0,B|205:102|266:31|151:25,1,204.749993751526,2|0,0:2|0:0,0:0:0:0:
88,122,49519,6,0,B|247:153|220:-2|380:31,1,321.750009819031,2|0,0:3|0:0,0:0:0:0:
506,138,50096,5,14,0:2:0:0:
400,118,50240,1,2,3:2:0:0:
469,36,50384,1,2,3:2:0:0:
437,220,50529,5,14,0:2:0:0:
355,149,50673,1,2,3:2:0:0:
455,113,50817,1,2,3:2:0:0:
336,256,50962,5,14,0:2:0:0:
300,154,51106,1,2,3:2:0:0:
405,172,51250,1,2,3:2:0:0:
230,236,51394,5,14,0:2:0:0:
250,130,51538,1,2,3:2:0:0:
332,198,51682,1,2,3:2:0:0:
148,168,51827,6,0,P|153:119|158:60,1,97.5,14|0,0:2|0:0,0:0:0:0:
63,169,52115,2,0,P|68:120|73:61,1,97.5,14|0,0:2|0:0,0:0:0:0:
133,258,52404,6,0,B|135:258|135:258|138:267|138:267|146:268|146:268|147:276|147:276|154:279|154:279|154:287|154:287|159:293|159:293|157:299|157:299|161:307|161:307|156:313|156:313|158:320|158:320|152:326|152:326|153:334|153:334|145:337|145:337|143:345|143:345|135:346|135:346|132:353|132:353|124:351|124:351|119:358|119:358|111:354|111:354|104:360|104:360|97:354|97:354|89:357|89:357|85:350|85:350|77:351|77:351|73:343|73:343|65:341|65:341|64:333|64:333|58:329|58:329|59:321|59:321|52:315|52:315|56:309|56:309|52:302|52:302|58:295|58:295|55:288|55:288|62:282|62:282|61:274|61:274|69:272|69:272|70:264|70:264|80:263|80:263|83:255|83:255|91:258|91:258|96:251|96:251|104:255|104:255|111:253,1,365.625,2|0,0:3|0:0,0:0:0:0:
107,306,53557,6,2,B|190:333|235:358|235:358|255:304|255:304|250:287|250:287|268:240|268:240|337:276|403:293,1,409.499987503052,6|0,2:1|0:1,2:1:0:0:
483,312,54134,1,0,3:0:0:0:
476,193,54279,1,0,1:0:0:0:
475,173,54351,1,0,1:0:0:0:
474,154,54423,1,8,1:3:0:0:
473,134,54495,1,8,1:3:0:0:
472,115,54567,1,4,1:3:0:0:
471,95,54639,1,4,1:3:0:0:
470,76,54711,6,0,B|413:38|413:38|345:62,1,136.499995834351,6|0,3:2|0:0,0:0:0:0:
281,235,55000,2,0,P|213:244|147:261,1,136.499995834351,10|0,0:2|0:0,0:0:0:0:
53,50,55288,2,0,P|119:66|186:75,1,136.499995834351,2|0,3:2|0:0,0:0:0:0:
39,236,55577,1,10,0:2:0:0:
218,346,55721,1,2,0:2:0:0:
177,167,55865,5,2,3:2:0:0:
177,167,56009,1,2,0:2:0:0:
104,360,56154,1,10,0:2:0:0:
333,311,56298,2,0,P|369:258|357:186,1,136.499995834351,2|0,0:2|3:0,0:0:0:0:
508,139,56586,2,0,P|469:88|396:77,1,136.499995834351,2|8,0:2|0:0,0:0:0:0:
281,235,56875,1,2,3:2:0:0:
474,222,57019,6,0,P|339:201|203:185,1,272.999991668701,6|10,3:2|0:2,0:0:0:0:
70,361,57452,1,2,0:2:0:0:
109,145,57596,1,2,3:2:0:0:
198,347,57740,1,2,0:2:0:0:
16,249,57884,2,0,P|11:182|1:113,1,136.499995834351,10|0,0:2|0:0,0:0:0:0:
202,62,58173,5,2,3:2:0:0:
106,242,58317,1,2,0:2:0:0:
64,39,58461,1,10,0:2:0:0:
203,185,58605,2,0,B|344:212|300:79|446:103,1,272.999991668701,2|0,0:2|0:0,0:0:0:0:
510,301,59038,1,8,0:0:0:0:
367,268,59182,1,8,0:0:0:0:
371,258,59255,1,8,0:0:0:0:
375,248,59327,6,0,B|405:188|405:188|448:242,1,136.499995834351,6|0,3:2|0:0,0:0:0:0:
295,366,59615,2,0,P|227:355|159:353,1,136.499995834351,10|0,0:2|0:0,0:0:0:0:
39,168,59904,2,0,P|64:108|133:108,1,136.499995834351,2|0,3:2|0:0,0:0:0:0:
233,311,60193,1,10,0:2:0:0:
32,260,60337,1,0,0:0:0:0:
263,203,60480,5,2,3:2:0:0:
263,203,60624,1,2,0:2:0:0:
138,355,60769,1,10,0:2:0:0:
208,140,60913,2,0,P|274:154|342:161,1,136.499995834351,2|0,0:2|3:0,0:0:0:0:
379,312,61202,2,0,P|434:278|433:213,1,136.499995834351,2|8,0:2|0:0,0:0:0:0:
250,41,61490,1,2,0:2:0:0:
293,286,61634,5,6,3:2:0:0:
354,40,61779,1,2,0:2:0:0:
150,77,61923,2,0,P|159:144|165:212,1,136.499995834351,10|0,0:2|0:0,0:0:0:0:
29,365,62211,1,2,3:2:0:0:
211,294,62355,1,2,0:2:0:0:
42,219,62500,1,10,0:2:0:0:
133,364,62644,1,2,0:2:0:0:
247,221,62788,6,0,P|252:288|262:356,1,136.499995834351,6|2,3:2|1:2,0:0:0:0:
338,374,63005,1,0,1:0:0:0:
348,370,63077,1,2,1:2:0:0:
462,194,63221,2,0,B|324:228|334:102|206:131,1,272.999991668701,6|0,3:2|3:0,0:0:0:0:
36,183,63654,2,0,B|13:247|13:247|50:305,1,136.499995834351,12|0,0:0|3:0,0:0:0:0:
270,350,63942,5,14,0:2:0:0:
318,117,64086,1,2,3:2:0:0:
152,266,64230,5,10,0:2:0:0:
386,296,64375,1,2,3:2:0:0:
216,122,64519,5,14,0:2:0:0:
273,362,64663,1,2,3:2:0:0:
391,180,64807,5,10,0:2:0:0:
148,233,64952,1,2,3:2:0:0:
393,303,65096,6,0,B|396:262|396:262|378:230|378:230|383:172,1,136.499995834351,14|0,0:2|0:0,0:0:0:0:
249,6,65384,1,10,0:2:0:0:
437,113,65529,2,0,P|370:120|298:125,1,136.499995834351,6|8,3:2|0:0,0:0:0:0:
139,244,65817,2,0,P|103:190|143:138,1,136.499995834351,6|8,3:2|0:0,0:0:0:0:
342,239,66105,1,0,3:0:0:0:
187,68,66250,5,14,0:2:0:0:
232,291,66394,1,2,3:2:0:0:
282,52,66538,5,10,0:2:0:0:
248,297,66682,1,2,3:2:0:0:
131,157,66827,5,14,0:2:0:0:
357,118,66972,1,2,3:2:0:0:
122,175,67115,5,10,0:2:0:0:
353,230,67260,1,2,3:2:0:0:
190,57,67404,6,0,P|200:124|209:193,1,136.499995834351,14|0,0:2|0:0,0:0:0:0:
291,384,67692,1,10,0:2:0:0:
107,316,67836,2,0,B|83:249|83:249|113:189,1,136.499995834351,6|8,3:2|0:0,0:0:0:0:
315,156,68125,2,0,P|304:223|296:291,1,136.499995834351,6|8,3:2|0:0,0:0:0:0:
236,121,68413,1,0,3:0:0:0:
386,263,68557,6,0,P|449:257|463:195,1,136.499995834351,14|0,3:2|3:0,0:0:0:0:
300,60,68846,2,0,P|231:65|163:69,1,136.499995834351,10|0,0:2|3:0,0:0:0:0:
33,184,69134,2,0,P|32:250|79:297,1,136.499995834351,10|0,0:2|3:0,0:0:0:0:
259,330,69423,1,2,3:2:0:0:
0,355,69567,6,0,P|134:332|270:318,1,272.999991668701,6|2,3:2|3:2,0:0:0:0:
489,308,70000,2,0,P|467:368|403:373,1,136.499995834351,14|0,0:2|0:0,0:0:0:0:
309,202,70288,1,14,0:2:0:0:
439,72,70432,1,8,1:3:0:0:
438,92,70504,1,8,1:3:0:0:
437,111,70576,1,4,1:3:0:0:
436,131,70648,1,4,1:3:0:0:
435,150,70720,1,4,1:3:0:0:
434,170,70792,1,4,1:3:0:0:
433,189,70864,6,0,B|434:244|386:275|386:275|320:262|310:214,1,204.749993751526,6|0,3:2|0:0,0:0:0:0:
319,131,71154,2,0,B|320:76|272:45|272:45|206:58|196:105,1,204.749993751526,2|0,3:2|0:0,0:0:0:0:
188,188,71442,1,2,3:2:0:0:
326,337,71586,1,2,0:2:0:0:
149,377,71730,1,2,3:2:0:0:
320,222,71875,1,2,0:2:0:0:
147,270,72019,6,0,P|102:221|104:155,1,136.499995834351,6|0,3:2|1:0,0:0:0:0:
112,144,72235,1,0,1:0:0:0:
122,135,72307,1,10,1:2:0:0:
48,311,72452,2,0,P|80:179|91:43,1,272.999991668701,6|8,3:2|0:0,0:0:0:0:
280,11,72884,2,0,P|369:42|355:136,1,204.749993751526,0|0,3:0|0:0,0:0:0:0:
300,208,73173,6,0,B|271:184|268:157|268:157|259:183|225:195,1,121.875,6|0,3:2|0:0,0:0:0:0:
177,272,73389,1,0,0:0:0:0:
186,283,73461,2,0,P|247:283|305:302,1,121.875,10|0,0:2|0:0,0:0:0:0:
403,229,73750,2,0,P|433:279|397:324,1,121.875,2|0,3:2|0:0,0:0:0:0:
452,163,74038,2,0,P|394:181|333:181,1,121.875,10|0,0:2|0:0,0:0:0:0:
170,72,74327,6,0,P|227:73|250:126,1,121.875,2|0,3:2|0:0,0:0:0:0:
169,279,74615,2,0,P|141:228|176:181,1,121.875,10|0,0:2|0:0,0:0:0:0:
380,247,74904,2,0,P|322:234|221:217,1,121.875,2|0,3:2|0:0,0:0:0:0:
124,360,75192,2,0,P|179:369|243:334,1,121.875,10|0,0:2|0:0,0:0:0:0:
45,313,75480,6,0,P|135:326|226:334,1,182.8125,6|0,3:2|0:0,0:0:0:0:
313,319,75769,1,10,0:2:0:0:
350,168,75913,1,2,0:2:0:0:
486,262,76057,2,0,P|429:278|379:246,1,121.875,2|0,3:2|0:0,0:0:0:0:
313,59,76346,2,0,P|355:99|352:158,1,121.875,10|0,0:2|0:0,0:0:0:0:
213,239,76634,6,0,B|118:250|142:171|47:183,1,182.8125,2|0,3:2|0:0,0:0:0:0:
10,259,76923,1,10,0:2:0:0:
128,324,77067,1,2,0:2:0:0:
199,152,77211,2,0,P|215:93|217:32,1,121.875,2|0,3:2|0:0,0:0:0:0:
389,13,77500,2,0,P|440:40|438:97,1,121.875,10|0,0:2|0:0,0:0:0:0:
378,153,77716,1,0,0:0:0:0:
369,161,77788,6,0,P|375:225|378:288,1,121.875,6|0,3:2|0:0,0:0:0:0:
423,352,78005,1,0,0:0:0:0:
434,358,78077,2,0,P|490:345|503:289,1,121.875,10|0,0:2|0:0,0:0:0:0:
369,274,78365,2,0,P|308:269|247:261,1,121.875,2|0,3:2|0:0,0:0:0:0:
94,381,78654,2,0,P|58:333|71:276,1,121.875,10|0,0:2|0:0,0:0:0:0:
239,172,78942,6,0,P|216:226|159:243,1,121.875,2|0,3:2|0:0,0:0:0:0:
23,181,79230,2,0,P|15:120|4:60,1,121.875,10|0,0:2|0:0,0:0:0:0:
180,4,79519,2,0,P|169:64|161:124,1,121.875,2|0,3:2|0:0,0:0:0:0:
247,261,79807,2,0,P|312:248|381:243,1,121.875,10|0,0:2|0:0,0:0:0:0:
448,137,80096,6,0,B|480:144|480:144|503:185|497:256|450:277,1,182.8125,6|0,3:2|0:0,0:0:0:0:
358,251,80384,2,0,P|355:191|347:130,1,121.875,10|2,0:2|0:2,0:0:0:0:
219,75,80673,1,2,3:2:0:0:
219,75,80817,1,2,0:2:0:0:
324,2,80961,1,10,0:2:0:0:
265,185,81105,1,2,0:2:0:0:
157,21,81250,6,0,P|162:81|167:142,1,121.875,14|0,0:2|1:0,0:0:0:0:
162,155,81466,1,0,1:0:0:0:
158,167,81538,1,2,3:2:0:0:
4,290,81682,2,0,B|100:299|100:299|147:267|147:267|236:276,1,243.75,14|0,0:2|3:0,0:0:0:0:
389,362,82115,2,0,B|423:337|423:337|416:257,1,121.875,12|0,0:0|3:0,0:0:0:0:
381,87,82404,5,14,0:2:0:0:
328,292,82548,1,0,3:0:0:0:
273,129,82692,5,14,0:2:0:0:
451,173,82836,1,0,3:0:0:0:
261,122,82980,5,14,0:2:0:0:
316,301,83125,1,0,3:0:0:0:
281,36,83268,5,14,0:2:0:0:
229,267,83413,1,0,3:0:0:0:
147,58,83557,6,0,P|157:117|166:178,1,121.875,14|0,0:2|3:0,0:0:0:0:
101,241,83774,1,0,3:0:0:0:
90,247,83846,2,0,P|38:221|44:165,1,121.875,14|0,0:2|3:0,0:0:0:0:
156,48,84134,2,0,P|216:54|278:59,1,121.875,14|0,0:2|3:0,0:0:0:0:
362,37,84351,1,0,3:0:0:0:
374,44,84423,2,0,P|386:71|383:101,1,60.9375,14|0,1:2|1:0,0:0:0:0:
470,122,84567,2,0,P|460:150|438:170,1,60.9375,0|0,1:0|1:0,0:0:0:0:
332,260,84711,6,0,P|271:253|210:249,1,121.875,4|0,3:2|0:0,0:0:0:0:
50,125,85000,2,0,P|21:174|61:214,1,121.875,8|8,0:0|0:3,0:0:0:0:
140,183,85216,1,4,0:3:0:0:
145,169,85288,2,0,P|160:97|166:30,1,121.875,0|0,3:0|3:0,0:0:0:0:
276,199,85577,1,8,0:0:0:0:
107,294,85721,1,0,0:0:0:0:
211,121,85865,5,0,3:0:0:0:
211,121,86009,1,0,3:0:0:0:
232,330,86154,2,0,B|284:360|284:360|346:341,1,121.875,8|0,0:0|3:0,0:0:0:0:
355,337,86370,1,0,3:0:0:0:
367,332,86442,1,0,3:0:0:0:
399,202,86586,1,0,3:0:0:0:
466,355,86730,2,0,P|472:298|482:223,1,121.875,8|0,0:0|3:0,0:0:0:0:
477,150,86947,1,0,3:0:0:0:
467,140,87019,6,0,P|412:112|353:123,1,121.875,4|0,3:2|0:0,0:0:0:0:
179,192,87307,2,0,P|177:248|230:267,1,121.875,12|0,0:2|0:0,0:0:0:0:
271,84,87596,2,0,P|217:95|132:101,1,121.875,12|0,3:2|3:0,0:0:0:0:
102,296,87884,1,0,3:0:0:0:
266,185,88029,1,12,0:0:0:0:
64,146,88173,6,0,P|68:176|71:206,1,60.9375,4|0,3:2|0:0,0:0:0:0:
75,137,88317,2,0,P|79:167|82:197,1,60.9375,0|0,3:2|0:0,0:0:0:0:
200,328,88460,2,0,P|203:297|207:267,1,60.9375,12|0,0:0|0:0,0:0:0:0:
211,337,88605,2,0,P|214:306|218:276,1,60.9375,0|0,3:0|0:0,0:0:0:0:
348,162,88750,5,12,3:2:0:0:
456,258,88894,1,0,1:0:0:0:
451,266,88966,1,0,1:0:0:0:
446,275,89038,2,0,P|412:279|378:263,1,60.9375,12|0,1:2|1:0,0:0:0:0:
483,104,89182,2,0,P|487:134|490:164,1,60.9375,0|0,1:0|1:0,0:0:0:0:
