osu file format v14

[General]
AudioFilename: audio.mp3
AudioLeadIn: 0
PreviewTime: 53743
Countdown: 0
SampleSet: Soft
StackLeniency: 0.4
Mode: 0
LetterboxInBreaks: 0
WidescreenStoryboard: 1

[Editor]
Bookmarks: 17408
DistanceSpacing: 1
BeatDivisor: 4
GridSize: 4
TimelineZoom: 2.2

[Metadata]
Title:be perfect, plz! (TV Size)
TitleUnicode:be perfect, plz! (TV Size)
Artist:Azuna Riko
ArtistUnicode:安月名莉子
Creator:kanpakyin
Version:Normal
Source:慎重勇者〜この勇者が俺TUEEEくせに慎重すぎる〜
Tags:anime japanese ed ending Kono Yuusha ga Ore Tueee Kuse ni Shinchou Sugiru The Hero is Overpowered but Overly Cautious リスタルテ j-pop タナカ零
BeatmapID:2307763
BeatmapSetID:1098057

[Difficulty]
HPDrainRate:4
CircleSize:4
OverallDifficulty:4
ApproachRate:5
SliderMultiplier:1
SliderTickRate:1

[Events]
//Background and Video events
0,0,"bg.jpg",0,0
Video,-900,"video.avi"
//Break Periods
//Storyboard Layer 0 (Background)
//Storyboard Layer 1 (Fail)
//Storyboard Layer 2 (Pass)
//Storyboard Layer 3 (Foreground)
//Storyboard Layer 4 (Overlay)
//Storyboard Sound Samples

[TimingPoints]
9,365.853658536585,4,2,1,60,1,0
11716,-100,4,3,1,60,0,0
12996,-100,4,2,1,60,0,0
13545,-125,4,2,1,60,0,0
19033,-125,4,2,2,60,0,0
19948,-125,4,2,1,60,0,0
21045,-125,4,2,2,60,0,0
21137,-125,4,2,1,60,0,0
22143,-125,4,2,2,60,0,0
25069,-125,4,2,1,60,0,0
28362,-125,4,2,2,60,0,0
31746,-125,4,2,1,60,0,0
34399,-125,4,2,2,60,0,0
36228,-125,4,2,1,60,0,0
36594,-111.111111111111,4,2,1,60,0,0
52691,-111.111111111111,4,3,1,60,0,0
54155,-100,4,2,1,70,0,1
74643,-100,4,3,1,70,0,1
76106,-100,4,3,2,70,0,1
76198,-100,4,3,1,70,0,1
77387,-100,4,2,1,70,0,1
86899,-100,4,2,2,70,0,1
87813,-100,4,3,1,70,0,1
88911,-100,4,2,1,70,0,0

[Colours]
Combo1 : 255,149,202
Combo2 : 255,255,128
Combo3 : 0,128,255

[HitObjects]
127,137,9,5,2,0:0:0:0:
186,56,374,1,2,0:0:0:0:
223,88,557,2,0,B|268:113|321:90|321:90|278:136|301:189,1,200,0|0,3:0|3:0,0:0:0:0:
331,217,1472,1,4,3:1:0:0:
230,316,2021,5,0,3:0:0:0:
230,316,2204,2,0,L|214:216,1,100,8|0,0:0|0:0,0:0:0:0:
131,160,2935,2,0,P|105:124|112:57,1,100,0|0,3:0|3:0,0:0:0:0:
203,94,3667,1,8,0:0:0:0:
268,18,4033,1,2,0:0:0:0:
303,111,4399,6,0,L|454:86,1,150,4|0,3:2|3:0,0:0:0:0:
494,110,5130,2,0,P|496:157|474:205,1,100,8|0,0:0|0:0,0:0:0:0:
374,217,5862,5,0,3:0:0:0:
392,263,6045,1,0,0:0:0:0:
410,309,6228,2,0,B|349:295|349:295|307:321|262:306,1,150,2|0,3:2|3:0,0:0:0:0:
224,335,6960,2,0,P|207:340|166:330,1,50,0|0,3:0|3:0,0:0:0:0:
151,291,7326,6,0,P|157:338|129:391,2,100,6|0|2,3:2|3:0|3:2,0:0:0:0:
82,218,8423,1,0,3:2:0:0:
179,195,8789,1,6,3:2:0:0:
105,126,9155,5,2,3:2:0:0:
90,99,9338,1,0,0:0:0:0:
76,72,9521,2,0,L|89:17,2,50,0|2|0,3:0|0:0|3:0,0:0:0:0:
173,50,10252,6,0,B|210:33|257:37|257:37|285:67|325:57,2,150,4|4|4,3:2|3:2|3:2,0:0:0:0:
207,153,11716,1,0,0:0:0:0:
207,153,11899,1,2,0:2:0:0:
207,153,12082,2,0,L|200:207,1,50,2|0,0:2|0:2,0:0:0:0:
225,246,12448,2,0,P|252:256|283:249,1,50,2|0,0:2|0:0,0:0:0:0:
312,223,12813,2,0,L|425:248,1,100,2|2,3:2|0:0,0:0:0:0:
396,323,13545,6,0,L|485:311,2,80,0|0|0,3:0|3:0|3:0,0:0:0:0:
325,361,14643,2,0,L|240:346,1,80,0|0,3:0|3:0,3:0:0:0:
167,359,15374,1,0,3:0:0:0:
110,303,15740,1,0,3:0:0:0:
101,263,15923,1,0,0:0:0:0:
119,227,16106,6,0,L|26:238,1,80,2|0,3:2|3:0,0:0:0:0:
7,162,16838,2,0,L|99:150,1,80,0|0,3:0|3:0,0:0:0:0:
123,137,17387,1,0,0:0:0:0:
147,105,17569,2,0,P|158:65|147:24,2,80,0|2|0,3:2|3:2|3:0,0:0:0:0:
216,163,18667,5,0,3:0:0:0:
216,163,18850,1,0,0:0:0:0:
216,163,19033,2,0,L|311:147,1,80,6|0,3:2|0:0,0:0:0:0:
327,172,19582,2,0,P|345:133|335:50,1,120,6|0,0:2|0:0,0:0:0:0:
264,28,20496,6,0,L|171:43,1,80,0|0,3:0|3:0,0:0:0:0:
147,32,21045,1,6,0:0:0:0:
46,97,21594,1,0,3:0:0:0:
17,124,21777,1,0,0:0:0:0:
10,163,21960,2,0,L|22:255,1,80,2|0,3:2|3:0,0:0:0:0:
94,273,22691,6,0,L|83:354,2,80,2|0|2,3:2|3:0|3:2,0:0:0:0:
156,222,23789,1,0,3:0:0:0:
205,285,24155,1,2,3:2:0:0:
240,304,24338,1,0,0:0:0:0:
275,322,24521,1,0,3:2:0:0:
338,272,24887,6,0,L|429:261,1,80,6|0,3:2|3:0,0:0:0:0:
456,192,25618,1,0,3:0:0:0:
501,257,25984,2,0,P|494:302|462:333,2,80,0|2|2,3:0|3:2|3:2,0:0:0:0:
456,192,27082,5,0,3:0:0:0:
481,161,27265,1,0,0:0:0:0:
491,122,27448,1,2,3:2:0:0:
464,47,27813,2,0,L|382:63,1,80,0|0,3:0|3:0,0:0:0:0:
332,122,28545,2,0,L|246:105,1,80,2|0,3:2|3:0,0:0:0:0:
179,76,29277,6,0,P|168:127|195:196,1,120,2|0,3:2|0:0,0:0:0:0:
215,220,30008,2,0,L|302:210,1,80,2|0,3:2|3:0,0:0:0:0:
319,286,30740,6,0,L|409:293,1,80,6|0,3:2|3:0,0:0:0:0:
434,309,31289,2,0,B|456:277|456:277|429:239|448:188,1,120,6|2,0:0|3:2,0:0:0:0:
490,134,32204,1,0,3:0:0:0:
446,67,32569,5,2,3:2:0:0:
446,67,32752,2,0,B|403:48|403:48|354:78|320:64,1,120,2|0,0:0|3:0,0:0:0:0:
296,55,33484,1,0,0:0:0:0:
271,23,33667,2,0,L|267:111,1,80,4|0,3:2|3:0,0:0:0:0:
245,136,34216,1,0,0:0:0:0:
208,152,34399,6,0,B|161:129|141:167|80:145,1,120,2|0,3:2|1:0,0:0:0:0:
54,130,35130,2,0,P|36:101|30:51,2,80,2|0|2,1:2|1:0|1:2,0:0:0:0:
29,206,36228,1,2,1:2:0:0:
76,271,36594,6,0,L|68:354,2,67.4999979400635,4|0|0,3:2|0:0|3:0,0:0:0:0:
118,255,37326,1,8,0:0:0:0:
182,317,37691,5,0,0:0:0:0:
217,344,37874,2,0,P|246:342|269:332,1,44.999998626709,0|0,0:0|3:0,0:0:0:0:
286,249,38423,2,0,L|340:263,1,44.999998626709,0|0,3:0|0:0,0:0:0:0:
373,251,38789,2,0,B|390:218|378:185|378:185|418:191,1,89.9999972534181,8|2,0:0|0:0,0:0:0:0:
427,102,39521,6,0,L|497:90,2,67.4999979400635,2|0|2,3:2|0:2|0:2,0:2:0:0:
389,77,40252,1,8,0:0:0:0:
315,29,40618,1,0,0:0:0:0:
286,63,40801,1,0,0:0:0:0:
242,74,40984,2,0,B|188:57|188:57|163:75|138:70,1,89.9999972534181,0|0,3:0|3:0,0:0:0:0:
122,99,41533,1,0,0:0:0:0:
77,108,41716,2,0,P|56:100|37:75,2,44.999998626709,8|0|2,0:0|0:0|0:0,0:0:0:0:
107,192,42448,6,0,L|92:265,2,67.4999979400635,4|0|0,3:2|0:0|3:0,0:0:0:0:
148,174,43179,2,0,P|186:176|234:209,1,89.9999972534181,0|2,0:0|0:0,0:0:0:0:
245,245,43728,1,0,0:0:0:0:
242,289,43911,2,0,B|230:321|230:321|251:356|235:383,1,89.9999972534181,0|0,3:0|3:0,0:0:0:0:
323,342,44643,6,0,L|376:351,1,44.999998626709,8|0,0:0|0:0,0:0:0:0:
408,330,45008,2,0,P|423:317|434:294,1,44.999998626709
431,249,45374,2,0,B|444:208|438:152|438:152|410:188,1,134.999995880127,0|4,3:0|3:0,0:0:0:0:
303,252,46472,5,0,0:0:0:0:
303,252,46655,1,2,0:0:0:0:
303,252,46838,2,0,P|255:262|206:242,1,89.9999972534181,0|0,3:0|3:0,0:0:0:0:
227,160,47569,2,0,L|133:179,1,89.9999972534181,8|0,0:0|0:0,0:0:0:0:
96,160,48118,1,8,3:0:0:0:
77,119,48301,5,4,3:0:0:0:
72,299,49033,1,2,0:0:0:0:
235,222,49765,2,0,B|299:220|333:183|333:183|334:230|299:260,1,179.999994506836,2|2,0:0|0:0,0:0:0:0:
279,333,50862,1,0,0:0:0:0:
359,372,51228,6,0,L|464:353,2,89.9999972534181,8|8|8,3:2|3:2|3:2,0:0:0:0:
279,333,52326,2,0,L|182:320,1,89.9999972534181,8|4,3:2|0:2,0:0:0:0:
148,340,52874,1,0,0:0:0:0:
119,374,53057,1,2,0:0:0:0:
98,334,53240,1,0,0:0:0:0:
67,300,53423,2,0,P|40:295|8:301,2,44.999998626709,8|0|8,0:0|0:0|0:1,0:0:0:0:
123,217,54155,6,0,B|142:182|142:182|134:145|104:119,1,100,4|8,3:2|0:0,0:0:0:0:
145,33,54887,1,2,3:2:0:0:
213,112,55252,1,8,0:0:0:0:
213,112,55618,2,0,B|247:82|247:82|285:79|304:117,1,100,0|8,3:0|0:0,0:0:0:0:
390,71,56350,1,2,3:2:0:0:
371,169,56716,5,8,0:0:0:0:
397,211,56899,1,0,0:0:0:0:
445,224,57082,2,0,P|484:216|498:203,1,50,4|0,3:2|0:0,0:0:0:0:
494,160,57448,2,0,L|505:280,1,100,8|2,0:0|3:2,0:0:0:0:
422,317,58179,5,8,0:0:0:0:
422,317,58362,2,0,B|360:329|360:329|325:296|276:311,1,150,0|0,0:0|3:0,0:0:0:0:
181,330,59277,2,0,P|132:343|74:323,1,100,2|8,3:2|0:0,0:0:0:0:
22,252,60008,5,4,3:1:0:0:
49,210,60191,1,0,0:0:0:0:
58,160,60374,2,0,B|74:138|58:87|58:87|91:101|94:116,1,100,10|2,3:2|3:2,0:0:0:0:
179,107,61106,2,0,P|208:105|236:91,1,50,10|0,3:2|0:0,0:0:0:0:
267,67,61472,2,0,P|281:44|284:18,2,50,0|0|10,3:0|0:0|3:2,0:0:0:0:
347,126,62204,2,0,P|381:134|456:100,1,100,2|8,3:2|0:0,0:0:0:0:
369,44,62935,6,0,L|390:193,1,150,6|2,1:2|3:2,0:0:0:0:
491,217,63850,1,0,3:0:0:0:
491,217,64033,2,0,L|509:328,1,100,8|0,0:0|3:0,0:0:0:0:
470,349,64582,6,0,P|442:356|410:348,1,50,2|0,0:0|3:0,0:0:0:0:
377,327,64948,1,2,0:0:0:0:
333,351,65130,2,0,P|307:355|268:347,1,50,8|2,0:0|0:0,0:0:0:0:
238,374,65496,2,0,P|219:340|223:277,1,100,0|4,3:0|3:2,0:0:0:0:
255,243,66045,5,2,0:0:0:0:
239,195,66228,2,0,B|206:185|206:185|168:211|133:191,1,100,8|0,0:0|3:0,0:0:0:0:
67,131,66960,1,8,0:0:0:0:
43,86,67143,1,2,0:0:0:0:
62,39,67326,2,0,L|115:47,2,50,0|2|8,3:0|0:0|0:0,0:0:0:0:
67,131,68057,5,0,3:0:0:0:
144,196,68423,1,10,0:0:0:0:
144,196,68606,2,0,L|259:177,1,100,4|0,0:0|0:0,0:0:0:0:
287,202,69155,2,0,P|345:173|372:133,1,100,8|2,0:0|3:2,0:0:0:0:
336,54,69887,5,10,0:0:0:0:
336,54,70069,2,0,L|453:79,1,100,6|0,0:0|0:0,0:0:0:0:
476,101,70618,2,0,P|503:135|510:199,1,100,8|0,0:0|3:2,0:0:0:0:
419,209,71350,5,8,0:0:0:0:
419,209,71533,1,0,0:0:0:0:
419,209,71716,2,0,L|406:261,1,50,4|0,3:1|0:0,0:0:0:0:
415,307,72082,2,0,P|376:290|320:297,1,100,8|2,0:0|3:2,0:0:0:0:
228,336,72813,5,8,0:0:0:0:
191,301,72996,1,2,0:0:0:0:
142,289,73179,2,0,P|114:298|87:321,2,50,0|2|8,3:0|0:0|0:0,0:0:0:0:
181,196,73911,2,0,B|193:161|193:161|171:123|192:78,1,100,2|8,3:2|0:0,0:0:0:0:
251,26,74643,6,0,L|96:12,2,150,2|0|2,0:0|0:0|0:2,0:0:0:0:
332,78,76106,1,4,0:2:0:0:
376,54,76289,1,0,0:0:0:0:
399,9,76472,6,0,P|442:14|458:24,1,50
484,51,76838,1,8,0:0:0:0:
497,99,77021,1,0,0:0:0:0:
484,147,77204,1,0,0:0:0:0:
397,197,77569,6,0,L|379:252,1,50,4|0,3:0|0:0,0:0:0:0:
337,268,77935,2,0,P|291:271|236:253,1,100,8|2,0:2|3:2,0:0:0:0:
202,222,78484,1,0,0:0:0:0:
191,173,78667,2,0,B|146:151|141:184|87:160,2,100,8|2|8,0:0|3:2|0:0,0:0:0:0:
238,157,79582,1,0,0:0:0:0:
259,111,79765,2,0,P|263:87|259:54,2,50,0|0|8,3:0|0:0|0:0,0:0:0:0:
330,181,80496,5,4,3:2:0:0:
269,260,80862,1,10,0:0:0:0:
269,260,81045,1,0,0:0:0:0:
269,260,81228,2,0,L|260:327,1,50,0|0,3:0|0:0,0:0:0:0:
222,339,81594,2,0,B|178:350|145:332|145:332|111:347,1,100,10|0,0:0|3:0,0:0:0:0:
93,245,82326,5,8,0:0:0:0:
66,203,82508,1,2,0:0:0:0:
19,185,82691,2,0,L|10:133,2,50,0|2|10,3:0|0:0|0:0,0:0:0:0:
86,110,83423,6,0,P|62:74|7:56,2,100,4|8|0,3:2|0:0|3:0,0:0:0:0:
172,59,84521,1,8,0:0:0:0:
181,108,84704,1,0,0:0:0:0:
224,131,84887,2,0,B|256:141|288:115|288:115|309:129|311:144,1,100,2|8,3:2|0:0,0:0:0:0:
401,100,85618,5,2,3:2:0:0:
389,199,85984,1,10,0:0:0:0:
486,178,86350,2,0,P|490:223|444:276,1,100,4|0,1:2|3:0,0:0:0:0:
419,296,86899,2,0,L|308:315,1,100,4|0,3:2|3:0,0:0:0:0:
284,347,87448,1,4,1:2:0:0:
187,320,87813,6,0,P|180:345|187:376,2,50,0|0|2,0:0|0:0|0:2,0:0:0:0:
204,272,88362,1,0,0:0:0:0:
223,225,88545,2,0,P|228:200|217:162,2,50,2|0|4,0:2|0:0|0:0,0:0:0:0:
