osu file format v14

[General]
AudioFilename: audio.mp3
AudioLeadIn: 0
PreviewTime: 53743
Countdown: 0
SampleSet: Normal
StackLeniency: 0.4
Mode: 1
LetterboxInBreaks: 0
WidescreenStoryboard: 1

[Editor]
Bookmarks: 23077,64790
DistanceSpacing: 1.1
BeatDivisor: 4
GridSize: 4
TimelineZoom: 2.2

[Metadata]
Title:be perfect, plz! (TV Size)
TitleUnicode:be perfect, plz! (TV Size)
Artist:Azuna Riko
ArtistUnicode:安月名莉子
Creator:kanpakyin
Version:Kantan
Source:慎重勇者〜この勇者が俺TUEEEくせに慎重すぎる〜
Tags:anime japanese ed ending Kono Yuusha ga Ore Tueee Kuse ni Shinchou Sugiru The Hero is Overpowered but Overly Cautious リスタルテ j-pop タナカ零
BeatmapID:2296967
BeatmapSetID:1098057

[Difficulty]
HPDrainRate:7
CircleSize:4.2
OverallDifficulty:3
ApproachRate:7
SliderMultiplier:1.4
SliderTickRate:1

[Events]
//Background and Video events
0,0,"bg.jpg",0,0
Video,-900,"video.avi"
//Break Periods
//Storyboard Layer 0 (Background)
//Storyboard Layer 1 (Fail)
//Storyboard Layer 2 (Pass)
//Storyboard Layer 3 (Foreground)
//Storyboard Layer 4 (Overlay)
//Storyboard Sound Samples

[TimingPoints]
9,365.853658536585,4,1,0,65,1,0
54155,-100,4,1,0,65,0,1
88911,-100,4,1,0,65,0,0

[Colours]
Combo1 : 255,149,202
Combo2 : 255,255,128
Combo3 : 0,128,255

[HitObjects]
443,151,9,5,8,0:0:0:0:
435,134,557,1,0,0:0:0:0:
460,145,1472,1,4,0:0:0:0:
462,140,2204,1,8,0:0:0:0:
507,149,2935,1,0,0:0:0:0:
468,144,3667,1,8,0:0:0:0:
468,144,4033,1,8,0:0:0:0:
468,144,4399,1,4,0:0:0:0:
471,150,5130,1,8,0:0:0:0:
471,150,5862,1,0,0:0:0:0:
471,148,6228,1,0,0:0:0:0:
466,159,6594,1,8,0:0:0:0:
480,155,7326,1,4,0:0:0:0:
472,142,8057,1,8,0:0:0:0:
480,156,8789,1,12,0:0:0:0:
480,155,9887,1,8,0:0:0:0:
498,152,10252,1,4,0:0:0:0:
498,152,10801,1,4,0:0:0:0:
498,152,11350,1,4,0:0:0:0:
464,149,12082,1,8,0:0:0:0:
464,149,12448,1,8,0:0:0:0:
468,156,12813,1,0,0:0:0:0:
451,144,13179,1,8,0:0:0:0:
453,156,14643,1,0,0:0:0:0:
453,156,15374,1,0,0:0:0:0:
453,156,16106,1,0,0:0:0:0:
459,142,17569,1,0,0:0:0:0:
457,143,17935,1,0,0:0:0:0:
457,143,18301,1,0,0:0:0:0:
441,142,19033,1,12,0:0:0:0:
441,142,19582,1,12,0:0:0:0:
441,142,20496,1,8,0:0:0:0:
441,142,21045,1,12,0:0:0:0:
466,145,21960,1,0,0:0:0:0:
446,138,22691,1,12,0:0:0:0:
446,138,23423,1,12,0:0:0:0:
446,138,24155,1,12,0:0:0:0:
441,134,24887,1,12,0:0:0:0:
441,134,25618,1,0,0:0:0:0:
435,136,25984,1,0,0:0:0:0:
441,134,26350,1,0,0:0:0:0:
443,120,27082,1,0,0:0:0:0:
443,120,27813,1,0,0:0:0:0:
442,112,28545,1,8,0:0:0:0:
422,118,29277,1,12,0:0:0:0:
425,118,30008,1,12,0:0:0:0:
421,118,30740,1,12,0:0:0:0:
421,118,31838,1,8,0:0:0:0:
421,118,32204,1,0,0:0:0:0:
421,118,32752,1,8,0:0:0:0:
421,118,33667,1,4,0:0:0:0:
421,118,34399,1,12,0:0:0:0:
421,118,35130,1,8,0:0:0:0:
421,118,36228,1,0,0:0:0:0:
421,118,36594,1,0,0:0:0:0:
416,124,37326,1,0,0:0:0:0:
416,124,38057,1,0,0:0:0:0:
416,124,38423,1,0,0:0:0:0:
416,124,38789,1,8,0:0:0:0:
416,124,39521,1,0,0:0:0:0:
416,124,40252,1,0,0:0:0:0:
416,124,40984,1,0,0:0:0:0:
416,124,41716,1,8,0:0:0:0:
416,124,42082,1,8,0:0:0:0:
416,124,42448,1,0,0:0:0:0:
417,105,42996,1,0,0:0:0:0:
417,105,43911,1,0,0:0:0:0:
405,104,44277,1,0,0:0:0:0:
417,105,44643,1,8,0:0:0:0:
413,110,45374,1,0,0:0:0:0:
413,111,45923,1,8,0:0:0:0:
397,102,46838,1,0,0:0:0:0:
400,99,47204,1,0,0:0:0:0:
400,99,47569,1,0,0:0:0:0:
398,101,48301,1,0,0:0:0:0:
391,96,49765,1,8,0:0:0:0:
391,96,51228,1,8,0:0:0:0:
391,96,51594,1,8,0:0:0:0:
391,96,51960,1,8,0:0:0:0:
391,96,52691,1,12,0:0:0:0:
421,108,53423,1,0,0:0:0:0:
428,106,53789,1,8,0:0:0:0:
435,123,54155,1,8,0:0:0:0:
435,123,54887,1,8,0:0:0:0:
435,123,55618,1,8,0:0:0:0:
435,123,56350,1,8,0:0:0:0:
435,123,57082,1,4,0:0:0:0:
435,123,57448,1,8,0:0:0:0:
435,123,57813,1,0,0:0:0:0:
435,123,58545,1,0,0:0:0:0:
435,123,58911,1,8,0:0:0:0:
435,123,59277,1,0,0:0:0:0:
435,123,59643,1,0,0:0:0:0:
435,123,60008,1,4,0:0:0:0:
435,123,61106,1,8,0:0:0:0:
435,123,61472,1,0,0:0:0:0:
435,123,62204,1,8,0:0:0:0:
443,118,62569,1,0,0:0:0:0:
428,119,62935,1,4,0:0:0:0:
421,118,63484,1,4,0:0:0:0:
414,112,64033,1,4,0:0:0:0:
406,108,65130,1,12,0:0:0:0:
406,108,65862,1,4,0:0:0:0:
406,108,66228,1,8,0:0:0:0:
406,108,66594,1,8,0:0:0:0:
406,108,67326,1,0,0:0:0:0:
406,108,67691,1,0,0:0:0:0:
411,109,68057,1,8,0:0:0:0:
419,108,68606,1,4,0:0:0:0:
408,115,69521,1,8,0:0:0:0:
408,120,70069,1,8,0:0:0:0:
408,120,70618,1,0,0:0:0:0:
408,120,70984,1,8,0:0:0:0:
379,107,71716,1,8,0:0:0:0:
378,99,72082,1,0,0:0:0:0:
378,96,72448,1,8,0:0:0:0:
378,96,73179,1,8,0:0:0:0:
378,96,73545,1,8,0:0:0:0:
379,93,73911,1,8,0:0:0:0:
372,100,74643,1,4,0:0:0:0:
372,100,75191,1,4,0:0:0:0:
372,100,75740,1,4,0:0:0:0:
364,96,76838,1,0,0:0:0:0:
364,96,77569,1,0,0:0:0:0:
368,91,77935,1,8,0:0:0:0:
373,103,78667,1,8,0:0:0:0:
372,103,79399,1,8,0:0:0:0:
373,103,80130,1,8,0:0:0:0:
379,107,80496,1,0,0:0:0:0:
373,103,80862,1,8,0:0:0:0:
388,120,81594,1,8,0:0:0:0:
359,104,82326,1,8,0:0:0:0:
371,106,83057,1,8,0:0:0:0:
376,110,83423,1,12,0:0:0:0:
385,117,84155,1,0,0:0:0:0:
385,117,84887,1,8,0:0:0:0:
386,117,85252,1,0,0:0:0:0:
385,117,85618,1,8,0:0:0:0:
385,117,86350,1,4,0:0:0:0:
385,117,86899,1,4,0:0:0:0:
385,117,87448,1,4,0:0:0:0:
379,120,88545,1,0,0:0:0:0:
379,120,88911,1,8,0:0:0:0:
