osu file format v14

[General]
AudioFilename: audio.mp3
AudioLeadIn: 0
PreviewTime: 53743
Countdown: 0
SampleSet: Normal
StackLeniency: 0.4
Mode: 1
LetterboxInBreaks: 0
WidescreenStoryboard: 0

[Editor]
Bookmarks: 23077
DistanceSpacing: 1.1
BeatDivisor: 4
GridSize: 4
TimelineZoom: 3.899998

[Metadata]
Title:be perfect, plz! (TV Size)
TitleUnicode:be perfect, plz! (TV Size)
Artist:Azuna Riko
ArtistUnicode:安月名莉子
Creator:kanpakyin
Version:Inner Oni
Source:慎重勇者〜この勇者が俺TUEEEくせに慎重すぎる〜
Tags:anime japanese ed ending Kono Yuusha ga Ore Tueee Kuse ni Shinchou Sugiru The Hero is Overpowered but Overly Cautious リスタルテ j-pop タナカ零
BeatmapID:2294283
BeatmapSetID:1098057

[Difficulty]
HPDrainRate:5
CircleSize:4.2
OverallDifficulty:6
ApproachRate:7
SliderMultiplier:1.4
SliderTickRate:1

[Events]
//Background and Video events
Video,-900,"video.avi"
0,0,"bg2.jpg",0,0
//Break Periods
//Storyboard Layer 0 (Background)
//Storyboard Layer 1 (Fail)
//Storyboard Layer 2 (Pass)
//Storyboard Layer 3 (Foreground)
//Storyboard Layer 4 (Overlay)
//Storyboard Sound Samples

[TimingPoints]
9,365.853658536585,4,1,0,65,1,0
12996,-102.040816326531,4,1,0,65,0,0
13057,-103.092783505155,4,1,0,65,0,0
13118,-104.166666666667,4,1,0,65,0,0
13179,-105.263157894737,4,1,0,65,0,0
34948,-104.166666666667,4,1,0,65,0,0
35039,-103.092783505155,4,1,0,65,0,0
35130,-102.040816326531,4,1,0,65,0,0
35222,-101.010101010101,4,1,0,65,0,0
35313,-100,4,1,0,65,0,0
35405,-99.009900990099,4,1,0,65,0,0
35496,-98.0392156862745,4,1,0,65,0,0
35588,-97.0873786407767,4,1,0,65,0,0
35679,-96.1538461538461,4,1,0,65,0,0
35771,-95.2380952380952,4,1,0,65,0,0
35862,-94.3396226415094,4,1,0,65,0,0
35954,-93.4579439252336,4,1,0,65,0,0
36045,-92.5925925925926,4,1,0,65,0,0
36137,-91.743119266055,4,1,0,65,0,0
36228,-90.9090909090909,4,1,0,65,0,0
36319,-90.0900900900901,4,1,0,65,0,0
36411,-89.2857142857143,4,1,0,65,0,0
36472,-88.4955752212389,4,1,0,65,0,0
36533,-87.719298245614,4,1,0,65,0,0
36594,-86.9565217391304,4,1,0,65,0,0
36777,-90.9090909090909,4,1,0,65,0,0
37051,-95.2380952380952,4,1,0,65,0,0
37234,-97.0873786407767,4,1,0,65,0,0
37691,-100,4,1,0,65,0,0
54155,-90.9090909090909,4,1,0,65,0,1
65496,-90.0900900900901,4,1,0,65,0,1
65588,-89.2857142857143,4,1,0,65,0,1
65679,-88.4955752212389,4,1,0,65,0,1
65771,-87.719298245614,4,1,0,65,0,1
65862,-86.9565217391304,4,1,0,65,0,1
88911,-86.9565217391304,4,1,0,65,0,0

[Colours]
Combo1 : 255,149,202
Combo2 : 255,255,128
Combo3 : 0,128,255

[HitObjects]
443,151,9,5,8,0:0:0:0:
443,151,191,1,8,0:0:0:0:
443,151,283,1,0,0:0:0:0:
443,151,374,1,8,0:0:0:0:
443,151,557,1,8,0:0:0:0:
449,149,618,1,0,0:0:0:0:
451,163,679,1,0,0:0:0:0:
451,163,740,1,0,0:0:0:0:
421,156,832,1,0,0:0:0:0:
456,147,923,1,8,0:0:0:0:
454,164,1015,1,0,0:0:0:0:
452,149,1106,1,8,0:0:0:0:
403,137,1198,1,8,0:0:0:0:
432,141,1289,1,0,0:0:0:0:
460,145,1380,1,0,0:0:0:0:
460,145,1472,1,0,0:0:0:0:
459,147,1746,1,8,0:0:0:0:
462,138,1838,1,0,0:0:0:0:
462,140,2021,1,0,0:0:0:0:
462,140,2204,1,8,0:0:0:0:
460,145,2387,1,0,0:0:0:0:
462,140,2569,1,0,0:0:0:0:
507,149,2935,1,0,0:0:0:0:
468,144,3118,1,0,0:0:0:0:
468,144,3210,1,8,0:0:0:0:
468,144,3301,1,0,0:0:0:0:
468,144,3484,1,0,0:0:0:0:
468,144,3667,1,8,0:0:0:0:
449,152,3850,1,0,0:0:0:0:
468,144,4033,1,8,0:0:0:0:
451,144,4216,1,8,0:0:0:0:
468,144,4399,1,4,0:0:0:0:
471,149,4765,1,0,0:0:0:0:
471,150,4948,1,0,0:0:0:0:
471,150,5130,1,8,0:0:0:0:
471,148,5313,1,8,0:0:0:0:
480,139,5405,1,8,0:0:0:0:
471,150,5496,1,0,0:0:0:0:
471,149,5679,1,0,0:0:0:0:
471,150,5862,1,8,0:0:0:0:
471,150,6045,1,8,0:0:0:0:
473,146,6137,1,0,0:0:0:0:
471,148,6228,1,8,0:0:0:0:
458,141,6411,1,8,0:0:0:0:
481,170,6472,1,8,0:0:0:0:
466,159,6533,1,8,0:0:0:0:
466,159,6594,1,0,0:0:0:0:
466,161,6777,1,8,0:0:0:0:
486,155,6868,1,0,0:0:0:0:
480,155,6960,1,0,0:0:0:0:
480,155,7051,1,0,0:0:0:0:
480,155,7143,1,8,0:0:0:0:
469,141,7234,1,8,0:0:0:0:
480,155,7326,1,0,0:0:0:0:
480,155,7508,1,0,0:0:0:0:
480,156,7691,1,8,0:0:0:0:
480,156,7874,1,0,0:0:0:0:
472,142,8057,1,8,0:0:0:0:
457,156,8149,1,8,0:0:0:0:
480,155,8240,1,0,0:0:0:0:
480,155,8332,1,0,0:0:0:0:
480,155,8423,1,8,0:0:0:0:
480,156,8606,1,0,0:0:0:0:
480,156,8789,1,12,0:0:0:0:
480,155,8972,1,0,0:0:0:0:
473,147,9063,1,0,0:0:0:0:
480,155,9155,1,8,0:0:0:0:
480,155,9338,1,0,0:0:0:0:
480,156,9521,1,8,0:0:0:0:
480,156,9704,1,8,0:0:0:0:
480,155,9887,1,8,0:0:0:0:
473,147,10069,1,0,0:0:0:0:
498,152,10252,1,4,0:0:0:0:
498,152,10618,1,8,0:0:0:0:
498,152,10801,1,4,0:0:0:0:
498,152,11167,1,8,0:0:0:0:
498,152,11350,1,4,0:0:0:0:
464,149,11533,1,0,0:0:0:0:
464,149,11624,1,0,0:0:0:0:
464,149,11716,1,0,0:0:0:0:
464,149,11899,1,8,0:0:0:0:
464,149,12082,1,8,0:0:0:0:
464,149,12265,1,8,0:0:0:0:
466,157,12356,1,0,0:0:0:0:
464,149,12448,1,8,0:0:0:0:
466,157,12539,1,8,0:0:0:0:
468,156,12630,1,0,0:0:0:0:
468,156,12813,1,8,0:0:0:0:
464,164,12996,1,0,0:0:0:0:
463,165,13057,1,8,0:0:0:0:
463,165,13118,1,8,0:0:0:0:
464,164,13179,1,8,0:0:0:0:
453,156,13545,1,0,0:0:0:0:
453,156,13911,1,0,0:0:0:0:
453,156,14094,1,8,0:0:0:0:
453,156,14277,1,0,0:0:0:0:
453,156,14460,1,8,0:0:0:0:
453,156,14643,1,0,0:0:0:0:
453,156,15008,1,0,0:0:0:0:
453,156,15374,1,0,0:0:0:0:
453,156,15557,1,8,0:0:0:0:
453,156,15740,1,0,0:0:0:0:
453,156,15923,1,8,0:0:0:0:
453,156,16015,1,8,0:0:0:0:
453,156,16106,1,0,0:0:0:0:
472,143,16289,1,8,0:0:0:0:
453,156,16472,1,0,0:0:0:0:
453,156,16838,1,0,0:0:0:0:
457,143,17204,1,8,0:0:0:0:
457,141,17387,1,8,0:0:0:0:
457,143,17478,1,8,0:0:0:0:
459,142,17569,1,0,0:0:0:0:
457,141,17752,1,8,0:0:0:0:
457,143,17935,1,0,0:0:0:0:
457,143,18118,1,8,0:0:0:0:
457,143,18301,1,0,0:0:0:0:
450,138,18484,1,8,0:0:0:0:
448,138,18576,1,0,0:0:0:0:
450,138,18667,1,0,0:0:0:0:
441,141,18850,1,0,0:0:0:0:
441,142,19033,1,12,0:0:0:0:
441,142,19399,1,0,0:0:0:0:
441,142,19582,1,12,0:0:0:0:
441,142,19948,1,0,0:0:0:0:
441,142,20130,1,8,0:0:0:0:
441,142,20313,1,0,0:0:0:0:
441,142,20496,1,8,0:0:0:0:
441,142,20862,1,0,0:0:0:0:
441,142,21045,1,12,0:0:0:0:
449,142,21228,1,0,0:0:0:0:
449,142,21411,1,8,0:0:0:0:
449,142,21502,1,8,0:0:0:0:
450,142,21594,1,0,0:0:0:0:
466,145,21777,1,8,0:0:0:0:
466,145,21960,1,0,0:0:0:0:
449,142,22326,1,0,0:0:0:0:
441,134,22508,1,0,0:0:0:0:
446,138,22691,1,12,0:0:0:0:
449,142,23057,1,0,0:0:0:0:
441,134,23240,1,0,0:0:0:0:
446,138,23423,1,12,0:0:0:0:
449,142,23789,1,0,0:0:0:0:
441,134,23972,1,8,0:0:0:0:
446,138,24155,1,12,0:0:0:0:
446,138,24338,1,8,0:0:0:0:
441,134,24429,1,0,0:0:0:0:
449,142,24521,1,0,0:0:0:0:
441,134,24704,1,0,0:0:0:0:
441,134,24887,1,12,0:0:0:0:
441,134,25252,1,0,0:0:0:0:
441,134,25618,1,0,0:0:0:0:
443,126,25801,1,8,0:0:0:0:
443,120,25893,1,0,0:0:0:0:
441,134,25984,1,0,0:0:0:0:
441,134,26167,1,8,0:0:0:0:
441,134,26350,1,0,0:0:0:0:
443,120,26716,1,0,0:0:0:0:
443,120,27082,1,0,0:0:0:0:
443,120,27265,1,8,0:0:0:0:
442,112,27356,1,0,0:0:0:0:
443,120,27448,1,0,0:0:0:0:
443,120,27630,1,8,0:0:0:0:
443,120,27813,1,0,0:0:0:0:
442,112,27996,1,8,0:0:0:0:
443,120,28179,1,0,0:0:0:0:
442,112,28362,1,8,0:0:0:0:
441,106,28454,1,0,0:0:0:0:
442,112,28545,1,8,0:0:0:0:
441,106,28911,1,0,0:0:0:0:
425,118,29094,1,0,0:0:0:0:
425,118,29185,1,0,0:0:0:0:
422,118,29277,1,8,0:0:0:0:
421,118,29460,1,0,0:0:0:0:
421,118,29643,1,0,0:0:0:0:
421,118,29826,1,0,0:0:0:0:
425,118,30008,1,12,0:0:0:0:
421,118,30374,1,0,0:0:0:0:
421,118,30740,1,12,0:0:0:0:
421,118,31106,1,0,0:0:0:0:
421,118,31289,1,12,0:0:0:0:
420,123,31472,1,0,0:0:0:0:
421,118,31655,1,0,0:0:0:0:
421,118,31838,1,8,0:0:0:0:
421,118,32021,1,0,0:0:0:0:
421,118,32204,1,0,0:0:0:0:
421,118,32569,1,8,0:0:0:0:
421,118,32752,1,8,0:0:0:0:
421,118,32935,1,0,0:0:0:0:
421,118,33118,1,0,0:0:0:0:
421,118,33301,1,8,0:0:0:0:
421,118,33484,1,8,0:0:0:0:
421,118,33667,1,4,0:0:0:0:
421,118,34033,1,0,0:0:0:0:
421,118,34216,1,0,0:0:0:0:
421,118,34399,1,12,0:0:0:0:
421,118,34765,1,0,0:0:0:0:
421,118,34948,1,8,0:0:0:0:
421,135,35039,1,8,0:0:0:0:
421,118,35130,1,0,0:0:0:0:
429,134,35222,1,8,0:0:0:0:
421,118,35313,1,8,0:0:0:0:
421,118,35405,1,8,0:0:0:0:
421,118,35496,1,0,0:0:0:0:
421,118,35588,1,0,0:0:0:0:
421,118,35679,1,8,0:0:0:0:
421,118,35771,1,8,0:0:0:0:
421,118,35862,1,8,0:0:0:0:
400,119,35954,1,0,0:0:0:0:
421,118,36045,1,8,0:0:0:0:
421,118,36137,1,8,0:0:0:0:
421,118,36228,1,0,0:0:0:0:
400,119,36319,1,0,0:0:0:0:
421,118,36411,1,8,0:0:0:0:
405,137,36472,1,8,0:0:0:0:
405,137,36533,1,8,0:0:0:0:
421,118,36594,1,0,0:0:0:0:
416,124,36868,1,0,0:0:0:0:
416,124,37143,1,8,0:0:0:0:
416,124,37326,1,0,0:0:0:0:
416,124,37691,1,0,0:0:0:0:
416,124,37874,1,8,0:0:0:0:
416,124,38057,1,0,0:0:0:0:
416,124,38423,1,0,0:0:0:0:
416,124,38606,1,0,0:0:0:0:
416,124,38789,1,8,0:0:0:0:
416,124,38972,1,8,0:0:0:0:
416,124,39155,1,0,0:0:0:0:
416,124,39521,1,0,0:0:0:0:
416,124,39795,1,0,0:0:0:0:
416,124,40069,1,8,0:0:0:0:
416,124,40252,1,0,0:0:0:0:
416,124,40618,1,0,0:0:0:0:
416,124,40801,1,8,0:0:0:0:
416,124,40984,1,0,0:0:0:0:
416,124,41350,1,8,0:0:0:0:
416,124,41533,1,0,0:0:0:0:
416,124,41716,1,8,0:0:0:0:
416,124,41899,1,0,0:0:0:0:
416,124,42082,1,8,0:0:0:0:
417,105,42173,1,8,0:0:0:0:
416,124,42265,1,8,0:0:0:0:
416,124,42356,1,8,0:0:0:0:
416,124,42448,1,0,0:0:0:0:
417,105,42722,1,0,0:0:0:0:
417,105,42813,1,8,0:0:0:0:
417,105,42996,1,0,0:0:0:0:
417,105,43179,1,0,0:0:0:0:
417,105,43545,1,0,0:0:0:0:
417,105,43728,1,8,0:0:0:0:
417,105,43911,1,0,0:0:0:0:
405,104,44277,1,0,0:0:0:0:
405,111,44460,1,0,0:0:0:0:
417,105,44643,1,8,0:0:0:0:
413,111,44826,1,8,0:0:0:0:
413,111,44917,1,0,0:0:0:0:
413,111,45008,1,0,0:0:0:0:
413,110,45191,1,8,0:0:0:0:
413,110,45374,1,0,0:0:0:0:
411,102,45649,1,0,0:0:0:0:
413,111,45923,1,8,0:0:0:0:
400,99,46106,1,0,0:0:0:0:
400,99,46289,1,0,0:0:0:0:
398,100,46472,1,8,0:0:0:0:
398,101,46655,1,8,0:0:0:0:
397,102,46838,1,0,0:0:0:0:
400,99,47204,1,0,0:0:0:0:
398,101,47569,1,8,0:0:0:0:
397,102,47752,1,0,0:0:0:0:
400,99,47935,1,8,0:0:0:0:
392,99,48027,1,8,0:0:0:0:
400,99,48118,1,0,0:0:0:0:
400,99,48210,1,8,0:0:0:0:
398,101,48301,1,0,0:0:0:0:
391,96,48576,1,0,0:0:0:0:
391,96,48850,1,8,0:0:0:0:
392,99,49033,1,0,0:0:0:0:
391,96,49399,1,0,0:0:0:0:
391,96,49765,1,8,0:0:0:0:
391,96,50130,1,0,0:0:0:0:
391,96,50496,1,8,0:0:0:0:
391,96,50862,1,0,0:0:0:0:
391,96,51228,1,8,0:0:0:0:
391,96,51411,1,0,0:0:0:0:
391,96,51594,1,8,0:0:0:0:
391,96,51777,1,0,0:0:0:0:
391,96,51960,1,8,0:0:0:0:
391,96,52143,1,0,0:0:0:0:
391,96,52326,1,8,0:0:0:0:
391,96,52508,1,0,0:0:0:0:
391,96,52691,1,12,0:0:0:0:
391,96,52874,1,12,0:0:0:0:
391,96,53057,1,0,0:0:0:0:
411,79,53149,1,0,0:0:0:0:
421,108,53240,1,0,0:0:0:0:
421,108,53332,1,0,0:0:0:0:
421,108,53423,1,8,0:0:0:0:
421,108,53515,1,0,0:0:0:0:
421,108,53606,1,0,0:0:0:0:
415,108,53667,1,0,0:0:0:0:
433,123,53728,1,0,0:0:0:0:
435,123,53789,5,8,0:0:0:0:
435,123,54155,1,8,0:0:0:0:
435,123,54338,1,0,0:0:0:0:
435,123,54521,1,8,0:0:0:0:
435,123,54704,1,0,0:0:0:0:
435,123,54795,1,0,0:0:0:0:
435,123,54887,1,8,0:0:0:0:
435,123,55069,1,0,0:0:0:0:
435,123,55252,1,8,0:0:0:0:
435,123,55618,1,8,0:0:0:0:
444,120,55801,1,0,0:0:0:0:
435,123,55893,1,0,0:0:0:0:
435,123,55984,1,8,0:0:0:0:
435,123,56167,1,0,0:0:0:0:
435,123,56350,1,8,0:0:0:0:
435,123,56533,1,0,0:0:0:0:
435,123,56716,1,8,0:0:0:0:
435,123,56899,1,0,0:0:0:0:
435,123,57082,1,4,0:0:0:0:
435,123,57265,1,0,0:0:0:0:
435,123,57448,1,8,0:0:0:0:
435,123,57813,1,0,0:0:0:0:
435,123,58179,1,8,0:0:0:0:
424,134,58362,1,8,0:0:0:0:
435,123,58545,1,0,0:0:0:0:
435,123,58728,1,0,0:0:0:0:
428,129,58819,1,0,0:0:0:0:
435,123,58911,1,8,0:0:0:0:
435,123,59277,1,0,0:0:0:0:
435,123,59643,1,8,0:0:0:0:
435,123,59826,1,0,0:0:0:0:
435,123,60008,1,4,0:0:0:0:
435,123,60191,1,0,0:0:0:0:
435,123,60283,1,0,0:0:0:0:
435,123,60374,1,8,0:0:0:0:
435,123,60557,1,0,0:0:0:0:
435,123,60740,1,8,0:0:0:0:
435,123,61106,1,8,0:0:0:0:
435,123,61289,1,0,0:0:0:0:
435,123,61472,1,8,0:0:0:0:
435,123,61655,1,0,0:0:0:0:
435,123,61838,1,8,0:0:0:0:
435,123,62021,1,0,0:0:0:0:
435,123,62112,1,0,0:0:0:0:
435,123,62204,1,8,0:0:0:0:
435,123,62387,1,0,0:0:0:0:
435,123,62569,1,8,0:0:0:0:
412,121,62752,1,0,0:0:0:0:
428,119,62935,1,4,0:0:0:0:
425,126,63118,1,0,0:0:0:0:
421,118,63301,1,8,0:0:0:0:
421,118,63484,1,4,0:0:0:0:
413,111,63667,1,0,0:0:0:0:
414,112,63850,1,8,0:0:0:0:
414,112,64033,1,4,0:0:0:0:
406,108,64216,1,0,0:0:0:0:
406,108,64307,1,0,0:0:0:0:
406,108,64399,1,0,0:0:0:0:
406,108,64582,1,12,0:0:0:0:
406,108,64765,1,12,0:0:0:0:
406,108,64948,1,0,0:0:0:0:
406,108,65039,1,0,0:0:0:0:
406,108,65130,1,8,0:0:0:0:
406,108,65313,1,0,0:0:0:0:
406,108,65496,1,8,0:0:0:0:
406,108,65588,1,8,0:0:0:0:
406,108,65679,1,8,0:0:0:0:
406,108,65771,1,8,0:0:0:0:
406,108,65862,1,0,0:0:0:0:
406,108,66045,1,0,0:0:0:0:
406,108,66228,1,8,0:0:0:0:
406,108,66594,1,8,0:0:0:0:
406,108,66960,1,8,0:0:0:0:
406,108,67143,1,0,0:0:0:0:
406,108,67326,1,8,0:0:0:0:
406,108,67508,1,8,0:0:0:0:
406,108,67691,1,0,0:0:0:0:
410,112,68057,1,8,0:0:0:0:
408,115,68423,1,12,0:0:0:0:
408,115,68606,1,4,0:0:0:0:
410,112,68789,1,0,0:0:0:0:
410,112,68972,1,0,0:0:0:0:
382,121,69063,1,0,0:0:0:0:
408,115,69155,1,8,0:0:0:0:
408,115,69338,1,0,0:0:0:0:
408,115,69521,1,8,0:0:0:0:
403,107,69704,1,0,0:0:0:0:
408,120,69887,1,8,0:0:0:0:
408,120,70069,1,8,0:0:0:0:
408,120,70161,1,8,0:0:0:0:
408,115,70252,1,0,0:0:0:0:
408,115,70435,1,8,0:0:0:0:
408,120,70618,1,0,0:0:0:0:
412,101,70801,1,0,0:0:0:0:
412,104,70893,1,0,0:0:0:0:
408,120,70984,1,8,0:0:0:0:
378,99,71167,1,0,0:0:0:0:
379,107,71350,1,8,0:0:0:0:
379,107,71533,1,0,0:0:0:0:
379,107,71624,1,8,0:0:0:0:
379,107,71716,1,0,0:0:0:0:
378,99,71899,1,0,0:0:0:0:
378,99,72082,1,0,0:0:0:0:
378,96,72265,1,0,0:0:0:0:
378,96,72356,1,0,0:0:0:0:
378,96,72448,1,8,0:0:0:0:
378,96,72630,1,0,0:0:0:0:
378,99,72813,1,8,0:0:0:0:
378,99,72996,1,8,0:0:0:0:
378,99,73088,1,0,0:0:0:0:
378,96,73179,1,0,0:0:0:0:
378,96,73271,1,8,0:0:0:0:
378,96,73362,1,0,0:0:0:0:
378,96,73545,1,8,0:0:0:0:
381,102,73728,1,0,0:0:0:0:
379,93,73911,1,8,0:0:0:0:
379,93,74094,1,0,0:0:0:0:
363,102,74185,1,0,0:0:0:0:
363,102,74277,1,8,0:0:0:0:
372,100,74460,1,8,0:0:0:0:
372,100,74643,1,4,0:0:0:0:
372,100,75008,1,8,0:0:0:0:
372,100,75191,1,4,0:0:0:0:
372,100,75557,1,8,0:0:0:0:
372,100,75740,1,4,0:0:0:0:
364,97,75923,1,0,0:0:0:0:
364,97,76015,1,0,0:0:0:0:
364,97,76106,1,0,0:0:0:0:
364,96,76289,1,8,0:0:0:0:
364,96,76472,1,8,0:0:0:0:
364,96,76655,1,0,0:0:0:0:
364,97,76746,1,0,0:0:0:0:
364,97,76838,1,8,0:0:0:0:
364,97,76929,1,8,0:0:0:0:
364,97,77021,1,0,0:0:0:0:
364,96,77204,1,8,0:0:0:0:
364,96,77387,1,0,0:0:0:0:
364,96,77448,1,0,0:0:0:0:
364,96,77508,1,0,0:0:0:0:
364,96,77569,1,8,0:0:0:0:
363,89,77935,1,8,0:0:0:0:
372,103,78118,1,0,0:0:0:0:
373,103,78301,1,8,0:0:0:0:
372,103,78484,1,0,0:0:0:0:
372,103,78576,1,0,0:0:0:0:
373,103,78667,1,8,0:0:0:0:
372,103,78850,1,0,0:0:0:0:
372,103,79033,1,8,0:0:0:0:
378,107,79216,1,0,0:0:0:0:
372,103,79399,1,8,0:0:0:0:
372,103,79582,1,8,0:0:0:0:
372,123,79673,1,8,0:0:0:0:
372,103,79765,1,8,0:0:0:0:
372,103,79948,1,0,0:0:0:0:
373,103,80130,1,8,0:0:0:0:
379,107,80313,1,0,0:0:0:0:
379,107,80496,1,8,0:0:0:0:
378,107,80679,1,0,0:0:0:0:
379,106,80771,1,0,0:0:0:0:
388,120,80862,1,8,0:0:0:0:
388,120,81045,1,0,0:0:0:0:
388,120,81228,1,8,0:0:0:0:
388,120,81411,1,0,0:0:0:0:
379,107,81502,1,0,0:0:0:0:
388,120,81594,1,8,0:0:0:0:
366,101,81777,1,0,0:0:0:0:
366,101,81960,1,8,0:0:0:0:
366,101,82143,1,0,0:0:0:0:
371,106,82326,1,8,0:0:0:0:
364,113,82417,1,8,0:0:0:0:
371,106,82508,1,0,0:0:0:0:
371,106,82569,1,0,0:0:0:0:
378,111,82630,1,0,0:0:0:0:
371,106,82691,1,8,0:0:0:0:
371,106,82783,1,0,0:0:0:0:
371,106,82874,1,0,0:0:0:0:
379,106,82966,1,0,0:0:0:0:
378,110,83057,1,8,0:0:0:0:
378,110,83240,1,0,0:0:0:0:
376,110,83423,1,12,0:0:0:0:
386,117,83606,1,8,0:0:0:0:
385,117,83789,1,0,0:0:0:0:
385,117,84155,1,8,0:0:0:0:
386,117,84521,1,0,0:0:0:0:
385,117,84704,1,8,0:0:0:0:
385,117,84795,1,8,0:0:0:0:
385,117,84887,1,0,0:0:0:0:
385,117,85069,1,8,0:0:0:0:
386,117,85252,1,0,0:0:0:0:
385,117,85618,1,8,0:0:0:0:
385,117,85801,1,0,0:0:0:0:
385,117,85893,1,0,0:0:0:0:
385,117,85984,1,8,0:0:0:0:
386,117,86167,1,8,0:0:0:0:
385,117,86350,1,4,0:0:0:0:
385,117,86716,1,8,0:0:0:0:
385,117,86899,1,4,0:0:0:0:
385,117,87265,1,8,0:0:0:0:
385,117,87448,1,4,0:0:0:0:
385,117,87813,1,0,0:0:0:0:
385,117,87996,1,8,0:0:0:0:
379,119,88179,1,8,0:0:0:0:
379,120,88362,1,0,0:0:0:0:
379,120,88454,1,0,0:0:0:0:
379,120,88545,1,8,0:0:0:0:
379,120,88728,1,8,0:0:0:0:
379,120,88911,1,8,0:0:0:0:
