osu file format v14

[General]
AudioFilename: audio.mp3
AudioLeadIn: 0
PreviewTime: 59388
Countdown: 0
SampleSet: Normal
StackLeniency: 0.7
Mode: 1
LetterboxInBreaks: 0
WidescreenStoryboard: 1

[Editor]
Bookmarks: 16716,27392,38059,48726,80726,91392,102055,123388,134055,166055,187388,190055,192722,206055
DistanceSpacing: 1
BeatDivisor: 6
GridSize: 32
TimelineZoom: 1.8

[Metadata]
Title:Kimi ni Furete
TitleUnicode:君にふれて
Artist:Azuna Riko
ArtistUnicode:安月名 莉子
Creator:vrnl
Version:Muzukashii
Source:やがて君になる
Tags:yagate kimi ni naru op opening anime japanese bloom into you pop jpop j-pop
BeatmapID:3688728
BeatmapSetID:1309376

[Difficulty]
HPDrainRate:6
CircleSize:5
OverallDifficulty:4
ApproachRate:5
SliderMultiplier:1.4
SliderTickRate:1

[Events]
//Background and Video events
0,0,"fdjsikljfds.jpg",0,23
//Break Periods
//Storyboard Layer 0 (Background)
//Storyboard Layer 1 (Fail)
//Storyboard Layer 2 (Pass)
//Storyboard Layer 3 (Foreground)
//Storyboard Layer 4 (Overlay)
//Storyboard Sound Samples

[TimingPoints]
762,666.666666666667,4,1,0,50,1,0
762,-66.6666666666667,4,1,0,50,0,0
11262,-66.6666666666667,4,1,0,65,0,0
15595,-66.6666666666667,4,1,0,80,0,0
27595,-66.6666666666667,4,1,0,65,0,0
46928,-66.6666666666667,4,1,0,75,0,0
48595,-66.6666666666667,4,1,0,80,0,0
59373,-66.6666666666667,4,1,0,90,0,0
59428,-66.6666666666667,4,1,0,90,0,1
88762,-66.6666666666667,4,1,0,90,0,0
88928,-66.6666666666667,4,1,0,65,0,0
90595,-66.6666666666667,4,1,0,80,0,0
102262,-66.6666666666667,4,1,0,70,0,0
121595,-66.6666666666667,4,1,0,75,0,0
123262,-66.6666666666667,4,1,0,80,0,0
134039,-66.6666666666667,4,1,0,90,0,0
134095,-66.6666666666667,4,1,0,90,0,1
163428,-66.6666666666667,4,1,0,90,0,0
163595,-66.6666666666667,4,1,0,80,0,0
166012,-66.6666666666667,4,1,0,90,0,0
166095,-66.6666666666667,4,1,0,90,0,1
190095,-66.6666666666667,4,1,0,90,0,0
190262,-66.6666666666667,4,1,0,65,0,0
192595,-66.6666666666667,4,1,0,50,0,0
202928,-66.6666666666667,4,1,0,65,0,0
204678,-66.6666666666667,4,1,0,75,0,0
206039,-66.6666666666667,4,1,0,90,0,0
206095,-66.6666666666667,4,1,0,90,0,1
235428,-66.6666666666667,4,1,0,90,0,0
235595,-66.6666666666667,4,1,0,65,0,0
237262,-66.6666666666667,4,1,0,80,0,0
237928,-66.6666666666667,4,1,0,50,0,0
244095,-66.6666666666667,4,1,0,45,0,0
244762,-66.6666666666667,4,1,0,40,0,0
245428,-66.6666666666667,4,1,0,35,0,0
246095,-66.6666666666667,4,1,0,30,0,0
246762,-66.6666666666667,4,1,0,20,0,0
247428,-66.6666666666667,4,1,0,5,0,0

[HitObjects]
167,179,762,5,2,0:0:0:0:
167,179,1095,1,2,0:0:0:0:
167,179,1428,1,0,0:0:0:0:
167,179,1762,1,0,0:0:0:0:
167,179,2428,1,2,0:0:0:0:
167,179,2762,1,2,0:0:0:0:
167,179,3095,1,0,0:0:0:0:
167,179,4428,1,0,0:0:0:0:
167,179,4762,1,0,0:0:0:0:
167,179,5095,1,2,0:0:0:0:
167,179,5428,1,0,0:0:0:0:
167,179,6095,1,2,0:0:0:0:
167,179,6762,1,2,0:0:0:0:
167,179,7428,1,0,0:0:0:0:
167,179,7762,1,0,0:0:0:0:
167,179,8095,1,2,0:0:0:0:
167,179,8428,1,2,0:0:0:0:
169,171,9762,1,2,0:0:0:0:
169,171,10095,1,2,0:0:0:0:
167,179,10428,1,2,0:0:0:0:
167,179,10762,1,0,0:0:0:0:
167,179,11428,1,2,0:0:0:0:
167,179,11762,1,0,0:0:0:0:
167,179,12095,1,2,0:0:0:0:
167,179,12428,1,2,0:0:0:0:
167,179,13095,1,2,0:0:0:0:
167,179,13428,1,2,0:0:0:0:
167,179,13762,1,0,0:0:0:0:
256,192,14095,12,0,15428,0:0:0:0:
167,179,15762,5,2,0:0:0:0:
282,161,16095,1,0,0:0:0:0:
282,161,16262,1,0,0:0:0:0:
282,161,16428,1,0,0:0:0:0:
167,179,16762,1,6,0:0:0:0:
180,203,17095,1,0,0:0:0:0:
180,203,17428,1,2,0:0:0:0:
248,136,18095,1,0,0:0:0:0:
248,136,18262,1,0,0:0:0:0:
248,136,18428,1,0,0:0:0:0:
248,136,18762,1,2,0:0:0:0:
248,136,19095,1,0,0:0:0:0:
248,136,19428,1,0,0:0:0:0:
248,136,19762,1,0,0:0:0:0:
248,136,20095,1,2,0:0:0:0:
248,136,20428,1,2,0:0:0:0:
248,136,20762,1,0,0:0:0:0:
248,136,20928,1,2,0:0:0:0:
248,136,21095,1,0,0:0:0:0:
248,136,21428,1,2,0:0:0:0:
248,136,21762,1,0,0:0:0:0:
66,110,22095,1,0,0:0:0:0:
248,136,22428,1,0,0:0:0:0:
248,136,22762,1,2,0:0:0:0:
248,136,23095,1,2,0:0:0:0:
248,136,23428,1,0,0:0:0:0:
248,136,23595,1,2,0:0:0:0:
248,136,23762,1,0,0:0:0:0:
248,136,24095,1,2,0:0:0:0:
248,136,24428,1,4,0:0:0:0:
248,136,25095,1,2,0:0:0:0:
200,120,25595,1,2,0:0:0:0:
44,113,25762,1,2,0:0:0:0:
248,136,26095,1,0,0:0:0:0:
200,120,26428,1,0,0:0:0:0:
248,136,26595,1,0,0:0:0:0:
248,136,26762,1,0,0:0:0:0:
248,136,27428,1,0,0:0:0:0:
144,184,28095,1,2,0:0:0:0:
144,184,28428,1,0,0:0:0:0:
144,184,28595,1,0,0:0:0:0:
144,184,29428,1,2,0:0:0:0:
144,184,29762,1,0,0:0:0:0:
144,184,30095,1,2,0:0:0:0:
144,184,30428,1,2,0:0:0:0:
144,184,30762,1,2,0:0:0:0:
144,184,31095,1,0,0:0:0:0:
144,184,31428,1,0,0:0:0:0:
144,184,31762,1,0,0:0:0:0:
144,184,32095,1,2,0:0:0:0:
144,184,32762,1,0,0:0:0:0:
144,184,33262,1,0,0:0:0:0:
144,184,33428,1,2,0:0:0:0:
188,79,33762,1,0,0:0:0:0:
188,79,34762,1,2,0:0:0:0:
144,184,35095,1,2,0:0:0:0:
144,184,35428,1,0,0:0:0:0:
144,184,36095,1,2,0:0:0:0:
225,105,36428,1,0,0:0:0:0:
144,184,36762,1,0,0:0:0:0:
231,103,36928,1,2,0:0:0:0:
231,103,37095,1,0,0:0:0:0:
231,103,37428,1,2,0:0:0:0:
231,103,37595,1,0,0:0:0:0:
231,103,37762,1,2,0:0:0:0:
144,184,38095,1,0,0:0:0:0:
248,153,38428,1,2,0:0:0:0:
248,153,38762,1,0,0:0:0:0:
248,153,39095,1,0,0:0:0:0:
248,153,39262,1,2,0:0:0:0:
248,153,40095,1,2,0:0:0:0:
248,153,40428,1,0,0:0:0:0:
248,153,40762,1,2,0:0:0:0:
248,153,41095,1,2,0:0:0:0:
248,153,41428,1,2,0:0:0:0:
248,153,41762,1,0,0:0:0:0:
248,153,42095,1,0,0:0:0:0:
248,153,42428,1,0,0:0:0:0:
248,153,42762,1,2,0:0:0:0:
248,153,43428,1,2,0:0:0:0:
248,153,43928,1,0,0:0:0:0:
248,153,44095,1,2,0:0:0:0:
248,153,44428,1,0,0:0:0:0:
159,134,44762,1,2,0:0:0:0:
159,134,45095,1,0,0:0:0:0:
248,153,45428,1,2,0:0:0:0:
132,194,45928,1,2,0:0:0:0:
248,153,46095,1,0,0:0:0:0:
248,153,46595,1,0,0:0:0:0:
103,176,46762,1,2,0:0:0:0:
103,176,47095,1,0,0:0:0:0:
103,176,47262,1,2,0:0:0:0:
103,176,47428,1,0,0:0:0:0:
248,153,47762,1,2,0:0:0:0:
248,153,48095,1,0,0:0:0:0:
248,153,48762,1,4,0:0:0:0:
171,184,49095,1,2,0:0:0:0:
171,184,49262,1,0,0:0:0:0:
171,184,49428,1,2,0:0:0:0:
171,184,49762,1,0,0:0:0:0:
171,184,49928,1,2,0:0:0:0:
171,184,50095,1,0,0:0:0:0:
171,184,50428,1,2,0:0:0:0:
171,184,50762,1,2,0:0:0:0:
109,124,50928,1,2,0:0:0:0:
171,184,51095,1,0,0:0:0:0:
171,184,51428,1,2,0:0:0:0:
171,184,51762,1,0,0:0:0:0:
213,79,52095,1,2,0:0:0:0:
171,184,52428,1,0,0:0:0:0:
254,134,52595,1,0,0:0:0:0:
171,184,52762,1,2,0:0:0:0:
149,161,53095,1,0,0:0:0:0:
149,161,53428,1,2,0:0:0:0:
149,161,53595,1,2,0:0:0:0:
171,184,53762,1,0,0:0:0:0:
171,184,54095,1,6,0:0:0:0:
277,190,54762,1,0,0:0:0:0:
277,190,55095,1,0,0:0:0:0:
277,190,55428,1,2,0:0:0:0:
277,190,55762,1,0,0:0:0:0:
277,190,56095,1,2,0:0:0:0:
277,190,56428,1,2,0:0:0:0:
277,190,56762,1,4,0:0:0:0:
287,174,58095,1,0,0:0:0:0:
287,174,58428,1,0,0:0:0:0:
287,174,58595,1,0,0:0:0:0:
287,174,58762,1,2,0:0:0:0:
109,66,58928,1,2,0:0:0:0:
252,180,59095,1,0,0:0:0:0:
252,180,59262,1,0,0:0:0:0:
252,180,59428,1,6,0:0:0:0:
153,185,60095,1,2,0:0:0:0:
153,185,60428,1,0,0:0:0:0:
153,185,60595,1,2,0:0:0:0:
153,185,60928,1,2,0:0:0:0:
153,185,61095,1,0,0:0:0:0:
153,185,61428,1,2,0:0:0:0:
153,185,61762,1,2,0:0:0:0:
153,185,62095,1,0,0:0:0:0:
153,185,62428,1,0,0:0:0:0:
153,185,62762,1,2,0:0:0:0:
153,185,63095,1,0,0:0:0:0:
153,185,63262,1,0,0:0:0:0:
153,185,63428,1,0,0:0:0:0:
153,185,63595,1,0,0:0:0:0:
153,185,63762,1,0,0:0:0:0:
153,185,64095,1,2,0:0:0:0:
153,185,64262,1,2,0:0:0:0:
153,185,64428,1,2,0:0:0:0:
153,185,64762,1,0,0:0:0:0:
153,185,65095,1,0,0:0:0:0:
153,185,65428,1,2,0:0:0:0:
153,185,65762,1,0,0:0:0:0:
153,185,65928,1,2,0:0:0:0:
153,185,66262,1,2,0:0:0:0:
153,185,66428,1,0,0:0:0:0:
153,185,66762,1,2,0:0:0:0:
153,185,66928,1,0,0:0:0:0:
153,185,67095,1,2,0:0:0:0:
153,185,67428,1,0,0:0:0:0:
153,185,67762,1,0,0:0:0:0:
153,185,68095,1,2,0:0:0:0:
153,185,68428,1,2,0:0:0:0:
149,124,68595,1,2,0:0:0:0:
153,185,68762,1,0,0:0:0:0:
153,185,68928,1,0,0:0:0:0:
153,185,69095,1,0,0:0:0:0:
153,185,69428,1,2,0:0:0:0:
153,185,69762,1,2,0:0:0:0:
153,185,69928,1,2,0:0:0:0:
275,163,70095,1,2,0:0:0:0:
153,185,70762,1,2,0:0:0:0:
153,185,71095,1,0,0:0:0:0:
153,185,71262,1,2,0:0:0:0:
153,185,71595,1,2,0:0:0:0:
153,185,71762,1,0,0:0:0:0:
153,185,72095,1,2,0:0:0:0:
153,185,72262,1,0,0:0:0:0:
153,185,72428,1,2,0:0:0:0:
153,185,72762,1,0,0:0:0:0:
153,185,73095,1,0,0:0:0:0:
153,185,73428,1,2,0:0:0:0:
153,185,73762,1,0,0:0:0:0:
153,185,74095,1,0,0:0:0:0:
153,185,74262,1,2,0:0:0:0:
153,185,74428,1,0,0:0:0:0:
153,185,74762,1,2,0:0:0:0:
153,185,74928,1,0,0:0:0:0:
153,185,75095,1,2,0:0:0:0:
153,185,75428,1,0,0:0:0:0:
153,190,75762,1,0,0:0:0:0:
155,190,76095,1,2,0:0:0:0:
153,190,76428,1,0,0:0:0:0:
153,190,76595,1,0,0:0:0:0:
155,190,76928,1,0,0:0:0:0:
153,190,77095,1,0,0:0:0:0:
155,190,77428,1,2,0:0:0:0:
219,99,77595,1,0,0:0:0:0:
155,190,77762,1,0,0:0:0:0:
153,190,78095,1,0,0:0:0:0:
209,92,78762,1,2,0:0:0:0:
161,196,79095,1,0,0:0:0:0:
161,196,79262,1,0,0:0:0:0:
209,92,79428,1,2,0:0:0:0:
161,196,79762,1,0,0:0:0:0:
161,196,80095,1,2,0:0:0:0:
161,196,80262,1,2,0:0:0:0:
161,196,80428,1,0,0:0:0:0:
161,196,80762,1,4,0:0:0:0:
225,144,81095,1,4,0:0:0:0:
225,144,81762,1,6,0:0:0:0:
171,167,82262,1,2,0:0:0:0:
171,167,82762,1,2,0:0:0:0:
171,167,82928,1,0,0:0:0:0:
171,167,83095,1,0,0:0:0:0:
171,167,83428,1,2,0:0:0:0:
171,167,83762,1,0,0:0:0:0:
171,167,84095,1,2,0:0:0:0:
171,167,84428,1,2,0:0:0:0:
171,167,84595,1,0,0:0:0:0:
171,167,84928,1,0,0:0:0:0:
171,167,85095,1,2,0:0:0:0:
171,167,85428,1,2,0:0:0:0:
171,167,85762,1,0,0:0:0:0:
171,167,86095,1,4,0:0:0:0:
171,167,86428,1,4,0:0:0:0:
171,167,86762,1,2,0:0:0:0:
171,167,87095,1,4,0:0:0:0:
269,128,87595,1,0,0:0:0:0:
269,128,88095,1,2,0:0:0:0:
269,128,88262,1,2,0:0:0:0:
269,128,88428,1,0,0:0:0:0:
269,128,88762,1,6,0:0:0:0:
169,187,90762,1,0,0:0:0:0:
169,187,90928,1,0,0:0:0:0:
169,187,91428,1,6,0:0:0:0:
180,203,91762,1,0,0:0:0:0:
180,203,92095,1,2,0:0:0:0:
248,136,92762,1,0,0:0:0:0:
248,136,92928,1,0,0:0:0:0:
248,136,93095,1,0,0:0:0:0:
248,136,93429,1,2,0:0:0:0:
248,136,93762,1,0,0:0:0:0:
248,136,94095,1,0,0:0:0:0:
248,136,94429,1,0,0:0:0:0:
248,136,94762,1,2,0:0:0:0:
248,136,95095,1,2,0:0:0:0:
248,136,95262,1,2,0:0:0:0:
248,136,95428,1,2,0:0:0:0:
248,136,95762,1,0,0:0:0:0:
248,136,96095,1,2,0:0:0:0:
248,136,96429,1,0,0:0:0:0:
248,136,96762,1,0,0:0:0:0:
248,136,97095,1,0,0:0:0:0:
248,136,97429,1,2,0:0:0:0:
248,136,97762,1,2,0:0:0:0:
248,136,97929,1,2,0:0:0:0:
248,136,98095,1,2,0:0:0:0:
248,136,98429,1,0,0:0:0:0:
248,136,98762,1,2,0:0:0:0:
248,136,99095,1,4,0:0:0:0:
151,90,99762,1,0,0:0:0:0:
151,90,100095,1,2,0:0:0:0:
151,90,100262,1,2,0:0:0:0:
296,161,100595,1,0,0:0:0:0:
242,183,100762,1,0,0:0:0:0:
242,183,101095,1,0,0:0:0:0:
242,183,101428,1,2,0:0:0:0:
242,183,101595,1,0,0:0:0:0:
242,183,101762,1,0,0:0:0:0:
242,183,102095,1,6,0:0:0:0:
144,184,102761,1,2,0:0:0:0:
144,184,103094,1,2,0:0:0:0:
144,184,103261,1,0,0:0:0:0:
113,202,103762,1,0,0:0:0:0:
144,184,104094,1,2,0:0:0:0:
144,184,104428,1,0,0:0:0:0:
144,184,104761,1,2,0:0:0:0:
273,212,105095,1,2,0:0:0:0:
144,184,105428,1,0,0:0:0:0:
144,184,105761,1,0,0:0:0:0:
144,184,106094,1,0,0:0:0:0:
219,134,106262,1,0,0:0:0:0:
144,184,106428,1,0,0:0:0:0:
144,184,106761,1,2,0:0:0:0:
144,184,107428,1,0,0:0:0:0:
144,184,107928,1,0,0:0:0:0:
144,184,108094,1,2,0:0:0:0:
188,79,108428,1,0,0:0:0:0:
248,146,108762,1,0,0:0:0:0:
248,146,108928,1,0,0:0:0:0:
248,146,109095,1,0,0:0:0:0:
188,79,109428,1,2,0:0:0:0:
144,184,109761,1,2,0:0:0:0:
144,184,110094,1,2,0:0:0:0:
248,146,110595,1,0,0:0:0:0:
144,184,110761,1,2,0:0:0:0:
279,146,111262,1,0,0:0:0:0:
144,184,111428,1,0,0:0:0:0:
231,103,111761,1,0,0:0:0:0:
231,103,112094,1,2,0:0:0:0:
231,103,112261,1,2,0:0:0:0:
231,103,112428,1,0,0:0:0:0:
144,184,112761,1,0,0:0:0:0:
405,181,113095,1,0,0:0:0:0:
248,153,113428,1,2,0:0:0:0:
248,153,113761,1,0,0:0:0:0:
248,153,113928,1,2,0:0:0:0:
99,165,114428,1,0,0:0:0:0:
248,153,114761,1,2,0:0:0:0:
248,153,115094,1,0,0:0:0:0:
248,153,115428,1,2,0:0:0:0:
248,153,115761,1,2,0:0:0:0:
248,153,116094,1,2,0:0:0:0:
248,153,116428,1,0,0:0:0:0:
248,153,116761,1,0,0:0:0:0:
173,130,116928,1,0,0:0:0:0:
248,153,117094,1,2,0:0:0:0:
248,153,117428,1,2,0:0:0:0:
173,130,117762,1,0,0:0:0:0:
248,153,118094,1,2,0:0:0:0:
248,153,118594,1,0,0:0:0:0:
248,153,118761,1,2,0:0:0:0:
173,130,119095,1,0,0:0:0:0:
159,134,119428,1,2,0:0:0:0:
159,134,119762,1,2,0:0:0:0:
248,153,120095,1,0,0:0:0:0:
248,153,120428,1,0,0:0:0:0:
132,194,120595,1,0,0:0:0:0:
248,153,120762,1,0,0:0:0:0:
248,153,121261,1,0,0:0:0:0:
103,176,121428,1,2,0:0:0:0:
103,176,121761,1,0,0:0:0:0:
103,176,121928,1,2,0:0:0:0:
248,153,122428,1,2,0:0:0:0:
248,153,122761,1,0,0:0:0:0:
248,153,122928,1,0,0:0:0:0:
248,153,123094,1,0,0:0:0:0:
248,153,123428,1,4,0:0:0:0:
171,184,123761,1,2,0:0:0:0:
171,184,123928,1,2,0:0:0:0:
171,184,124094,1,2,0:0:0:0:
171,184,124428,1,0,0:0:0:0:
171,184,124595,1,0,0:0:0:0:
171,184,124761,1,0,0:0:0:0:
171,184,125094,1,0,0:0:0:0:
171,184,125428,1,2,0:0:0:0:
171,184,125595,1,0,0:0:0:0:
171,184,126094,1,0,0:0:0:0:
213,79,126261,1,0,0:0:0:0:
171,184,126428,1,2,0:0:0:0:
171,184,127094,1,0,0:0:0:0:
254,134,127261,1,0,0:0:0:0:
171,184,127428,1,2,0:0:0:0:
149,161,127761,1,2,0:0:0:0:
149,161,128094,1,2,0:0:0:0:
149,161,128261,1,2,0:0:0:0:
171,184,128428,1,0,0:0:0:0:
91,148,128595,1,0,0:0:0:0:
171,184,128761,1,6,0:0:0:0:
277,190,129428,1,0,0:0:0:0:
277,190,129761,1,0,0:0:0:0:
277,190,130094,1,2,0:0:0:0:
277,190,130428,1,0,0:0:0:0:
277,190,130761,1,2,0:0:0:0:
277,190,131094,1,2,0:0:0:0:
277,190,131428,1,4,0:0:0:0:
287,174,132762,1,0,0:0:0:0:
287,174,133095,1,2,0:0:0:0:
287,174,133262,1,0,0:0:0:0:
287,174,133429,1,2,0:0:0:0:
314,141,133595,1,2,0:0:0:0:
252,180,133762,1,0,0:0:0:0:
141,104,133928,1,0,0:0:0:0:
252,180,134095,1,6,0:0:0:0:
153,185,134762,1,2,0:0:0:0:
153,185,135095,1,0,0:0:0:0:
153,185,135262,1,2,0:0:0:0:
153,185,135595,1,2,0:0:0:0:
153,185,135762,1,0,0:0:0:0:
153,185,136095,1,2,0:0:0:0:
153,185,136429,1,2,0:0:0:0:
153,185,136762,1,0,0:0:0:0:
153,185,137095,1,0,0:0:0:0:
153,185,137429,1,2,0:0:0:0:
153,185,137762,1,0,0:0:0:0:
153,185,137929,1,0,0:0:0:0:
153,185,138095,1,2,0:0:0:0:
153,185,138262,1,0,0:0:0:0:
153,185,138429,1,0,0:0:0:0:
153,185,138762,1,2,0:0:0:0:
153,185,138929,1,2,0:0:0:0:
153,185,139095,1,2,0:0:0:0:
153,185,139429,1,0,0:0:0:0:
153,185,139762,1,0,0:0:0:0:
153,185,140095,1,2,0:0:0:0:
153,185,140429,1,0,0:0:0:0:
153,185,140595,1,2,0:0:0:0:
153,185,140929,1,2,0:0:0:0:
153,185,141095,1,0,0:0:0:0:
153,185,141429,1,2,0:0:0:0:
153,185,141595,1,0,0:0:0:0:
153,185,141762,1,2,0:0:0:0:
153,185,142095,1,0,0:0:0:0:
153,185,142429,1,0,0:0:0:0:
124,75,142595,1,0,0:0:0:0:
153,185,142762,1,0,0:0:0:0:
153,185,143095,1,2,0:0:0:0:
153,185,143429,1,0,0:0:0:0:
153,185,143595,1,0,0:0:0:0:
153,185,143762,1,0,0:0:0:0:
153,185,144095,1,2,0:0:0:0:
153,185,144429,1,2,0:0:0:0:
153,185,144595,1,2,0:0:0:0:
275,163,144762,1,2,0:0:0:0:
153,185,145429,1,2,0:0:0:0:
153,185,145762,1,0,0:0:0:0:
153,185,145929,1,2,0:0:0:0:
153,185,146262,1,2,0:0:0:0:
153,185,146429,1,0,0:0:0:0:
153,185,146762,1,2,0:0:0:0:
153,185,146929,1,0,0:0:0:0:
153,185,147095,1,2,0:0:0:0:
153,185,147429,1,0,0:0:0:0:
153,185,147762,1,0,0:0:0:0:
153,185,148095,1,2,0:0:0:0:
153,185,148429,1,0,0:0:0:0:
153,185,148762,1,0,0:0:0:0:
153,185,148929,1,2,0:0:0:0:
153,185,149095,1,0,0:0:0:0:
153,185,149429,1,2,0:0:0:0:
153,185,149595,1,0,0:0:0:0:
153,185,149762,1,2,0:0:0:0:
153,185,150095,1,2,0:0:0:0:
153,190,150429,1,0,0:0:0:0:
155,190,150762,1,2,0:0:0:0:
153,190,151095,1,0,0:0:0:0:
153,190,151262,1,0,0:0:0:0:
155,190,151595,1,0,0:0:0:0:
153,190,151762,1,0,0:0:0:0:
155,190,152095,1,2,0:0:0:0:
219,99,152262,1,0,0:0:0:0:
155,190,152429,1,0,0:0:0:0:
153,190,152762,1,0,0:0:0:0:
209,92,153429,1,2,0:0:0:0:
161,196,153762,1,0,0:0:0:0:
161,196,153929,1,0,0:0:0:0:
209,92,154095,1,2,0:0:0:0:
161,196,154429,5,0,0:0:0:0:
161,196,154762,1,2,0:0:0:0:
161,196,154929,1,2,0:0:0:0:
161,196,155095,1,0,0:0:0:0:
161,196,155428,5,4,0:0:0:0:
225,144,155761,1,4,0:0:0:0:
225,144,156428,1,6,0:0:0:0:
171,167,156928,1,2,0:0:0:0:
171,167,157428,1,2,0:0:0:0:
171,167,157594,1,0,0:0:0:0:
171,167,157761,1,0,0:0:0:0:
171,167,158094,1,2,0:0:0:0:
171,167,158428,1,0,0:0:0:0:
171,167,158761,1,2,0:0:0:0:
171,167,159094,1,2,0:0:0:0:
171,167,159261,1,0,0:0:0:0:
171,167,159594,1,0,0:0:0:0:
171,167,159761,1,2,0:0:0:0:
171,167,160094,1,2,0:0:0:0:
171,167,160428,1,0,0:0:0:0:
171,167,160761,1,4,0:0:0:0:
171,167,161094,1,4,0:0:0:0:
171,167,161428,1,2,0:0:0:0:
171,167,161761,1,4,0:0:0:0:
269,128,162261,1,0,0:0:0:0:
269,128,162761,5,2,0:0:0:0:
269,128,162928,1,2,0:0:0:0:
269,128,163094,1,0,0:0:0:0:
269,128,163428,1,6,0:0:0:0:
207,128,163928,5,0,0:0:0:0:
207,128,164095,1,2,0:0:0:0:
207,128,164428,1,2,0:0:0:0:
207,128,164762,1,2,0:0:0:0:
169,121,165428,1,0,0:0:0:0:
169,121,165762,1,2,0:0:0:0:
229,233,165928,1,0,0:0:0:0:
169,121,166095,1,6,0:0:0:0:
169,121,166428,1,2,0:0:0:0:
225,94,166595,1,0,0:0:0:0:
169,121,166928,1,0,0:0:0:0:
169,121,167095,1,2,0:0:0:0:
169,121,167595,1,0,0:0:0:0:
169,121,167762,1,2,0:0:0:0:
169,121,168095,1,2,0:0:0:0:
231,177,168262,1,2,0:0:0:0:
169,121,168428,1,0,0:0:0:0:
280,76,168928,1,0,0:0:0:0:
169,121,169095,1,2,0:0:0:0:
308,152,169262,1,0,0:0:0:0:
308,152,169428,1,0,0:0:0:0:
173,183,169762,1,0,0:0:0:0:
184,181,170095,1,0,0:0:0:0:
184,181,170262,1,0,0:0:0:0:
184,181,170428,1,2,0:0:0:0:
184,181,170595,1,0,0:0:0:0:
184,181,170762,1,2,0:0:0:0:
184,181,171428,1,0,0:0:0:0:
169,185,171762,1,2,0:0:0:0:
169,185,171928,1,2,0:0:0:0:
171,183,172095,1,2,0:0:0:0:
171,187,172262,1,0,0:0:0:0:
169,185,172595,1,0,0:0:0:0:
169,185,172762,1,0,0:0:0:0:
171,187,172928,1,0,0:0:0:0:
171,187,173095,1,2,0:0:0:0:
169,185,173428,1,2,0:0:0:0:
151,119,173762,1,4,0:0:0:0:
307,146,174095,1,2,0:0:0:0:
238,142,174262,1,2,0:0:0:0:
349,185,174762,1,6,0:0:0:0:
349,185,175095,1,0,0:0:0:0:
349,185,175262,1,2,0:0:0:0:
349,185,175762,1,2,0:0:0:0:
349,185,175928,1,0,0:0:0:0:
124,44,176095,1,2,0:0:0:0:
349,185,176262,1,0,0:0:0:0:
349,185,176428,1,0,0:0:0:0:
349,185,176762,1,6,0:0:0:0:
236,179,177262,1,0,0:0:0:0:
173,152,177428,1,2,0:0:0:0:
173,152,177762,1,0,0:0:0:0:
173,152,177928,1,2,0:0:0:0:
132,113,178095,1,0,0:0:0:0:
254,41,178428,1,2,0:0:0:0:
173,152,178762,1,2,0:0:0:0:
378,130,178873,1,0,0:0:0:0:
378,130,178984,1,0,0:0:0:0:
173,152,179095,1,2,0:0:0:0:
358,132,179762,1,0,0:0:0:0:
358,132,180095,1,2,0:0:0:0:
358,132,180428,1,0,0:0:0:0:
358,132,180928,1,2,0:0:0:0:
358,132,181095,1,0,0:0:0:0:
358,132,181428,1,2,0:0:0:0:
358,132,181539,1,2,0:0:0:0:
358,132,181650,1,0,0:0:0:0:
358,132,181762,1,0,0:0:0:0:
221,144,182095,1,6,0:0:0:0:
219,206,182428,1,0,0:0:0:0:
219,206,182595,1,0,0:0:0:0:
219,206,182762,1,2,0:0:0:0:
219,206,183262,1,2,0:0:0:0:
149,113,183428,1,0,0:0:0:0:
219,206,183762,1,2,0:0:0:0:
223,88,183928,1,0,0:0:0:0:
219,206,184095,1,2,0:0:0:0:
219,206,184428,1,0,0:0:0:0:
324,130,184928,1,0,0:0:0:0:
219,206,185095,1,2,0:0:0:0:
124,105,185428,1,0,0:0:0:0:
219,206,185595,1,2,0:0:0:0:
267,130,185928,1,0,0:0:0:0:
219,206,186095,1,2,0:0:0:0:
100,98,186262,1,2,0:0:0:0:
219,206,186595,1,2,0:0:0:0:
219,206,186762,1,2,0:0:0:0:
219,206,186928,1,0,0:0:0:0:
219,206,187095,1,0,0:0:0:0:
219,206,187428,1,6,0:0:0:0:
184,140,188095,1,0,0:0:0:0:
184,140,188428,1,0,0:0:0:0:
184,140,188762,1,2,0:0:0:0:
184,140,189095,1,0,0:0:0:0:
184,140,189428,1,2,0:0:0:0:
184,140,189762,1,2,0:0:0:0:
184,140,190095,1,4,0:0:0:0:
229,140,192762,1,0,0:0:0:0:
152,174,193095,1,0,0:0:0:0:
152,174,193428,1,2,0:0:0:0:
152,174,194095,1,0,0:0:0:0:
152,174,194428,1,0,0:0:0:0:
152,174,194762,1,2,0:0:0:0:
152,174,195428,1,0,0:0:0:0:
152,174,195762,1,2,0:0:0:0:
152,174,196095,1,2,0:0:0:0:
152,174,196428,1,0,0:0:0:0:
152,174,197095,1,2,0:0:0:0:
152,174,197428,1,0,0:0:0:0:
152,174,197762,1,2,0:0:0:0:
152,174,198095,1,0,0:0:0:0:
152,174,198428,1,0,0:0:0:0:
152,174,198762,1,2,0:0:0:0:
152,174,199428,1,2,0:0:0:0:
152,174,200095,1,0,0:0:0:0:
152,174,200762,1,0,0:0:0:0:
152,174,201428,1,2,0:0:0:0:
152,174,202095,1,0,0:0:0:0:
152,174,202762,1,2,0:0:0:0:
258,153,203095,1,2,0:0:0:0:
152,174,203428,1,0,0:0:0:0:
258,153,203595,1,2,0:0:0:0:
247,153,203928,1,0,0:0:0:0:
247,153,204095,1,2,0:0:0:0:
247,153,204428,1,0,0:0:0:0:
247,153,204595,1,2,0:0:0:0:
371,161,204762,1,0,0:0:0:0:
82,94,205095,1,0,0:0:0:0:
82,94,205262,1,0,0:0:0:0:
82,94,205428,1,2,0:0:0:0:
371,161,205595,1,2,0:0:0:0:
371,161,205762,1,0,0:0:0:0:
371,161,205928,1,0,0:0:0:0:
371,161,206095,1,6,0:0:0:0:
153,185,206762,1,2,0:0:0:0:
153,185,207095,1,0,0:0:0:0:
153,185,207262,1,2,0:0:0:0:
153,185,207595,1,2,0:0:0:0:
153,185,207762,1,0,0:0:0:0:
153,185,208095,1,2,0:0:0:0:
153,185,208429,1,2,0:0:0:0:
153,185,208762,1,0,0:0:0:0:
153,185,209095,1,0,0:0:0:0:
153,185,209429,1,2,0:0:0:0:
153,185,209762,1,0,0:0:0:0:
153,185,209929,1,0,0:0:0:0:
153,185,210095,1,2,0:0:0:0:
153,185,210262,1,2,0:0:0:0:
153,185,210429,1,0,0:0:0:0:
153,185,210762,1,2,0:0:0:0:
153,185,210929,1,2,0:0:0:0:
153,185,211095,1,2,0:0:0:0:
153,185,211429,1,0,0:0:0:0:
153,185,211762,1,0,0:0:0:0:
153,185,212095,1,2,0:0:0:0:
153,185,212429,1,0,0:0:0:0:
153,185,212595,1,2,0:0:0:0:
153,185,212929,1,2,0:0:0:0:
153,185,213095,1,0,0:0:0:0:
140,48,213262,1,0,0:0:0:0:
153,185,213429,1,2,0:0:0:0:
153,185,213762,1,2,0:0:0:0:
153,185,214095,1,0,0:0:0:0:
153,185,214429,1,0,0:0:0:0:
124,75,214595,1,0,0:0:0:0:
153,185,214762,1,0,0:0:0:0:
153,185,215095,1,2,0:0:0:0:
235,47,215262,1,2,0:0:0:0:
153,185,215429,1,0,0:0:0:0:
153,185,215762,1,0,0:0:0:0:
153,185,216095,1,2,0:0:0:0:
153,185,216429,1,2,0:0:0:0:
153,185,216595,1,2,0:0:0:0:
275,163,216762,1,2,0:0:0:0:
195,68,216928,1,0,0:0:0:0:
195,68,217095,1,0,0:0:0:0:
153,185,217429,1,2,0:0:0:0:
153,185,217929,1,2,0:0:0:0:
153,185,218429,1,0,0:0:0:0:
153,185,218762,1,2,0:0:0:0:
153,185,218929,1,0,0:0:0:0:
153,185,219095,1,2,0:0:0:0:
153,185,219429,1,0,0:0:0:0:
153,185,219928,1,2,0:0:0:0:
153,185,220429,1,0,0:0:0:0:
153,185,220762,1,0,0:0:0:0:
153,185,220929,1,0,0:0:0:0:
153,185,221095,1,0,0:0:0:0:
153,185,221429,1,2,0:0:0:0:
153,185,221595,1,2,0:0:0:0:
153,185,221762,1,2,0:0:0:0:
153,185,222095,1,2,0:0:0:0:
153,190,222429,1,0,0:0:0:0:
155,190,222762,1,2,0:0:0:0:
153,190,223095,1,0,0:0:0:0:
153,190,223262,1,0,0:0:0:0:
155,190,223595,1,0,0:0:0:0:
153,190,223762,1,0,0:0:0:0:
155,190,224095,1,2,0:0:0:0:
219,99,224262,1,0,0:0:0:0:
155,190,224429,1,0,0:0:0:0:
153,190,224762,1,0,0:0:0:0:
209,92,225429,1,2,0:0:0:0:
161,196,225762,1,0,0:0:0:0:
161,196,225929,1,0,0:0:0:0:
209,92,226095,1,2,0:0:0:0:
161,196,226429,5,0,0:0:0:0:
161,196,226762,1,2,0:0:0:0:
161,196,226929,1,2,0:0:0:0:
161,196,227095,1,0,0:0:0:0:
161,196,227428,5,4,0:0:0:0:
225,144,227761,1,4,0:0:0:0:
225,144,228428,1,6,0:0:0:0:
171,167,228928,1,2,0:0:0:0:
171,167,229428,1,2,0:0:0:0:
171,167,229594,1,0,0:0:0:0:
171,167,229761,1,0,0:0:0:0:
171,167,230094,1,2,0:0:0:0:
171,167,230428,1,0,0:0:0:0:
239,126,230595,1,0,0:0:0:0:
171,167,230761,1,2,0:0:0:0:
171,167,231094,1,2,0:0:0:0:
171,167,231261,1,0,0:0:0:0:
171,167,231594,1,0,0:0:0:0:
171,167,231761,1,2,0:0:0:0:
171,167,232094,1,2,0:0:0:0:
245,105,232262,1,2,0:0:0:0:
171,167,232428,1,0,0:0:0:0:
171,167,232761,1,4,0:0:0:0:
171,167,233094,1,4,0:0:0:0:
171,167,233428,1,2,0:0:0:0:
171,167,233761,1,4,0:0:0:0:
269,128,234261,1,0,0:0:0:0:
269,128,234761,5,2,0:0:0:0:
269,128,234873,1,2,0:0:0:0:
269,128,234984,1,2,0:0:0:0:
128,98,235095,1,2,0:0:0:0:
269,128,235428,1,4,0:0:0:0:
247,128,237428,5,0,0:0:0:0:
216,149,237595,1,0,0:0:0:0:
160,180,238095,1,2,0:0:0:0:
160,180,238762,1,0,0:0:0:0:
160,180,239428,1,2,0:0:0:0:
160,180,239762,1,2,0:0:0:0:
160,180,240095,1,0,0:0:0:0:
160,180,240428,1,0,0:0:0:0:
160,180,241762,1,0,0:0:0:0:
160,180,242095,1,0,0:0:0:0:
160,180,242428,1,2,0:0:0:0:
160,180,242762,1,0,0:0:0:0:
160,180,243095,1,0,0:0:0:0:
256,192,243428,12,0,248762,0:0:0:0:
