osu file format v14

[General]
AudioFilename: audio.mp3
AudioLeadIn: 0
PreviewTime: 46999
Countdown: 0
SampleSet: Soft
StackLeniency: 0.7
Mode: 0
LetterboxInBreaks: 0
WidescreenStoryboard: 0

[Editor]
Bookmarks: 1666,6999,12332,17666,22999,28332,33666,38999,44332,49666,59999,60332,70999,71999,76332,77332,78999,80999,81666,86666
DistanceSpacing: 0.8
BeatDivisor: 4
GridSize: 32
TimelineZoom: 1

[Metadata]
Title:Kimi ni Furete (TV Size)
TitleUnicode:君にふれて (TV Size)
Artist:Azuna Riko
ArtistUnicode:安月名 莉子
Creator:eiri-
Version:Normal
Source:やがて君になる
Tags:Ayyri Trynna Yagate Kimi ni Naru Opening OP Bloom into You Anime Japanese Rock
BeatmapID:2245066
BeatmapSetID:1070052

[Difficulty]
HPDrainRate:4
CircleSize:3
OverallDifficulty:4
ApproachRate:5
SliderMultiplier:1.4
SliderTickRate:1

[Events]
//Background and Video events
0,0,"Touko Yuu 583.jpg",0,0
//Break Periods
//Storyboard Layer 0 (Background)
//Storyboard Layer 1 (Fail)
//Storyboard Layer 2 (Pass)
//Storyboard Layer 3 (Foreground)
//Storyboard Layer 4 (Overlay)
//Storyboard Sound Samples

[TimingPoints]
1666,666.666666666667,4,2,1,50,1,0
6999,-100,4,2,1,75,0,0
17666,-100,4,2,1,60,0,0
38999,-100,4,2,1,75,0,0
44332,-100,4,2,1,85,0,0
46999,-100,4,2,1,85,0,0
49666,-100,4,2,1,90,0,1
59999,-100,4,2,1,90,0,0
60332,-100,4,2,1,90,0,1
70999,-100,4,2,1,90,0,0
71999,-100,4,2,1,90,0,1
76332,-100,4,2,1,90,0,0
77332,-100,4,2,1,90,0,1
78999,-100,4,2,1,90,0,0
80999,-100,4,2,1,100,0,1
81166,-100,4,2,1,100,0,0
81666,-100,4,2,1,50,0,0
86666,-100,4,2,1,75,0,0

[Colours]
Combo1 : 234,125,106
Combo2 : 174,205,230
Combo3 : 239,197,165
Combo4 : 118,158,180

[HitObjects]
116,23,1666,6,0,L|34:35,2,70,2|0|2,0:0|0:0|0:0,0:0:0:0:
161,55,2666,1,2,0:0:0:0:
269,28,3332,1,2,0:0:0:0:
269,28,3666,2,0,L|259:116,1,70,2|2,0:0|0:0,0:0:0:0:
282,149,4332,5,2,0:0:0:0:
204,230,4999,1,2,0:0:0:0:
288,304,5666,2,0,P|342:329|366:335,1,70,0|2,0:0|0:0,0:0:0:0:
405,317,6332,2,0,L|399:258,2,35,10|8|0,0:0|0:0|1:0,0:0:0:0:
451,348,6999,6,0,B|491:284|491:284|479:204,1,140,6|10,1:2|0:0,0:0:0:0:
412,131,8332,2,0,L|321:145,1,70,2|0,0:0|1:0,0:0:0:0:
304,100,8999,1,10,0:0:0:0:
304,100,9332,2,0,L|151:75,1,140,2|0,0:0|1:0,0:0:0:0:
180,131,10332,1,10,0:0:0:0:
180,131,10666,2,0,L|164:226,1,70,2|2,1:2|1:2,0:0:0:0:
185,253,11332,1,2,1:2:0:0:
185,253,11666,1,10,0:0:0:0:
287,298,12332,6,0,P|327:286|356:263,1,70,2|0,1:2|1:2,0:0:0:0:
371,217,12999,1,8,0:0:0:0:
371,217,13332,2,0,L|357:140,2,70,2|2|2,1:2|1:2|1:2,0:0:0:0:
424,233,14332,1,10,0:0:0:0:
424,233,14666,6,0,B|480:199|480:199|458:41,1,210,6|2,1:2|0:0,0:0:0:0:
453,0,15999,1,2,1:2:0:0:
453,0,16332,1,2,1:2:0:0:
242,75,17666,5,6,1:2:0:0:
242,75,17999,2,0,L|154:84,1,70,2|0,0:0|1:0,0:0:0:0:
134,123,18666,1,2,1:2:0:0:
140,141,18832,2,0,L|117:265,1,105,2|2,0:0|1:2,0:0:0:0:
145,294,19666,1,10,0:0:0:0:
252,264,20332,6,0,P|321:301|338:303,1,70,2|0,1:2|0:0,0:0:0:0:
367,289,20999,2,0,L|381:206,1,70,2|2,1:2|1:2,0:0:0:0:
351,170,21666,2,0,L|337:87,1,70,2|2,1:2|1:2,0:0:0:0:
356,47,22332,1,10,0:0:0:0:
244,59,22999,6,0,L|109:70,1,105,2|2,1:2|0:0,0:0:0:0:
136,79,23666,1,2,1:2:0:0:
175,173,24332,2,0,L|165:260,1,70,2|2,1:2|1:2,0:0:0:0:
181,296,24999,1,10,0:0:0:0:
73,328,25666,5,2,1:2:0:0:
59,216,26332,1,2,0:0:0:0:
45,104,26999,2,0,L|132:117,1,70,2|2,1:2|0:0,0:0:0:0:
159,81,27666,2,0,L|246:68,1,70,10|2,0:0|0:0,0:0:0:0:
269,108,28332,5,6,1:2:0:0:
367,55,28999,2,0,L|458:74,1,70,2|2,1:2|1:2,0:0:0:0:
443,80,29499,2,0,L|420:195,1,105,2|0,0:0|1:0,0:0:0:0:
439,236,30332,1,10,0:0:0:0:
327,268,30999,5,2,1:2:0:0:
240,196,31666,1,2,0:0:0:0:
141,248,32332,2,0,L|57:256,1,70,2|2,1:2|1:2,0:0:0:0:
28,218,32999,1,10,0:0:0:0:
91,125,33666,6,0,L|205:111,1,105,2|2,1:2|0:0,0:0:0:0:
205,117,34332,2,0,L|226:16,1,70,2|2,0:0|1:2,0:0:0:0:
261,11,34999,1,2,1:2:0:0:
343,87,35666,1,10,0:0:0:0:
431,18,36332,6,0,L|511:39,1,70,2|0,1:2|0:0,0:0:0:0:
477,87,36999,1,10,0:0:0:0:
477,87,37332,2,0,L|485:173,1,70,2|2,1:2|1:2,0:0:0:0:
447,199,37999,2,0,L|361:191,1,70,10|10,0:0|0:0,0:0:0:0:
306,105,38999,5,6,1:2:0:0:
306,105,39332,2,0,L|242:113,2,35,2|2|10,0:0|0:0|0:0,0:0:0:0:
343,63,39999,2,0,L|407:71,2,35,2|0|2,1:2|1:0|0:0,0:0:0:0:
324,9,40666,1,2,1:2:0:0:
324,9,40999,1,10,0:0:0:0:
212,14,41666,6,0,L|204:107,1,70,6|2,1:2|0:0,0:0:0:0:
224,136,42332,1,10,0:0:0:0:
224,136,42666,2,0,L|137:147,1,70,2|2,1:2|0:0,0:0:0:0:
106,116,43332,1,2,1:2:0:0:
62,219,43999,1,2,1:2:0:0:
62,219,44332,6,0,L|130:241,1,70,6|0,1:2|1:0,0:0:0:0:
162,285,44999,2,0,L|230:263,1,70,0|10,1:0|1:2,0:0:0:0:
261,217,45666,1,2,1:2:0:0:
261,217,45999,1,0,1:0:0:0:
261,217,46332,2,0,L|329:239,1,70,10|10,1:2|1:2,0:0:0:0:
377,212,46999,5,6,1:2:0:0:
377,212,48999,2,0,L|370:166,1,35,2|2,1:2|1:2,0:0:0:0:
404,88,49666,5,6,1:2:0:0:
404,88,49999,1,2,1:2:0:0:
404,88,50332,2,0,L|312:72,1,70,10|2,0:0|1:2,0:0:0:0:
326,84,50832,2,0,L|215:104,1,105,10|2,0:0|1:2,0:0:0:0:
171,80,51666,1,10,0:0:0:0:
171,80,51999,2,0,L|158:233,1,140,2|0,1:2|1:0,0:0:0:0:
188,321,53332,1,2,1:2:0:0:
188,321,53666,2,0,L|111:307,1,70,2|2,1:2|1:2,0:0:0:0:
68,331,54332,2,0,L|34:233,1,70,10|2,0:0|1:2,0:0:0:0:
56,209,54999,5,2,1:2:0:0:
56,209,55332,1,0,1:0:0:0:
13,105,55999,2,0,L|47:7,1,70,2|2,1:2|1:2,0:0:0:0:
87,15,56666,1,2,1:2:0:0:
87,15,56999,2,0,L|164:27,1,70,10|2,0:0|1:2,0:0:0:0:
187,72,57666,5,2,1:2:0:0:
187,72,57999,1,2,1:2:0:0:
187,72,58332,2,0,L|334:50,1,140,14|2,0:0|1:2,0:0:0:0:
376,75,59332,1,2,1:2:0:0:
376,75,59666,1,10,0:0:0:0:
339,180,60332,5,6,1:2:0:0:
339,180,60666,1,2,1:2:0:0:
339,180,60999,2,0,L|350:281,1,70,10|2,0:0|1:2,0:0:0:0:
349,264,61499,2,0,P|292:242|236:268,1,105,10|2,0:0|1:2,0:0:0:0:
212,293,62332,1,10,0:0:0:0:
212,293,62666,2,0,P|149:306|66:309,1,140,2|0,1:2|1:0,0:0:0:0:
17,195,63999,1,2,1:2:0:0:
17,195,64332,1,2,1:2:0:0:
17,195,64666,2,0,L|24:105,1,70,2|10,1:2|0:0,0:0:0:0:
48,75,65332,1,2,1:2:0:0:
48,75,65666,6,0,L|138:66,1,70,2|0,1:2|1:0,0:0:0:0:
205,137,66666,1,2,1:2:0:0:
220,126,66832,2,0,L|336:115,1,105,10|2,0:0|1:2,0:0:0:0:
374,89,67666,2,0,L|359:189,1,70,10|0,0:0|1:0,0:0:0:0:
352,212,68332,6,0,B|417:210|417:210|407:301,1,140,6|10,1:2|0:0,0:0:0:0:
322,355,69666,2,0,B|257:357|257:357|267:266,1,140,2|2,1:2|1:2,0:0:0:0:
279,171,70999,5,6,1:2:0:0:
279,171,71332,1,6,1:2:0:0:
168,188,71999,5,6,1:2:0:0:
171,169,72166,2,0,L|148:47,1,105,2|2,0:0|1:2,0:0:0:0:
111,27,72999,1,10,0:0:0:0:
43,116,73666,2,0,L|61:212,1,70,6|2,1:2|1:2,0:0:0:0:
41,238,74332,2,0,L|59:333,1,70,10|2,0:0|1:2,0:0:0:0:
58,321,74832,2,0,L|178:338,1,105,10|2,0:0|1:2,0:0:0:0:
209,305,75666,1,10,0:0:0:0:
315,353,76332,5,6,1:2:0:0:
315,353,76666,1,6,1:2:0:0:
377,261,77332,5,6,1:2:0:0:
382,244,77499,2,0,L|368:134,1,105,2|10,0:0|0:0,0:0:0:0:
389,87,78332,1,10,0:0:0:0:
389,87,78666,1,2,1:2:0:0:
389,87,78999,6,0,B|213:8|262:185|39:171,1,350,6|2,1:2|0:0,0:0:0:0:
25,138,80999,6,0,L|38:81,1,35,6|6,1:2|1:2,0:0:0:0:
98,27,81666,5,6,0:0:0:0:
176,106,82332,1,2,0:0:0:0:
117,201,82999,2,0,L|126:277,1,70,2|2,0:0|0:0,0:0:0:0:
111,324,83666,1,2,0:0:0:0:
111,324,83999,2,0,P|249:348|344:353,1,210,2|0,0:0|0:0,0:0:0:0:
365,321,85332,1,2,0:0:0:0:
365,321,85666,2,0,L|353:225,1,70,2|2,0:0|0:0,0:0:0:0:
375,198,86332,1,2,0:0:0:0:
375,198,86666,5,6,0:0:0:0:
