osu file format v14

[General]
AudioFilename: audio.mp3
AudioLeadIn: 0
PreviewTime: 46999
Countdown: 0
SampleSet: Soft
StackLeniency: 0.7
Mode: 0
LetterboxInBreaks: 0
WidescreenStoryboard: 0

[Editor]
Bookmarks: 1666,6999,12332,17666,22999,28332,33666,38999,44332,49666,59999,60332,70999,71999,76332,77332,78999,80999,81666,86666
DistanceSpacing: 1.1
BeatDivisor: 4
GridSize: 32
TimelineZoom: 1

[Metadata]
Title:Kimi ni Furete (TV Size)
TitleUnicode:君にふれて (TV Size)
Artist:Azuna Riko
ArtistUnicode:安月名 莉子
Creator:eiri-
Version:Dearest
Source:やがて君になる
Tags:Ayyri Trynna Yagate Kimi ni Naru Opening OP Bloom into You Anime Japanese Rock
BeatmapID:2239887
BeatmapSetID:1070052

[Difficulty]
HPDrainRate:5
CircleSize:5
OverallDifficulty:8
ApproachRate:8.5
SliderMultiplier:1.8
SliderTickRate:1

[Events]
//Background and Video events
0,0,"Touko Yuu 583.jpg",0,0
//Break Periods
//Storyboard Layer 0 (Background)
//Storyboard Layer 1 (Fail)
//Storyboard Layer 2 (Pass)
//Storyboard Layer 3 (Foreground)
//Storyboard Layer 4 (Overlay)
//Storyboard Sound Samples

[TimingPoints]
1666,666.666666666667,4,2,1,50,1,0
6999,-66.6666666666667,4,2,1,75,0,0
17666,-80,4,2,1,60,0,0
38999,-74.0740740740741,4,2,1,75,0,0
44332,-68.9655172413793,4,2,1,85,0,0
49666,-66.6666666666667,4,2,1,90,0,1
59999,-66.6666666666667,4,2,1,90,0,0
60332,-66.6666666666667,4,2,1,90,0,1
70999,-66.6666666666667,4,2,1,90,0,0
71999,-66.6666666666667,4,2,1,90,0,1
76332,-66.6666666666667,4,2,1,90,0,0
77332,-66.6666666666667,4,2,1,90,0,1
78999,-100,4,2,1,90,0,0
80999,-100,4,2,1,100,0,1
81166,-100,4,2,1,100,0,0
81666,-100,4,2,1,50,0,0
86666,-100,4,2,1,75,0,0

[Colours]
Combo1 : 234,125,106
Combo2 : 174,205,230
Combo3 : 239,197,165
Combo4 : 118,158,180

[HitObjects]
423,331,1666,5,2,0:0:0:0:
439,246,1999,1,0,0:0:0:0:
420,363,2333,1,2,0:0:0:0:
368,224,2666,2,0,L|472:236,1,90,2|0,0:0|0:0,0:0:0:0:
333,332,3333,1,2,0:0:0:0:
401,300,3666,1,2,0:0:0:0:
465,366,3999,1,2,0:0:0:0:
312,310,4333,6,0,L|217:331,1,90,2|0,0:0|0:0,0:0:0:0:
159,274,4999,1,2,0:0:0:0:
260,301,5333,1,2,0:0:0:0:
278,182,5666,1,0,0:0:0:0:
87,211,5999,1,2,0:0:0:0:
326,252,6332,1,10,0:0:0:0:
329,264,6499,1,8,0:0:0:0:
333,276,6666,1,0,1:0:0:0:
295,343,6999,6,0,B|187:343|201:235|84:288,1,202.500007724762,6|0,1:2|0:0,0:0:0:0:
114,291,7666,2,0,P|178:248|161:177,1,135.000005149842,10|0,0:0|0:0,0:0:0:0:
8,221,8332,1,2,0:0:0:0:
38,254,8499,1,8,0:0:0:0:
74,168,8666,1,0,1:0:0:0:
105,362,8999,2,0,L|36:376,1,67.5000025749208,10|0,0:0|0:0,0:0:0:0:
197,263,9332,6,0,L|60:236,1,135.000005149842,2|0,0:0|1:0,0:0:0:0:
64,236,9999,1,0,1:0:0:0:
163,328,10332,1,10,0:0:0:0:
344,258,10666,2,0,L|334:335,1,67.5000025749208,2|0,1:2|0:0,0:0:0:0:
424,171,10999,2,0,L|434:248,1,67.5000025749208,2|0,1:2|1:0,0:0:0:0:
270,155,11332,2,0,L|280:78,1,67.5000025749208,2|0,1:2|0:0,0:0:0:0:
475,33,11666,2,0,L|485:110,1,67.5000025749208,10|0,0:0|0:0,0:0:0:0:
352,4,11999,1,2,1:2:0:0:
385,33,12166,1,10,0:0:0:0:
304,82,12332,5,2,1:2:0:0:
304,82,12666,1,0,1:2:0:0:
321,156,12999,1,8,0:0:0:0:
169,127,13332,2,0,L|86:148,1,67.5000025749208,2|0,1:2|0:0,0:0:0:0:
40,265,13666,1,2,1:2:0:0:
128,221,13832,1,10,0:0:0:0:
58,256,13999,2,0,L|128:257,1,67.5000025749208,2|0,1:2|0:0,0:0:0:0:
300,170,14332,1,10,0:0:0:0:
300,170,14666,6,0,B|365:137|365:137|345:318,1,247.500009441376,6|10,1:2|0:0,0:0:0:0:
345,310,15332,1,10,0:0:0:0:
453,311,15666,1,2,0:0:0:0:
460,322,15832,1,2,1:2:0:0:
457,349,15999,1,2,1:2:0:0:
390,334,16332,1,2,1:2:0:0:
183,376,16832,1,2,1:2:0:0:
195,363,16999,2,0,B|177:326|177:326|16:374,1,202.500007724762,10|0,0:0|0:0,0:0:0:0:
22,372,17666,5,6,1:2:0:0:
57,279,17999,2,0,L|27:160,1,112.5,2|0,0:0|1:0,0:0:0:0:
135,192,18666,1,2,1:2:0:0:
135,192,18832,2,0,L|230:162,1,56.25,2|0,0:0|0:0,0:0:0:0:
260,234,19166,1,2,0:0:0:0:
260,234,19332,2,0,L|355:264,1,56.25,2|0,1:2|0:0,0:0:0:0:
447,211,19666,1,10,0:0:0:0:
424,142,19999,1,2,0:0:0:0:
424,142,20166,1,2,0:0:0:0:
424,142,20332,6,0,L|440:22,1,112.5,2|0,1:2|0:0,0:0:0:0:
313,102,20999,2,0,L|329:222,1,112.5,2|2,1:2|1:2,0:0:0:0:
343,318,21499,1,2,1:2:0:0:
343,318,21666,2,0,B|426:336,1,56.25,2|0,1:2|0:0,0:0:0:0:
241,229,21999,2,0,B|324:211,1,56.25,2|0,1:2|0:0,0:0:0:0:
160,359,22332,2,0,B|283:386,1,112.5,10|0,0:0|0:0,0:0:0:0:
307,361,22832,1,0,0:0:0:0:
307,361,22999,6,0,B|317:314|317:314|283:263|201:283,1,168.75,2|2,1:2|0:0,0:0:0:0:
391,350,23666,2,0,L|375:190,1,112.5,2|2,1:2|1:2,0:0:0:0:
363,208,24166,1,2,1:2:0:0:
430,158,24332,2,0,L|438:83,1,56.25,2|0,1:2|0:0,0:0:0:0:
340,40,24666,2,0,L|348:115,1,56.25,2|0,1:2|0:0,0:0:0:0:
217,172,24999,1,10,0:0:0:0:
217,172,25332,2,0,L|225:97,1,56.25,2|0,0:0|0:0,0:0:0:0:
198,302,25666,6,0,P|153:357|73:367,1,112.5,2|0,1:2|0:0,0:0:0:0:
314,302,26332,2,0,P|359:357|439:367,1,112.5,2|0,0:0|1:0,0:0:0:0:
487,114,26999,5,2,1:2:0:0:
463,126,27166,1,2,0:0:0:0:
390,89,27332,1,2,0:0:0:0:
366,77,27499,1,2,0:0:0:0:
268,143,27666,5,10,0:0:0:0:
244,74,27832,1,2,0:0:0:0:
114,87,27999,1,2,0:0:0:0:
138,18,28165,1,2,0:0:0:0:
312,86,28332,5,6,1:2:0:0:
312,86,28666,2,0,L|299:164,1,56.25,2|0,0:0|0:0,0:0:0:0:
270,274,28999,2,0,P|321:214|383:247,1,112.5,2|2,1:2|1:2,0:0:0:0:
321,364,29499,2,0,B|291:343|291:343|156:386,1,168.75,2|0,0:0|1:0,0:0:0:0:
152,374,30332,1,10,0:0:0:0:
152,374,30666,2,0,L|138:290,1,56.25,2|0,0:0|0:0,0:0:0:0:
119,187,30999,5,2,1:2:0:0:
236,232,31332,1,0,0:0:0:0:
291,45,31666,1,2,0:0:0:0:
174,0,31999,1,0,1:0:0:0:
227,199,32332,2,0,L|323:180,1,56.25,2|0,1:2|0:0,0:0:0:0:
241,108,32666,2,0,L|271:10,1,56.25,2|0,1:2|0:0,0:0:0:0:
130,78,32999,2,0,L|33:-17,1,112.5,10|0,0:0|0:0,0:0:0:0:
56,32,33499,1,0,0:0:0:0:
191,7,33666,6,0,L|155:122,1,112.5,2|0,1:2|0:0,0:0:0:0:
97,256,34166,1,2,0:0:0:0:
97,256,34332,2,0,L|80:177,1,56.25,2|0,0:0|0:0,0:0:0:0:
247,259,34666,2,0,P|243:299|227:322,1,56.25,2|0,1:2|0:0,0:0:0:0:
297,194,34999,2,0,P|322:225|327:252,1,56.25,2|0,1:2|0:0,0:0:0:0:
286,112,35332,2,0,P|326:116|349:132,1,56.25,2|0,1:2|0:0,0:0:0:0:
220,61,35666,2,0,P|251:35|278:30,1,56.25,10|0,0:0|0:0,0:0:0:0:
137,71,35999,2,0,P|141:31|157:8,1,56.25,2|2,1:2|1:2,0:0:0:0:
194,174,36332,6,0,L|77:202,1,112.5,2|0,1:2|0:0,0:0:0:0:
58,172,36832,1,2,0:0:0:0:
255,231,36999,2,0,L|372:259,1,112.5,10|2,0:0|1:2,0:0:0:0:
325,128,37499,1,10,0:0:0:0:
325,128,37666,2,0,L|347:40,1,56.25,2|0,1:2|0:0,0:0:0:0:
173,55,37999,2,0,L|151:-33,1,56.25,10|2,0:0|1:2,0:0:0:0:
159,0,38249,5,2,1:2:0:0:
159,0,38332,5,10,0:0:0:0:
201,92,38499,1,10,0:0:0:0:
137,240,38666,1,2,1:2:0:0:
137,240,38999,5,6,1:2:0:0:
371,184,39166,1,0,1:2:0:0:
322,238,39332,5,2,0:0:0:0:
291,159,39499,1,2,0:0:0:0:
425,119,39666,1,10,0:0:0:0:
441,341,39999,5,2,1:2:0:0:
362,372,40166,1,0,1:0:0:0:
322,238,40332,2,0,L|352:345,1,60.7500002317429,2|8,0:0|0:0,0:0:0:0:
291,159,40666,5,2,1:2:0:0:
212,128,40833,1,2,0:0:0:0:
172,262,41000,1,10,0:0:0:0:
184,241,41166,2,0,L|48:266,1,121.500000463486,2|10,1:2|0:0,0:0:0:0:
6,217,41666,5,6,1:2:0:0:
248,306,41832,1,0,1:0:0:0:
248,306,41999,2,0,L|257:232,1,60.7500002317429,2|0,0:0|0:0,0:0:0:0:
121,210,42332,2,0,L|112:136,1,60.7500002317429,10|0,0:0|0:0,0:0:0:0:
408,114,42666,5,2,1:2:0:0:
353,271,42832,1,0,1:0:0:0:
367,240,42999,2,0,L|389:166,1,60.7500002317429,2|8,0:0|0:0,0:0:0:0:
411,358,43332,2,0,L|330:344,1,60.7500002317429,2|2,1:2|1:2,0:0:0:0:
351,347,43582,5,2,1:2:0:0:
351,347,43666,5,10,0:0:0:0:
387,285,43832,1,10,0:0:0:0:
175,332,43999,1,2,1:2:0:0:
199,303,44332,6,0,L|186:379,1,65.250001991272,6|0,1:2|0:0,0:0:0:0:
210,238,44666,2,0,L|197:314,1,65.250001991272,0|0,1:0|0:0,0:0:0:0:
221,173,44999,2,0,L|208:249,1,65.250001991272,0|0,1:0|0:0,0:0:0:0:
360,101,45332,2,0,L|373:177,1,65.250001991272,10|0,1:2|0:0,0:0:0:0:
151,41,45666,6,0,L|138:117,1,65.250001991272,2|0,1:2|0:0,0:0:0:0:
247,17,45999,2,0,L|234:93,1,65.250001991272,0|0,1:0|0:0,0:0:0:0:
468,24,46332,2,0,L|481:100,1,65.250001991272,10|0,1:2|0:0,0:0:0:0:
372,0,46665,2,0,L|385:76,1,65.250001991272,10|0,1:2|0:0,0:0:0:0:
70,7,46999,6,0,B|85:89|85:89|48:149|48:149|80:333,1,326.25000995636,6|0,1:2|0:0,0:0:0:0:
85,354,47999,2,0,P|42:320|8:335,1,65.250001991272,2|0,0:0|0:0,0:0:0:0:
206,296,48332,2,0,P|239:253|224:218,1,65.250001991272,2|0,0:0|0:0,0:0:0:0:
41,378,48666,1,6,0:0:0:0:
41,378,48999,5,2,1:2:0:0:
84,156,49166,2,0,L|241:195,1,130.500003982544,2|0,1:2|0:0,0:0:0:0:
326,98,49666,6,0,L|218:126,1,67.5000025749208,6|0,1:2|0:0,0:0:0:0:
421,275,49999,1,2,1:2:0:0:
421,275,50332,2,0,L|406:127,1,135.000005149842,10|2,0:0|1:2,0:0:0:0:
271,238,50832,2,0,L|103:196,1,135.000005149842,10|8,0:0|0:0,0:0:0:0:
275,147,51332,1,2,1:2:0:0:
275,147,51666,5,10,0:0:0:0:
204,333,51999,1,2,1:2:0:0:
204,333,52166,1,2,1:2:0:0:
204,333,52332,5,2,1:2:0:0:
263,293,52666,1,0,1:0:0:0:
440,344,52999,1,8,0:0:0:0:
471,205,53332,1,2,1:2:0:0:
450,308,53499,1,10,0:0:0:0:
487,236,53666,2,0,L|457:313,1,67.5000025749208,2|8,1:2|0:0,0:0:0:0:
355,154,53999,2,0,L|385:231,1,67.5000025749208,2|0,1:2|0:0,0:0:0:0:
512,71,54332,2,0,L|482:148,1,67.5000025749208,10|0,0:0|0:0,0:0:0:0:
272,43,54666,1,2,1:2:0:0:
272,43,54832,1,2,1:2:0:0:
272,43,54999,6,0,P|182:69|107:78,1,135.000005149842,2|0,1:2|1:0,0:0:0:0:
0,41,55666,1,10,0:0:0:0:
0,41,55999,1,2,1:2:0:0:
47,130,56166,1,10,0:0:0:0:
29,53,56332,2,0,L|21:130,1,67.5000025749208,2|8,1:2|0:0,0:0:0:0:
208,67,56666,2,0,L|216:-10,1,67.5000025749208,2|0,1:2|0:0,0:0:0:0:
102,209,56999,2,0,L|110:286,1,67.5000025749208,10|0,0:0|0:0,0:0:0:0:
359,249,57332,1,2,1:2:0:0:
359,249,57499,1,2,1:2:0:0:
359,249,57666,5,2,1:2:0:0:
387,143,57999,2,0,L|369:228,1,67.5000025749208,2|0,1:2|0:0,0:0:0:0:
342,9,58332,1,14,0:0:0:0:
370,24,58666,2,0,L|471:13,1,67.5000025749208,10|10,0:0|0:0,0:0:0:0:
284,136,58999,5,2,1:2:0:0:
250,48,59166,1,10,0:0:0:0:
47,130,59332,2,0,L|141:149,1,67.5000025749208,2|0,1:2|0:0,0:0:0:0:
250,306,59666,2,0,L|109:333,1,135.000005149842,10|0,0:0|1:0,0:0:0:0:
125,344,60166,1,0,1:0:0:0:
209,174,60332,6,0,L|190:80,1,67.5000025749208,6|0,1:2|0:0,0:0:0:0:
35,247,60666,1,2,1:2:0:0:
35,247,60999,2,0,B|88:217|88:217|166:287,1,135.000005149842,10|2,0:0|1:2,0:0:0:0:
229,347,61499,2,0,B|282:377|282:377|360:307,1,135.000005149842,10|8,0:0|0:0,0:0:0:0:
437,204,61999,1,2,1:2:0:0:
423,230,62332,6,0,L|320:248,1,67.5000025749208,10|0,0:0|0:0,0:0:0:0:
233,127,62666,1,2,1:2:0:0:
233,127,62832,1,2,1:2:0:0:
233,127,62999,5,2,1:2:0:0:
250,204,63332,1,0,1:0:0:0:
156,365,63666,1,8,0:0:0:0:
131,237,63999,1,2,1:2:0:0:
134,347,64166,1,10,0:0:0:0:
154,270,64332,2,0,L|81:292,1,67.5000025749208,2|8,1:2|0:0,0:0:0:0:
314,353,64666,2,0,L|241:331,1,67.5000025749208,2|0,1:2|0:0,0:0:0:0:
403,179,64999,2,0,L|330:201,1,67.5000025749208,10|0,0:0|0:0,0:0:0:0:
478,384,65332,1,2,1:2:0:0:
478,384,65499,1,2,1:2:0:0:
478,384,65666,6,0,P|461:277|440:210,1,135.000005149842,2|0,1:2|1:0,0:0:0:0:
397,65,66332,1,10,0:0:0:0:
338,198,66666,1,2,1:2:0:0:
315,91,66832,1,10,0:0:0:0:
365,181,66999,1,2,1:2:0:0:
388,74,67165,1,10,0:0:0:0:
362,211,67332,2,0,L|291:222,1,67.5000025749208,2|0,1:2|0:0,0:0:0:0:
151,113,67666,5,10,0:0:0:0:
169,147,67832,1,2,1:2:0:0:
142,221,67999,1,0,1:0:0:0:
162,320,68166,1,10,0:0:0:0:
155,354,68332,5,6,1:2:0:0:
179,122,68499,2,0,L|20:151,1,135.000005149842,10|0,0:0|1:0,0:0:0:0:
68,165,68999,2,0,P|163:194|210:201,1,135.000005149842,10|0,0:0|1:0,0:0:0:0:
376,136,69499,1,8,0:0:0:0:
338,198,69666,2,0,L|350:113,1,67.5000025749208,2|0,1:2|1:0,0:0:0:0:
184,21,69999,2,0,L|196:106,1,67.5000025749208,10|0,0:0|1:0,0:0:0:0:
473,29,70332,5,2,1:2:0:0:
469,45,70499,1,10,0:0:0:0:
413,104,70666,1,10,0:0:0:0:
417,120,70833,1,10,0:0:0:0:
500,184,70999,5,6,1:2:0:0:
210,79,71332,1,6,1:2:0:0:
210,79,71999,5,6,1:2:0:0:
179,112,72166,2,0,P|103:145|21:149,1,135.000005149842,2|8,0:0|0:0,0:0:0:0:
78,2,72666,2,0,L|162:23,1,67.5000025749208,2|0,1:2|0:0,0:0:0:0:
0,93,72999,1,10,0:0:0:0:
180,189,73332,1,10,0:0:0:0:
174,221,73499,1,10,0:0:0:0:
206,313,73666,6,0,L|197:229,1,67.5000025749208,6|0,1:2|0:0,0:0:0:0:
320,160,73999,2,0,L|329:76,1,67.5000025749208,2|0,1:2|0:0,0:0:0:0:
86,132,74332,1,10,0:0:0:0:
86,132,74666,5,2,1:2:0:0:
147,76,74832,2,0,L|300:104,1,135.000005149842,10|10,0:0|0:0,0:0:0:0:
431,131,75332,1,2,1:2:0:0:
431,131,75666,2,0,B|469:195|469:195|427:340,1,202.500007724762,10|0,0:0|0:0,0:0:0:0:
417,360,76332,5,6,1:2:0:0:
378,73,76666,1,6,1:2:0:0:
350,142,76999,1,10,0:0:0:0:
378,73,77332,5,6,1:2:0:0:
399,41,77499,2,0,L|245:70,1,135.000005149842,2|0,0:0|1:0,0:0:0:0:
108,33,77999,2,0,P|145:5|189:0,1,67.5000025749208,10|0,0:0|0:0,0:0:0:0:
126,207,78332,1,10,0:0:0:0:
44,183,78499,1,10,0:0:0:0:
80,363,78666,1,2,1:2:0:0:
80,363,78999,6,0,B|209:287|271:407|459:380,1,360,6|0,1:2|0:0,0:0:0:0:
453,364,80666,1,2,0:0:0:0:
455,325,80999,5,6,1:2:0:0:
417,81,81166,1,6,1:2:0:0:
417,81,81666,6,0,P|412:142|408:179,1,90,6|0,0:0|0:0,0:0:0:0:
392,200,82332,2,0,P|397:261|401:298,1,90,2|0,0:0|0:0,0:0:0:0:
427,317,82999,1,2,0:0:0:0:
427,317,83332,1,2,0:0:0:0:
427,317,83666,2,0,P|381:341|336:364,1,90,2|2,0:0|0:0,0:0:0:0:
312,384,84332,5,0,0:0:0:0:
258,338,84666,1,0,0:0:0:0:
293,270,84999,1,0,0:0:0:0:
304,244,85332,6,0,L|293:145,1,90,2|2,0:0|0:0,0:0:0:0:
282,59,85999,1,2,0:0:0:0:
294,154,86332,1,2,0:0:0:0:
313,0,86666,5,6,0:0:0:0:
