osu file format v14

[General]
AudioFilename: audio.mp3
AudioLeadIn: 0
PreviewTime: 54390
Countdown: 0
SampleSet: Soft
StackLeniency: 0.7
Mode: 0
LetterboxInBreaks: 0
WidescreenStoryboard: 1

[Editor]
Bookmarks: 87595
DistanceSpacing: 1.5
BeatDivisor: 4
GridSize: 32
TimelineZoom: 1

[Metadata]
Title:Katachi (TV Size)
TitleUnicode:かたち (TV Size)
Artist:Azuna Riko
ArtistUnicode:安月名莉子
Creator:bite you death
Version:Hard
Source:メイドインアビス 烈日の黄金郷
Tags:byd muya- paradogi Made in Abyss: abyss The Golden City of the Scorching Sun Retsujitsu no Ougonkyou 2nd s2 season op opening TVアニメ tv theme song オープニングテーマ japanese anime j-pop pop vueroeruko ヴエコ ヴエロエルコ ベラフ ワズキャン
BeatmapID:4228881
BeatmapSetID:2029436

[Difficulty]
HPDrainRate:5
CircleSize:3.5
OverallDifficulty:6
ApproachRate:7
SliderMultiplier:1.5
SliderTickRate:1

[Events]
//Background and Video events
0,0,"880845.jpg",0,0
Video,0,"vd.mp4"
//Break Periods
//Storyboard Layer 0 (Background)
//Storyboard Layer 1 (Fail)
//Storyboard Layer 2 (Pass)
//Storyboard Layer 3 (Foreground)
//Storyboard Layer 4 (Overlay)
//Storyboard Sound Samples

[TimingPoints]
-1194,483.870967741935,4,2,2,48,1,0
741,-181.818181818181,4,2,14,50,0,0
7999,-181.818181818181,4,2,14,50,0,0
8120,-181.818181818181,4,2,14,50,0,0
8483,-100,4,2,15,85,0,0
8725,-100,4,2,15,76,0,0
8967,-100,4,2,16,85,0,0
9209,-100,4,2,15,76,0,0
9330,-100,4,2,14,85,0,0
9693,-100,4,2,15,76,0,0
9935,-100,4,2,17,85,0,0
10176,-100,4,2,18,85,0,0
10418,-100,4,2,15,85,0,0
10660,-100,4,2,15,76,0,0
10902,-100,4,2,16,85,0,0
11144,-100,4,2,15,76,0,0
11265,-100,4,2,14,85,0,0
11628,-100,4,2,15,76,0,0
11870,-100,4,2,17,85,0,0
12112,-100,4,2,15,76,0,0
12354,-100,4,2,15,85,0,0
12596,-100,4,2,15,76,0,0
12838,-100,4,2,16,85,0,0
13080,-100,4,2,15,76,0,0
13201,-100,4,2,14,85,0,0
13564,-100,4,2,15,76,0,0
13805,-100,4,2,17,85,0,0
14047,-100,4,2,18,85,0,0
14289,-100,4,2,15,85,0,0
14531,-100,4,2,15,76,0,0
14773,-100,4,2,16,85,0,0
15015,-100,4,2,15,76,0,0
15136,-100,4,2,14,85,0,0
15499,-100,4,2,15,76,0,0
15741,-100,4,2,17,85,0,0
15862,-100,4,2,14,85,0,0
15983,-100,4,2,16,85,0,0
16104,-100,4,2,14,85,0,0
16225,-133.333333333333,4,2,14,60,0,0
16467,-133.333333333333,4,2,17,60,0,0
16588,-133.333333333333,4,2,14,60,0,0
16951,-133.333333333333,4,2,18,60,0,0
17193,-133.333333333333,4,2,14,60,0,0
17435,-133.333333333333,4,2,17,60,0,0
17676,-133.333333333333,4,2,14,60,0,0
17918,-133.333333333333,4,2,18,60,0,0
18160,-133.333333333333,4,2,14,60,0,0
18402,-133.333333333333,4,2,17,60,0,0
18644,-133.333333333333,4,2,14,60,0,0
18886,-133.333333333333,4,2,18,60,0,0
19128,-133.333333333333,4,2,14,60,0,0
19370,-133.333333333333,4,2,17,60,0,0
19612,-133.333333333333,4,2,19,60,0,0
19854,-133.333333333333,4,2,17,60,0,0
20096,-133.333333333333,4,2,14,60,0,0
20338,-133.333333333333,4,2,17,60,0,0
20580,-133.333333333333,4,2,14,60,0,0
20822,-133.333333333333,4,2,18,60,0,0
21064,-133.333333333333,4,2,14,60,0,0
21305,-133.333333333333,4,2,17,60,0,0
21547,-133.333333333333,4,2,14,60,0,0
21789,-133.333333333333,4,2,18,60,0,0
21910,-133.333333333333,4,2,14,60,0,0
22273,-133.333333333333,4,2,18,60,0,0
22515,-133.333333333333,4,2,14,60,0,0
22757,-133.333333333333,4,2,17,60,0,0
22999,-133.333333333333,4,2,14,60,0,0
23241,-133.333333333333,4,2,17,60,0,0
23483,-133.333333333333,4,2,19,60,0,0
23725,-133.333333333333,4,2,17,60,0,0
23846,-133.333333333333,4,2,30,60,0,0
24209,-133.333333333333,4,2,17,60,0,0
24451,-133.333333333333,4,2,14,60,0,0
24693,-133.333333333333,4,2,18,60,0,0
24935,-133.333333333333,4,2,14,60,0,0
25176,-133.333333333333,4,2,17,60,0,0
25418,-133.333333333333,4,2,14,60,0,0
25660,-133.333333333333,4,2,18,60,0,0
25902,-133.333333333333,4,2,14,60,0,0
26144,-133.333333333333,4,2,17,60,0,0
26386,-133.333333333333,4,2,14,60,0,0
26628,-133.333333333333,4,2,18,60,0,0
26749,-133.333333333333,4,2,14,60,0,0
27112,-133.333333333333,4,2,17,60,0,0
27354,-133.333333333333,4,2,19,60,0,0
27596,-133.333333333333,4,2,17,60,0,0
27838,-133.333333333333,4,2,14,60,0,0
28080,-133.333333333333,4,2,17,60,0,0
28322,-133.333333333333,4,2,14,60,0,0
28564,-133.333333333333,4,2,18,60,0,0
28805,-133.333333333333,4,2,14,60,0,0
29047,-133.333333333333,4,2,17,60,0,0
29289,-133.333333333333,4,2,14,60,0,0
29531,-133.333333333333,4,2,18,60,0,0
29773,-133.333333333333,4,2,14,60,0,0
30015,-133.333333333333,4,2,18,60,0,0
30257,-133.333333333333,4,2,14,60,0,0
30499,-133.333333333333,4,2,17,60,0,0
30741,-133.333333333333,4,2,20,60,0,0
31346,-133.333333333333,4,2,19,60,0,0
31467,-133.333333333333,4,2,17,60,0,0
31588,-133.333333333333,4,2,16,60,0,0
31709,-100,4,2,19,70,0,0
31951,-100,4,2,21,70,0,0
32193,-100,4,2,22,70,0,0
32435,-100,4,2,23,70,0,0
32676,-100,4,2,24,70,0,0
32918,-100,4,2,21,70,0,0
33160,-100,4,2,25,70,0,0
33402,-100,4,2,23,70,0,0
33644,-100,4,2,26,70,0,0
33886,-100,4,2,21,70,0,0
34128,-100,4,2,22,70,0,0
34370,-100,4,2,23,70,0,0
34612,-100,4,2,24,70,0,0
34854,-100,4,2,21,70,0,0
35096,-100,4,2,25,70,0,0
35217,-100,4,2,21,70,0,0
35580,-100,4,2,26,70,0,0
35822,-100,4,2,21,70,0,0
36064,-100,4,2,27,70,0,0
36305,-100,4,2,23,70,0,0
36547,-100,4,2,24,70,0,0
36789,-100,4,2,21,70,0,0
37031,-100,4,2,28,70,0,0
37273,-100,4,2,23,70,0,0
37394,-100,4,2,24,70,0,0
37515,-100,4,2,26,70,0,0
37757,-100,4,2,23,70,0,0
37999,-100,4,2,27,70,0,0
38241,-100,4,2,23,70,0,0
38967,-100,4,2,28,70,0,0
39088,-100,4,2,21,70,0,0
39451,-100,4,2,26,70,0,0
39693,-100,4,2,21,70,0,0
39814,-100,4,2,24,70,0,0
39935,-100,4,2,22,70,0,0
40176,-100,4,2,23,70,0,0
40418,-100,4,2,24,70,0,0
40660,-100,4,2,21,70,0,0
40902,-100,4,2,25,70,0,0
41144,-100,4,2,23,70,0,0
41386,-100,4,2,26,70,0,0
41628,-100,4,2,21,70,0,0
41870,-100,4,2,22,70,0,0
42112,-100,4,2,23,70,0,0
42354,-100,4,2,24,70,0,0
42596,-100,4,2,21,70,0,0
42838,-100,4,2,25,70,0,0
42959,-100,4,2,21,70,0,0
43322,-100,4,2,26,70,0,0
43564,-100,4,2,21,70,0,0
43805,-100,4,2,27,70,0,0
44047,-100,4,2,23,70,0,0
44289,-100,4,2,24,70,0,0
44531,-100,4,2,21,70,0,0
44773,-100,4,2,28,70,0,0
45015,-100,4,2,23,70,0,0
45257,-100,4,2,26,70,0,0
45499,-100,4,2,23,70,0,0
45741,-100,4,2,22,70,0,0
45983,-100,4,2,21,70,0,0
46225,-100,4,2,24,70,0,0
46467,-100,4,2,23,70,0,0
46709,-100,4,2,25,70,0,0
46830,-100,4,2,23,70,0,0
47193,-133.333333333333,4,2,14,60,0,0
47918,-133.333333333333,4,2,19,60,0,0
48160,-133.333333333333,4,2,18,60,0,0
48402,-133.333333333333,4,2,19,60,0,0
48644,-133.333333333333,4,2,15,60,0,0
48886,-133.333333333333,4,2,19,60,0,0
49007,-133.333333333333,4,2,14,60,0,0
49854,-133.333333333333,4,2,19,60,0,0
50096,-133.333333333333,4,2,18,60,0,0
50338,-133.333333333333,4,2,19,60,0,0
50580,-133.333333333333,4,2,18,60,0,0
50822,-133.333333333333,4,2,19,60,0,0
51064,-133.333333333333,4,2,14,65,0,0
52031,-133.333333333333,4,2,20,65,0,0
52273,-133.333333333333,4,2,19,65,0,0
52515,-133.333333333333,4,2,20,65,0,0
52757,-133.333333333333,4,2,19,65,0,0
52999,-133.333333333333,4,2,29,70,0,0
53241,-133.333333333333,4,2,21,70,0,0
53483,-133.333333333333,4,2,14,70,0,0
53725,-133.333333333333,4,2,19,70,0,0
53846,-133.333333333333,4,2,21,70,0,0
53967,-133.333333333333,4,2,30,70,0,0
54451,-133.333333333333,4,2,21,70,0,0
54814,-133.333333333333,4,2,14,70,0,0
54935,-100,4,2,22,90,0,0
55055,-100,4,2,26,76,0,0
55176,-100,4,2,23,90,0,0
55418,-100,4,2,24,90,0,0
55660,-100,4,2,23,90,0,0
55781,-100,4,2,26,76,0,0
55902,-100,4,2,25,90,0,0
56144,-100,4,2,19,90,0,0
56265,-100,4,2,26,76,0,0
56386,-100,4,2,27,90,0,0
56507,-100,4,2,26,76,0,0
56628,-100,4,2,19,90,0,0
56870,-100,4,2,22,90,0,0
56991,-100,4,2,26,76,0,0
57112,-100,4,2,19,90,0,0
57354,-100,4,2,24,90,0,0
57596,-100,4,2,23,90,0,0
57838,-100,4,2,25,90,0,0
58080,-100,4,2,23,90,0,0
58201,-100,4,2,26,76,0,0
58322,-100,4,2,28,90,0,0
58443,-100,4,2,26,76,0,0
58564,-100,4,2,19,90,0,0
58805,-100,4,2,29,90,0,0
58926,-100,4,2,26,76,0,0
59047,-100,4,2,23,90,0,0
59168,-100,4,2,14,90,0,0
59289,-100,4,2,24,90,0,0
59531,-100,4,2,19,90,0,0
59652,-100,4,2,26,76,0,0
59773,-100,4,2,25,90,0,0
60015,-100,4,2,19,90,0,0
60136,-100,4,2,26,76,0,0
60257,-100,4,2,28,90,0,0
60378,-100,4,2,26,76,0,0
60499,-100,4,2,19,90,0,0
60741,-100,4,2,22,90,0,0
60862,-100,4,2,26,76,0,0
60983,-100,4,2,23,90,0,0
61225,-100,4,2,24,90,0,0
61467,-100,4,2,23,90,0,0
61588,-100,4,2,30,90,0,0
61709,-100,4,2,25,90,0,0
61951,-100,4,2,23,90,0,0
62072,-100,4,2,30,90,0,0
62193,-100,4,2,28,90,0,0
62314,-100,4,2,26,76,0,0
62435,-100,4,2,19,90,0,0
62676,-100,4,2,31,90,0,0
62797,-100,4,2,26,76,0,0
62918,-100,4,2,23,90,0,0
63160,-100,4,2,24,90,0,0
63402,-100,4,2,23,90,0,0
63523,-100,4,2,26,76,0,0
63644,-100,4,2,25,90,0,0
63765,-100,4,2,25,90,0,0
63886,-100,4,2,19,90,0,0
64007,-100,4,2,26,76,0,0
64128,-100,4,2,27,90,0,0
64249,-100,4,2,26,76,0,0
64370,-100,4,2,19,90,0,0
64612,-100,4,2,22,90,0,0
64733,-100,4,2,26,76,0,0
64854,-100,4,2,19,90,0,0
65096,-100,4,2,24,90,0,0
65338,-100,4,2,23,90,0,0
65459,-100,4,2,26,76,0,0
65580,-100,4,2,25,90,0,0
65701,-100,4,2,25,90,0,0
65822,-100,4,2,23,90,0,0
65943,-100,4,2,26,76,0,0
66064,-100,4,2,27,90,0,0
66185,-100,4,2,26,76,0,0
66305,-100,4,2,19,90,0,0
66547,-100,4,2,31,90,0,0
66789,-100,4,2,23,90,0,0
66910,-100,4,2,26,76,0,0
67031,-100,4,2,24,90,0,0
67273,-100,4,2,23,90,0,0
67515,-100,4,2,25,90,0,0
67636,-100,4,2,26,76,0,0
67757,-100,4,2,26,76,0,0
68241,-100,4,2,32,90,0,0
68362,-100,4,2,26,76,0,0
68483,-100,4,2,29,90,0,0
68725,-100,4,2,23,90,0,0
68967,-100,4,2,33,90,0,0
69088,-100,4,2,26,76,0,0
69209,-100,4,2,23,90,0,0
69451,-100,4,2,34,90,0,0
69572,-100,4,2,26,76,0,0
69693,-100,4,2,23,90,0,0
69814,-100,4,2,30,90,0,0
69935,-100,4,2,27,90,0,0
70055,-100,4,2,26,76,0,0
70176,-100,4,2,19,90,0,0
70418,-100,4,2,31,90,0,0
70539,-100,4,2,26,76,0,0
70660,-100,4,2,19,90,0,0
70902,-100,4,2,24,90,0,0
71144,-100,4,2,23,90,0,0
71386,-100,4,2,25,90,0,0
71628,-100,4,2,23,90,0,0
71749,-100,4,2,26,76,0,0
71870,-100,4,2,27,90,0,0
71991,-100,4,2,26,76,0,0
72112,-100,4,2,23,90,0,0
72354,-100,4,2,35,90,0,0
72475,-100,4,2,26,76,0,0
72596,-100,4,2,23,90,0,0
72838,-100,4,2,24,90,0,0
73080,-100,4,2,23,90,0,0
73201,-100,4,2,14,90,0,0
73322,-100,4,2,36,90,0,0
73443,-100,4,2,26,76,0,0
73564,-100,4,2,23,90,0,0
73805,-100,4,2,37,90,0,0
73926,-100,4,2,26,76,0,0
74047,-100,4,2,19,90,0,0
74168,-100,4,2,26,76,0,0
74289,-100,4,2,31,90,0,0
74410,-100,4,2,26,76,0,0
74531,-100,4,2,23,90,0,0
74773,-100,4,2,24,90,0,0
75015,-100,4,2,23,90,0,0
75136,-100,4,2,14,90,0,0
75257,-100,4,2,36,90,0,0
75378,-100,4,2,26,76,0,0
75499,-100,4,2,23,90,0,0
75741,-100,4,2,37,90,0,0
75862,-100,4,2,26,76,0,0
75983,-100,4,2,19,90,0,0
76104,-100,4,2,26,76,0,0
76225,-100,4,2,38,90,0,0
76346,-100,4,2,26,76,0,0
76467,-100,4,2,23,90,0,0
76709,-100,4,2,24,90,0,0
76951,-100,4,2,23,90,0,0
77072,-100,4,2,14,90,0,0
77193,-100,4,2,36,90,0,0
77314,-100,4,2,26,76,0,0
77435,-100,4,2,23,90,0,0
77676,-100,4,2,37,90,0,0
77797,-100,4,2,26,76,0,0
77918,-100,4,2,19,90,0,0
78039,-100,4,2,26,76,0,0
78160,-100,4,2,29,90,0,0
78281,-100,4,2,26,76,0,0
78402,-100,4,2,23,90,0,0
78644,-100,4,2,24,90,0,0
78886,-100,4,2,23,90,0,0
79007,-100,4,2,14,90,0,0
79128,-100,4,2,39,90,0,0
79249,-100,4,2,26,76,0,0
79370,-100,4,2,23,90,0,0
79612,-100,4,2,40,90,0,0
79733,-100,4,2,26,76,0,0
79854,-100,4,2,14,90,0,0
79975,-100,4,2,26,76,0,0
80096,-181.818181818181,4,2,26,75,0,0
80580,-181.818181818181,4,2,30,75,0,0
80943,-181.818181818181,4,2,24,75,0,0
81305,-181.818181818181,4,2,14,75,0,0
81668,-181.818181818181,4,2,26,64,0,0
81789,-181.818181818181,4,2,24,75,0,0
82031,-181.818181818181,4,2,26,75,0,0
82515,-181.818181818181,4,2,24,75,0,0
83241,-181.818181818181,4,2,14,75,0,0
83967,-181.818181818181,4,2,41,75,0,0
84451,-181.818181818181,4,2,24,75,0,0
85176,-181.818181818181,4,2,14,75,0,0
85660,-181.818181818181,4,2,24,75,0,0
85902,-181.818181818181,4,2,26,75,0,0
86386,-181.818181818181,4,2,24,75,0,0
87112,-181.818181818181,4,2,14,65,0,0
87354,-181.818181818181,4,2,14,55,0,0
87596,-181.818181818181,4,2,14,45,0,0

[Colours]
Combo1 : 212,212,212
Combo2 : 255,255,159
Combo3 : 158,74,12
Combo4 : 255,119,119

[HitObjects]
47,25,741,6,0,P|95:38|112:43,1,61.8750018882752,2|0,1:2|0:0,0:0:0:0:
129,71,1225,2,0,P|160:61|200:51,1,61.8750018882752,2|2,1:2|2:2,0:0:0:0:
225,35,1709,1,8,2:2:0:0:
302,87,1951,2,0,L|305:114,2,20.6250006294251,0|0|0,0:0|0:0|1:1,0:0:0:0:
377,30,2435,1,2,2:2:0:0:
450,92,2677,6,0,P|432:121|418:152,1,61.8750018882752,2|0,1:2|0:0,0:0:0:0:
393,177,3161,2,0,P|411:210|422:249,1,61.8750018882752,2|2,1:2|2:2,0:0:0:0:
399,269,3645,1,8,2:2:0:0:
320,328,3886,2,0,P|344:355|346:358,2,20.6250006294251,0|0|0,0:0|0:0|1:1,0:0:0:0:
228,299,4370,1,8,2:2:0:0:
152,358,4612,6,0,P|142:332|123:301,1,61.8750018882752,2|0,1:2|0:0,0:0:0:0:
94,277,5096,2,0,P|104:247|118:212,1,61.8750018882752,2|2,1:2|2:2,0:0:0:0:
95,187,5580,1,8,2:2:0:0:
23,131,5822,2,0,P|-3:127|-11:127,2,20.6250006294251,0|0|0,0:0|0:0|1:1,0:0:0:0:
88,61,6306,1,2,2:2:0:0:
176,97,6548,6,0,P|209:84|244:70,1,61.8750018882752,2|0,1:2|0:0,0:0:0:0:
248,43,7032,2,0,P|296:50|311:54,1,61.8750018882752,2|2,1:2|2:2,0:0:0:0:
346,41,7515,2,0,P|354:20|359:12,4,20.6250006294251,2|2|2|2|10,1:2|2:2|2:2|2:2|2:2,0:0:0:0:
478,129,8483,6,0,P|420:140|340:159,1,112.5,6|0,1:2|0:0,0:0:0:0:
354,179,8967,1,10,2:2:0:0:
310,269,9209,1,2,2:3:0:0:
290,256,9330,1,2,2:2:0:0:
245,289,9451,1,2,1:3:0:0:
180,365,9693,1,2,2:3:0:0:
157,377,9814,1,0,0:0:0:0:
112,363,9935,1,10,2:2:0:0:
32,311,10177,2,0,P|8:273|0:264,1,37.5,2|0,2:2|0:0,0:0:0:0:
48,256,10419,6,0,P|77:228|154:205,1,112.5,2|0,1:2|0:0,0:0:0:0:
168,170,10903,1,10,2:2:0:0:
250,218,11145,2,0,P|303:200|315:198,1,37.5,2|2,2:3|2:2,0:0:0:0:
321,207,11386,1,2,1:3:0:0:
393,147,11628,1,2,2:3:0:0:
419,137,11749,1,0,0:0:0:0:
427,93,11870,1,10,2:2:0:0:
363,26,12112,2,0,P|325:45|310:57,1,37.5,2|0,2:3|0:0,0:0:0:0:
299,82,12354,6,0,P|253:55|195:11,1,112.5,2|0,1:2|0:0,0:0:0:0:
180,29,12838,1,10,2:2:0:0:
96,75,13080,1,2,2:3:0:0:
76,87,13201,1,2,2:2:0:0:
75,130,13322,1,2,1:3:0:0:
6,194,13564,1,2,2:3:0:0:
31,210,13685,1,0,0:0:0:0:
50,253,13806,1,10,2:2:0:0:
101,337,14048,2,0,L|143:350,1,37.5,2|0,2:2|0:0,0:0:0:0:
180,335,14290,6,0,P|234:314|293:296,1,112.5,2|0,1:2|0:0,0:0:0:0:
274,344,14774,1,10,2:2:0:0:
371,321,15015,1,2,2:3:0:0:
367,299,15136,1,2,2:2:0:0:
383,257,15257,1,2,1:3:0:0:
309,200,15499,2,0,P|282:168|271:158,1,37.5,2|0,2:3|0:0,0:0:0:0:
300,136,15741,2,0,P|309:96|320:80,3,37.5,10|8|10|4,2:2|2:3|2:3|2:3,0:0:0:0:
336,61,16225,6,0,P|369:54|413:28,1,84.3750032186509,6|2,1:2|2:2,0:0:0:0:
460,29,16709,1,2,1:2:0:0:
509,112,16951,1,14,2:3:0:0:
433,169,17193,2,0,P|422:205|420:232,1,56.2500021457673,2|14,1:2|2:3,0:0:0:0:
465,309,17677,1,0,1:1:0:0:
387,368,17919,1,14,2:3:0:0:
308,310,18161,6,0,P|266:316|205:341,1,84.3750032186509,2|0,1:2|0:0,0:0:0:0:
205,360,18645,2,0,P|167:349|132:336,1,56.2500021457673,2|14,1:2|2:3,0:0:0:0:
70,293,19128,2,0,P|93:263|158:258,1,84.3750032186509,2|0,1:2|0:0,0:0:0:0:
169,222,19612,2,0,P|202:207|209:203,3,28.1250010728836,0|8|14|0,1:1|2:3|2:3|0:0,0:0:0:0:
221,173,20096,6,0,P|276:192|324:222,1,112.500004291535,2|0,1:2|1:1,0:0:0:0:
407,177,20822,1,14,2:3:0:0:
339,114,21064,2,0,P|351:84|336:63,1,56.2500021457673,2|14,1:2|2:3,0:0:0:0:
271,3,21548,2,0,P|232:12|166:30,1,84.3750032186509,2|2,1:2|2:2,0:0:0:0:
157,50,22032,5,2,1:2:0:0:
64,54,22274,2,0,P|32:29|33:8,2,56.2500021457673,14|0|14,2:3|1:1|2:3,0:0:0:0:
35,146,22999,2,0,P|4:139|-12:109,2,56.2500021457673,0|14|0,1:1|2:3|1:1,0:0:0:0:
100,218,23725,1,14,2:3:0:0:
87,232,23846,1,4,2:3:0:0:
85,253,23967,6,0,P|130:302|157:307,1,84.3750032186509,2|0,1:2|0:0,0:0:0:0:
158,329,24451,1,2,1:2:0:0:
243,286,24693,1,14,2:3:0:0:
305,358,24935,2,0,P|341:346|342:258,1,112.500004291535,2|0,1:2|1:1,0:0:0:0:
423,207,25661,1,14,2:3:0:0:
352,143,25903,6,0,B|302:171|277:159|252:150|237:183,1,112.500004291535,2|2,1:2|1:2,0:0:0:0:
177,239,26628,1,14,2:3:0:0:
115,168,26870,2,0,P|94:140|120:71,1,112.500004291535,2|0,1:2|1:1,0:0:0:0:
192,10,27596,1,14,2:3:0:0:
257,77,27838,6,0,P|301:62|373:43,1,112.500004291535,2|0,1:2|1:1,0:0:0:0:
449,88,28564,1,14,2:3:0:0:
381,149,28806,2,0,P|394:179|405:215,1,56.2500021457673,2|14,1:2|2:3,0:0:0:0:
315,243,29290,2,0,P|302:279|298:301,1,56.2500021457673,2|14,1:2|2:3,0:0:0:0:
218,248,29774,5,2,1:2:0:0:
265,165,30015,1,14,2:3:0:0:
200,98,30257,2,0,P|159:88|98:64,1,84.3750032186509,2|0,1:2|0:0,0:0:0:0:
98,88,30741,1,0,1:1:0:0:
19,143,30983,1,14,2:3:0:0:
64,230,31225,2,0,P|90:267|90:272,3,28.1250010728836,0|8|14|4,1:1|2:3|2:3|2:3,0:0:0:0:
74,285,31709,6,0,P|85:333|145:358,1,112.5,6|4,1:3|1:3,0:0:0:0:
172,369,32193,1,10,2:3:0:0:
260,326,32435,1,6,2:3:0:0:
350,358,32677,2,0,P|386:376|388:379,2,37.5,10|8|6,2:3|2:3|1:3,0:0:0:0:
336,266,33161,1,10,2:3:0:0:
418,217,33403,1,10,2:3:0:0:
432,204,33524,1,4,2:3:0:0:
427,164,33645,6,0,P|394:132|320:139,1,112.5,6|4,1:3|1:3,0:0:0:0:
305,163,34128,1,10,2:3:0:0:
218,115,34370,1,6,1:3:0:0:
150,187,34612,2,0,P|169:221|179:219,2,37.5,10|8|6,2:3|2:3|1:3,0:0:0:0:
65,147,35096,2,0,P|36:178|43:188,2,37.5,10|8|6,2:3|2:3|1:3,0:0:0:0:
27,61,35580,6,0,P|68:23|128:12,1,112.5,6|4,1:3|1:3,0:0:0:0:
148,25,36064,1,10,2:3:0:0:
212,98,36306,1,6,2:3:0:0:
283,36,36548,2,0,P|301:0|308:-2,2,37.5,10|8|6,2:3|2:3|1:3,0:0:0:0:
340,108,37032,1,10,2:3:0:0:
430,78,37274,1,10,2:3:0:0:
448,90,37395,1,6,2:3:0:0:
454,123,37515,5,6,1:3:0:0:
382,192,37757,1,6,2:3:0:0:
367,200,37878,1,4,1:3:0:0:
361,233,37999,1,10,2:3:0:0:
407,317,38241,2,0,P|376:353|278:342,1,150,6|6,1:3|1:3,0:0:0:0:
192,313,38967,2,0,P|220:283|241:285,3,37.5,10|8|6|4,2:3|1:3|2:3|2:3,0:0:0:0:
216,244,39451,6,0,P|256:207|314:193,1,112.5,6|6,1:3|1:3,0:0:0:0:
326,204,39935,1,10,2:3:0:0:
390,136,40177,1,6,2:3:0:0:
320,77,40419,2,0,P|351:51|359:52,2,37.5,10|8|6,2:3|2:3|1:3,0:0:0:0:
251,10,40903,1,10,2:3:0:0:
171,62,41145,1,10,2:3:0:0:
155,81,41265,1,4,2:3:0:0:
170,113,41386,5,6,1:3:0:0:
106,190,41628,1,6,2:3:0:0:
78,200,41749,1,4,1:3:0:0:
40,202,41870,1,10,2:3:0:0:
1,288,42112,1,6,1:3:0:0:
85,329,42354,2,0,P|98:370|95:375,2,37.5,10|8|6,2:3|2:3|1:3,0:0:0:0:
163,275,42838,2,0,P|205:296|227:326,1,75,10|6,2:3|1:3,0:0:0:0:
309,370,43322,6,0,P|364:350|392:303,1,112.5,6|4,1:3|1:3,0:0:0:0:
359,272,43806,1,10,2:3:0:0:
416,198,44048,1,6,2:3:0:0:
337,145,44290,2,0,P|296:162|248:189,1,75,10|6,2:3|1:3,0:0:0:0:
229,261,44774,1,10,2:3:0:0:
138,238,45015,1,10,2:3:0:0:
110,248,45136,1,4,2:3:0:0:
83,292,45257,5,6,1:3:0:0:
7,241,45499,1,6,2:3:0:0:
1,209,45620,1,4,1:3:0:0:
35,172,45741,2,0,P|51:126|69:93,1,75,10|6,2:3|1:3,0:0:0:0:
130,31,46225,1,10,2:3:0:0:
214,77,46467,1,6,1:3:0:0:
293,24,46709,1,10,2:3:0:0:
316,35,46830,2,0,P|350:77|362:105,1,75,8|4,1:3|2:3,0:0:0:0:
389,122,47193,6,0,P|352:163|324:219,1,112.500004291535,6|10,1:2|2:2,0:0:0:0:
262,283,47919,2,0,P|231:236|165:201,1,112.500004291535,2|2,1:2|2:2,0:0:0:0:
102,260,48645,1,8,1:2:0:0:
28,203,48886,2,0,P|42:177|52:168,1,28.1250010728836,2|2,2:2|2:2,0:0:0:0:
76,161,49128,6,0,P|108:131|151:72,1,112.500004291535,2|10,1:2|2:2,0:0:0:0:
208,3,49854,2,0,P|275:9|280:51,1,112.500004291535,2|2,2:2|1:2,0:0:0:0:
332,125,50580,1,8,2:2:0:0:
262,188,50822,1,2,2:2:0:0:
291,276,51064,6,0,P|344:316|384:349,1,112.500004291535,2|10,1:2|2:2,0:0:0:0:
465,299,51790,2,0,P|485:266|501:236,1,56.2500021457673,2|10,1:3|2:2,0:0:0:0:
422,190,52274,1,2,2:2:0:0:
500,136,52515,1,10,1:2:0:0:
442,62,52757,1,2,2:2:0:0:
361,109,52999,1,10,1:3:0:0:
287,54,53241,2,0,P|308:22|315:24,2,28.1250010728836,8|4|8,2:3|1:3|1:2,0:0:0:0:
209,111,53725,2,0,P|223:136|225:146,1,28.1250010728836,8|8,1:3|2:3,0:0:0:0:
215,165,53967,1,6,1:3:0:0:
299,372,54451,5,2,2:2:0:0:
181,336,54693,1,0,0:0:0:0:
202,351,54814,1,2,2:2:0:0:
164,372,54935,6,0,P|109:359|15:281,1,150,14|10,1:2|2:2,0:0:0:0:
136,221,55660,1,10,1:2:0:0:
50,128,55903,1,10,2:2:0:0:
121,23,56145,1,10,1:2:0:0:
224,106,56386,2,0,P|263:88|280:79,1,37.5,10|8,2:2|2:2,0:0:0:0:
294,55,56628,2,0,P|348:67|360:69,1,37.5,10|0,2:2|0:0,0:0:0:0:
378,43,56870,2,0,P|430:79|453:112,1,75,10|10,1:2|2:2,0:0:0:0:
500,198,57354,2,0,P|471:248|438:313,1,112.5,10|8,2:2|1:2,0:0:0:0:
457,338,57838,1,10,1:2:0:0:
335,373,58080,1,10,1:2:0:0:
246,282,58322,1,10,2:2:0:0:
218,296,58443,1,8,2:2:0:0:
198,344,58564,1,10,2:2:0:0:
68,365,58806,6,0,P|21:322|-3:234,1,150,14|10,1:2|2:2,0:0:0:0:
81,144,59532,1,10,1:2:0:0:
5,45,59774,2,0,P|38:19|50:18,1,37.5,10|0,2:2|0:0,0:0:0:0:
67,14,60015,2,0,P|112:32|190:76,1,112.5,10|8,1:2|2:2,0:0:0:0:
192,98,60499,1,10,2:2:0:0:
298,13,60741,2,0,P|357:24|442:87,1,150,10|10,1:2|2:2,0:0:0:0:
494,184,61467,1,10,2:2:0:0:
462,206,61588,1,10,1:2:0:0:
485,264,61709,1,10,1:2:0:0:
406,371,61951,1,10,1:2:0:0:
307,296,62193,2,0,P|277:279|249:292,3,37.5,10|8|10|0,2:2|2:2|2:2|0:0,0:0:0:0:
266,311,62677,6,0,P|220:335|144:354,1,112.5,14|0,1:2|0:0,0:0:0:0:
128,347,63161,2,0,P|73:327|33:306,1,75,10|10,1:2|2:2,0:0:0:0:
10,202,63645,1,10,1:2:0:0:
113,125,63886,1,10,2:2:0:0:
92,100,64007,1,8,2:2:0:0:
103,45,64128,1,10,1:2:0:0:
227,6,64370,1,10,2:2:0:0:
264,5,64491,1,0,0:0:0:0:
309,27,64612,2,0,P|348:65|371:95,1,75,10|10,1:2|2:2,0:0:0:0:
488,120,65096,2,0,P|471:157|464:174,3,37.5,10|0|10|8,1:2|0:0|2:2|2:2,0:0:0:0:
439,183,65580,1,10,1:2:0:0:
500,299,65822,1,10,2:2:0:0:
491,328,65943,1,8,2:2:0:0:
450,364,66064,2,0,P|405:350|385:345,1,37.5,10|8,1:2|2:2,0:0:0:0:
377,331,66306,2,0,P|341:344|320:347,1,37.5,10|0,2:2|0:0,0:0:0:0:
301,376,66548,6,0,P|254:337|181:319,1,112.5,14|8,1:2|2:2,0:0:0:0:
174,292,67032,2,0,P|124:282|42:240,1,112.5,10|0,1:2|0:0,0:0:0:0:
37,269,67515,1,14,1:2:0:0:
5,152,67757,1,8,2:2:0:0:
0,146,67878,1,8,2:2:0:0:
100,0,68241,2,0,P|136:13|141:15,1,37.5,10|8,1:2|2:2,0:0:0:0:
171,14,68483,2,0,P|238:50|274:77,1,112.5,14|8,1:2|1:2,0:0:0:0:
288,101,68967,1,10,2:2:0:0:
419,77,69209,1,10,1:2:0:0:
488,191,69451,1,14,1:2:0:0:
426,302,69693,1,10,1:2:0:0:
439,318,69814,1,10,2:2:0:0:
406,342,69935,2,0,P|357:357|325:362,1,75,10|10,2:2|2:2,0:0:0:0:
207,365,70419,6,0,P|158:349|106:328,1,75,14|10,1:2|2:2,0:0:0:0:
49,245,70903,1,10,2:2:0:0:
0,125,71145,2,0,P|23:88|31:79,1,37.5,10|8,2:2|1:2,0:0:0:0:
37,58,71386,2,0,P|97:38|156:18,1,112.5,14|8,1:2|2:2,0:0:0:0:
189,30,71870,2,0,P|258:53|314:75,1,112.5,10|0,1:2|0:0,0:0:0:0:
333,38,72354,2,0,P|389:47|347:332,1,450,14|10,1:2|1:2,0:0:0:0:
272,254,74048,1,2,2:2:0:0:
349,172,74290,5,14,1:2:0:0:
438,239,74532,2,0,P|483:239|489:245,2,37.5,10|0|10,2:2|0:0|1:2,0:0:0:0:
441,126,75015,2,0,P|478:105|492:115,2,37.5,10|10|10,2:2|2:2|1:2,0:0:0:0:
375,33,75499,1,10,2:2:0:0:
350,50,75620,1,0,0:0:0:0:
313,30,75741,1,10,1:2:0:0:
226,101,75983,1,2,2:2:0:0:
145,22,76225,5,14,1:2:0:0:
68,104,76467,2,0,P|33:93|20:81,2,37.5,10|0|10,2:2|0:0|1:2,0:0:0:0:
33,211,76951,2,0,P|-2:229|-8:238,2,37.5,10|10|10,2:2|2:2|1:2,0:0:0:0:
120,282,77435,1,10,2:2:0:0:
91,318,77556,1,0,0:0:0:0:
99,349,77677,1,10,1:2:0:0:
206,316,77919,1,2,2:2:0:0:
313,349,78161,6,0,P|366:356|421:384,1,112.5,14|0,1:2|0:0,0:0:0:0:
439,329,78645,2,0,P|496:318|516:312,1,75,10|10,1:2|2:2,0:0:0:0:
472,207,79128,2,0,P|495:173|497:83,1,112.5,14|0,1:2|0:0,0:0:0:0:
465,60,79612,2,0,P|456:44|463:24,3,37.5,10|0|8|0,1:2|0:0|2:2|0:0,0:0:0:0:
423,72,80096,5,6,1:2:0:0:
267,0,80580,2,0,P|244:49|243:53,1,41.2500012588501,2|0,2:2|0:0,0:0:0:0:
215,69,80943,2,0,P|238:113|246:139,1,61.8750018882752,10|2,2:3|2:2,0:0:0:0:
182,199,81548,2,0,P|160:213|150:221,2,20.6250006294251,2|8|10,2:2|2:2|2:3,0:0:0:0:
235,281,82032,5,6,1:2:0:0:
110,380,82515,2,0,P|73:372|57:368,1,41.2500012588501,10|0,2:3|0:0,0:0:0:0:
26,353,82878,2,0,P|6:324|-3:292,1,61.8750018882752,10|2,2:3|2:2,0:0:0:0:
48,218,83483,1,2,2:2:0:0:
9,131,83725,2,0,P|0:109|-6:109,1,20.6250006294251,2|0,2:2|0:0,0:0:0:0:
15,94,83967,5,6,1:2:0:0:
152,6,84451,2,0,P|186:18|202:29,1,41.2500012588501,10|0,2:3|0:0,0:0:0:0:
213,55,84814,2,0,P|240:49|272:37,1,61.8750018882752,10|2,2:3|2:2,0:0:0:0:
349,94,85419,1,2,2:2:0:0:
435,56,85661,1,10,2:3:0:0:
501,124,85903,5,6,1:2:0:0:
388,242,86386,2,0,P|399:272|403:289,1,41.2500012588501,10|0,2:3|0:0,0:0:0:0:
380,320,86749,2,0,P|343:339|306:346,1,61.8750018882752,10|2,2:3|2:2,0:0:0:0:
242,299,87354,1,2,2:2:0:0:
171,358,87596,5,2,2:2:0:0:
