osu file format v14

[General]
AudioFilename: audio.ogg
AudioLeadIn: 0
PreviewTime: 54357
Countdown: 0
SampleSet: Normal
StackLeniency: 0.7
Mode: 1
LetterboxInBreaks: 0
WidescreenStoryboard: 0

[Editor]
Bookmarks: 8591,16333,31817,47301,55043,80204
DistanceSpacing: 1.4
BeatDivisor: 8
GridSize: 32
TimelineZoom: 0.8

[Metadata]
Title:Katachi (TV Size)
TitleUnicode:かたち (TV Size)
Artist:Azuna Riko
ArtistUnicode:安月名莉子
Creator:Faputa
Version:Inner Oni
Source:メイドインアビス 烈日の黄金郷
Tags:Made in Abyss Retsujitsu no ougonkyou op opening J-pop jpop pop anime Japanese The Golden City of the Scorching Sun 2nd season s2 theme song thema オープニングテーマ miabyss
BeatmapID:3706518
BeatmapSetID:1807306

[Difficulty]
HPDrainRate:6
CircleSize:2
OverallDifficulty:6
ApproachRate:10
SliderMultiplier:1.4
SliderTickRate:1

[Events]
//Background and Video events
Video,0,"Nya.mp4"
0,0,"nachi.jpg",0,-50
//Break Periods
//Storyboard Layer 0 (Background)
//Storyboard Layer 1 (Fail)
//Storyboard Layer 2 (Pass)
//Storyboard Layer 3 (Foreground)
//Storyboard Layer 4 (Overlay)
//Storyboard Sound Samples

[TimingPoints]
769,483.870967741935,4,1,0,80,1,0
54902,-100,4,1,0,90,0,0
54962,-95.2380952380952,4,1,0,90,0,1
72381,483.870967741935,4,1,0,90,1,1
72381,-95.2380952380952,4,1,0,90,0,1
80063,-95.2380952380952,4,1,0,80,0,1
80122,-95.2380952380952,4,1,0,80,0,0
80365,-100,4,1,0,80,0,0

[HitObjects]
256,192,769,5,0,0:0:0:0:
256,192,1252,1,0,0:0:0:0:
256,192,1494,1,8,0:0:0:0:
256,192,1736,1,0,0:0:0:0:
256,192,1857,1,8,0:0:0:0:
256,192,2099,1,8,0:0:0:0:
256,192,2220,1,0,0:0:0:0:
256,192,2462,1,8,0:0:0:0:
256,192,2704,1,0,0:0:0:0:
256,192,3188,1,0,0:0:0:0:
256,192,3430,1,8,0:0:0:0:
256,192,3672,1,0,0:0:0:0:
256,192,3793,1,0,0:0:0:0:
256,192,3914,1,8,0:0:0:0:
256,192,4156,1,0,0:0:0:0:
256,192,4398,1,8,0:0:0:0:
256,192,4639,1,0,0:0:0:0:
256,192,5123,1,0,0:0:0:0:
256,192,5365,1,8,0:0:0:0:
256,192,5607,1,0,0:0:0:0:
256,192,5728,1,8,0:0:0:0:
256,192,5970,1,8,0:0:0:0:
256,192,6091,1,0,0:0:0:0:
256,192,6333,1,8,0:0:0:0:
256,192,6575,1,0,0:0:0:0:
249,186,6938,1,8,0:0:0:0:
256,192,7059,1,0,0:0:0:0:
256,192,7422,1,8,0:0:0:0:
256,192,7543,1,0,0:0:0:0:
256,192,7664,1,8,0:0:0:0:
256,192,7785,1,8,0:0:0:0:
256,192,7906,1,0,0:0:0:0:
256,192,8027,1,8,0:0:0:0:
256,192,8148,1,0,0:0:0:0:
256,192,8268,1,0,0:0:0:0:
256,192,8510,1,12,0:0:0:0:
256,192,8752,1,0,0:0:0:0:
256,192,8873,1,0,0:0:0:0:
256,192,8994,1,8,0:0:0:0:
256,192,9236,1,0,0:0:0:0:
256,192,9357,1,8,0:0:0:0:
256,192,9599,1,8,0:0:0:0:
256,192,9720,1,0,0:0:0:0:
256,192,9841,1,0,0:0:0:0:
256,192,9962,1,0,0:0:0:0:
256,192,10204,1,8,0:0:0:0:
256,192,10446,1,0,0:0:0:0:
256,192,10688,1,8,0:0:0:0:
256,192,10809,1,0,0:0:0:0:
256,192,10930,1,8,0:0:0:0:
256,192,11172,1,0,0:0:0:0:
256,192,11293,1,8,0:0:0:0:
256,192,11535,1,0,0:0:0:0:
256,192,11656,1,0,0:0:0:0:
256,192,11777,1,0,0:0:0:0:
256,192,11898,1,8,0:0:0:0:
256,192,12139,1,0,0:0:0:0:
256,192,12381,1,12,0:0:0:0:
256,192,12623,1,0,0:0:0:0:
256,192,12744,1,0,0:0:0:0:
256,192,12865,1,8,0:0:0:0:
256,192,13107,1,0,0:0:0:0:
256,192,13228,1,8,0:0:0:0:
256,192,13349,1,0,0:0:0:0:
256,192,13470,1,0,0:0:0:0:
256,192,13591,1,8,0:0:0:0:
256,192,13712,1,8,0:0:0:0:
256,192,13833,1,0,0:0:0:0:
256,192,14075,1,0,0:0:0:0:
256,192,14317,1,8,0:0:0:0:
256,192,14559,1,0,0:0:0:0:
256,192,14680,1,0,0:0:0:0:
256,192,14801,1,8,0:0:0:0:
256,192,15043,1,0,0:0:0:0:
256,192,15164,1,8,0:0:0:0:
256,192,15285,1,0,0:0:0:0:
256,192,15406,1,0,0:0:0:0:
256,192,15527,1,0,0:0:0:0:
256,192,15648,1,0,0:0:0:0:
256,192,15768,1,8,0:0:0:0:
256,192,16010,1,8,0:0:0:0:
256,192,16131,1,8,0:0:0:0:
256,192,16252,1,4,0:0:0:0:
256,192,16615,1,8,0:0:0:0:
256,192,16736,1,0,0:0:0:0:
256,192,16978,1,0,0:0:0:0:
256,192,17220,1,0,0:0:0:0:
256,192,17462,1,8,0:0:0:0:
256,192,17583,1,8,0:0:0:0:
256,192,17704,1,0,0:0:0:0:
256,192,17946,1,0,0:0:0:0:
256,192,18188,1,8,0:0:0:0:
256,192,18672,1,8,0:0:0:0:
256,192,18914,1,8,0:0:0:0:
256,192,19156,1,0,0:0:0:0:
256,192,19398,1,0,0:0:0:0:
256,192,19639,1,8,0:0:0:0:
256,192,19760,1,8,0:0:0:0:
256,192,19881,1,0,0:0:0:0:
256,192,20123,1,8,0:0:0:0:
256,192,20607,1,8,0:0:0:0:
256,192,20849,1,0,0:0:0:0:
256,192,21091,1,0,0:0:0:0:
256,192,21333,1,0,0:0:0:0:
256,192,21575,1,8,0:0:0:0:
256,192,21817,1,0,0:0:0:0:
256,192,21938,1,0,0:0:0:0:
256,192,22059,1,8,0:0:0:0:
256,192,22301,1,8,0:0:0:0:
256,192,22543,1,0,0:0:0:0:
256,192,22785,1,0,0:0:0:0:
256,192,22906,1,8,0:0:0:0:
256,192,23027,1,0,0:0:0:0:
256,192,23268,1,8,0:0:0:0:
256,192,23389,1,8,0:0:0:0:
256,192,23510,1,0,0:0:0:0:
256,192,23631,1,0,0:0:0:0:
256,192,23752,1,8,0:0:0:0:
256,192,23994,1,0,0:0:0:0:
256,192,24357,1,8,0:0:0:0:
256,192,24478,1,0,0:0:0:0:
256,192,24720,1,0,0:0:0:0:
256,192,24962,1,0,0:0:0:0:
256,192,25204,1,8,0:0:0:0:
256,192,25325,1,0,0:0:0:0:
256,192,25446,1,8,0:0:0:0:
256,192,25688,1,0,0:0:0:0:
256,192,25930,1,8,0:0:0:0:
256,192,26414,1,0,0:0:0:0:
256,192,26656,1,8,0:0:0:0:
256,192,26898,1,0,0:0:0:0:
256,192,27139,1,0,0:0:0:0:
256,192,27260,1,0,0:0:0:0:
256,192,27381,1,8,0:0:0:0:
256,192,27502,1,0,0:0:0:0:
256,192,27623,1,8,0:0:0:0:
256,192,27865,1,0,0:0:0:0:
256,192,28107,1,0,0:0:0:0:
256,192,28349,1,8,0:0:0:0:
256,192,28591,1,8,0:0:0:0:
256,192,28833,1,0,0:0:0:0:
256,192,29075,1,8,0:0:0:0:
256,192,29196,1,8,0:0:0:0:
256,192,29317,1,0,0:0:0:0:
256,192,29559,1,0,0:0:0:0:
256,192,29801,1,8,0:0:0:0:
256,192,30043,1,0,0:0:0:0:
256,192,30285,1,8,0:0:0:0:
256,192,30527,1,0,0:0:0:0:
256,192,30648,1,8,0:0:0:0:
256,192,30768,1,8,0:0:0:0:
256,192,30889,1,0,0:0:0:0:
256,192,31010,1,8,0:0:0:0:
256,192,31131,1,0,0:0:0:0:
256,192,31252,1,0,0:0:0:0:
256,192,31373,1,8,0:0:0:0:
256,192,31494,1,0,0:0:0:0:
256,192,31736,1,12,0:0:0:0:
256,192,32099,1,0,0:0:0:0:
256,192,32220,1,8,0:0:0:0:
256,192,32462,1,8,0:0:0:0:
256,192,32704,1,0,0:0:0:0:
256,192,32946,1,0,0:0:0:0:
256,192,33188,1,8,0:0:0:0:
256,192,33430,1,0,0:0:0:0:
256,192,33551,1,0,0:0:0:0:
256,192,33672,1,8,0:0:0:0:
256,192,34035,1,0,0:0:0:0:
256,192,34156,1,8,0:0:0:0:
256,192,34398,1,0,0:0:0:0:
256,192,34639,1,8,0:0:0:0:
256,192,34760,1,8,0:0:0:0:
256,192,34881,1,0,0:0:0:0:
256,192,35123,1,8,0:0:0:0:
256,192,35244,1,8,0:0:0:0:
256,192,35365,1,8,0:0:0:0:
256,192,35607,1,0,0:0:0:0:
256,192,35970,1,8,0:0:0:0:
256,192,36091,1,0,0:0:0:0:
256,192,36333,1,0,0:0:0:0:
256,192,36575,1,8,0:0:0:0:
256,192,36817,1,0,0:0:0:0:
256,192,37059,1,8,0:0:0:0:
256,192,37301,1,8,0:0:0:0:
256,192,37422,1,8,0:0:0:0:
256,192,37543,1,0,0:0:0:0:
256,192,37906,1,8,0:0:0:0:
256,192,38027,1,0,0:0:0:0:
256,192,38268,1,8,0:0:0:0:
256,192,38389,1,8,0:0:0:0:
256,192,38510,1,8,0:0:0:0:
256,192,38631,1,8,0:0:0:0:
256,192,38752,1,0,0:0:0:0:
256,192,38994,1,8,0:0:0:0:
256,192,39115,1,0,0:0:0:0:
256,192,39236,1,0,0:0:0:0:
256,192,39478,1,8,0:0:0:0:
256,192,39841,1,0,0:0:0:0:
256,192,39962,1,8,0:0:0:0:
256,192,40204,1,0,0:0:0:0:
256,192,40446,1,8,0:0:0:0:
256,192,40567,1,8,0:0:0:0:
256,192,40688,1,0,0:0:0:0:
256,192,40930,1,8,0:0:0:0:
256,192,41172,1,0,0:0:0:0:
256,192,41293,1,0,0:0:0:0:
256,192,41414,1,8,0:0:0:0:
256,192,41777,1,0,0:0:0:0:
256,192,41898,1,8,0:0:0:0:
256,192,42139,1,0,0:0:0:0:
256,192,42381,1,8,0:0:0:0:
256,192,42623,1,0,0:0:0:0:
256,192,42744,1,0,0:0:0:0:
256,192,42865,1,8,0:0:0:0:
256,192,42986,1,8,0:0:0:0:
256,192,43107,1,0,0:0:0:0:
256,192,43349,1,8,0:0:0:0:
256,192,43712,1,8,0:0:0:0:
256,192,43833,1,0,0:0:0:0:
256,192,44075,1,8,0:0:0:0:
256,192,44317,1,0,0:0:0:0:
256,192,44438,1,0,0:0:0:0:
256,192,44559,1,0,0:0:0:0:
256,192,44801,1,8,0:0:0:0:
256,192,45043,1,0,0:0:0:0:
256,192,45164,1,0,0:0:0:0:
256,192,45285,1,8,0:0:0:0:
256,192,45527,1,8,0:0:0:0:
256,192,45648,1,8,0:0:0:0:
256,192,45768,1,0,0:0:0:0:
256,192,46010,1,8,0:0:0:0:
256,192,46252,1,8,0:0:0:0:
256,192,46373,1,8,0:0:0:0:
256,192,46494,1,0,0:0:0:0:
256,192,46615,1,0,0:0:0:0:
256,192,46736,1,8,0:0:0:0:
256,192,46857,1,0,0:0:0:0:
256,192,46978,1,8,0:0:0:0:
256,192,47220,1,4,0:0:0:0:
256,192,47704,1,8,0:0:0:0:
256,192,47946,1,0,0:0:0:0:
256,192,48188,1,8,0:0:0:0:
256,192,48430,1,8,0:0:0:0:
256,192,48672,1,0,0:0:0:0:
256,192,48914,1,0,0:0:0:0:
256,192,49035,1,0,0:0:0:0:
256,192,49156,1,8,0:0:0:0:
256,192,49639,1,8,0:0:0:0:
256,192,49881,1,0,0:0:0:0:
256,192,50123,1,8,0:0:0:0:
256,192,50365,1,0,0:0:0:0:
256,192,50486,1,0,0:0:0:0:
256,192,50607,1,0,0:0:0:0:
256,192,50849,1,8,0:0:0:0:
256,192,51091,1,0,0:0:0:0:
256,192,51575,1,8,0:0:0:0:
256,192,51817,1,0,0:0:0:0:
256,192,51938,1,8,0:0:0:0:
256,192,52059,1,8,0:0:0:0:
256,192,52301,1,0,0:0:0:0:
256,192,52543,1,8,0:0:0:0:
256,192,52664,1,8,0:0:0:0:
256,192,52785,1,8,0:0:0:0:
256,192,53027,1,0,0:0:0:0:
256,192,53268,1,8,0:0:0:0:
256,192,53389,1,0,0:0:0:0:
256,192,53510,1,0,0:0:0:0:
256,192,53631,1,0,0:0:0:0:
256,192,53752,1,8,0:0:0:0:
256,192,53994,1,8,0:0:0:0:
256,192,54478,1,0,0:0:0:0:
256,192,54841,1,0,0:0:0:0:
256,192,54962,1,12,0:0:0:0:
256,192,55446,1,8,0:0:0:0:
256,192,55688,1,0,0:0:0:0:
256,192,55809,1,0,0:0:0:0:
256,192,55930,1,8,0:0:0:0:
256,192,56172,1,0,0:0:0:0:
256,192,56293,1,8,0:0:0:0:
256,192,56414,1,0,0:0:0:0:
256,192,56656,1,0,0:0:0:0:
256,192,56898,1,8,0:0:0:0:
256,192,57139,1,8,0:0:0:0:
256,192,57381,1,0,0:0:0:0:
256,192,57623,1,8,0:0:0:0:
256,192,57744,1,0,0:0:0:0:
256,192,57865,1,0,0:0:0:0:
256,192,58107,1,0,0:0:0:0:
256,192,58349,1,8,0:0:0:0:
256,192,58591,1,0,0:0:0:0:
256,192,58712,1,0,0:0:0:0:
256,192,58833,1,12,0:0:0:0:
256,192,59196,1,8,0:0:0:0:
256,192,59317,1,0,0:0:0:0:
256,192,59559,1,8,0:0:0:0:
256,192,59801,1,0,0:0:0:0:
256,192,59922,1,0,0:0:0:0:
256,192,60043,1,8,0:0:0:0:
256,192,60164,1,8,0:0:0:0:
256,192,60285,1,0,0:0:0:0:
256,192,60527,1,8,0:0:0:0:
256,192,60768,1,0,0:0:0:0:
256,192,61010,1,0,0:0:0:0:
256,192,61252,1,8,0:0:0:0:
256,192,61615,1,0,0:0:0:0:
256,192,61736,1,8,0:0:0:0:
256,192,61978,1,0,0:0:0:0:
256,192,62099,1,8,0:0:0:0:
256,192,62220,1,0,0:0:0:0:
256,192,62341,1,0,0:0:0:0:
256,192,62462,1,8,0:0:0:0:
256,192,62704,1,4,0:0:0:0:
256,192,63188,1,8,0:0:0:0:
256,192,63430,1,0,0:0:0:0:
256,192,63551,1,0,0:0:0:0:
256,192,63672,1,8,0:0:0:0:
256,192,63793,1,0,0:0:0:0:
256,192,63914,1,8,0:0:0:0:
256,192,64156,1,0,0:0:0:0:
256,192,64398,1,8,0:0:0:0:
256,192,64518,1,0,0:0:0:0:
256,192,64639,1,8,0:0:0:0:
256,192,64881,1,0,0:0:0:0:
256,192,65002,1,8,0:0:0:0:
256,192,65123,1,0,0:0:0:0:
256,192,65365,1,8,0:0:0:0:
256,192,65486,1,8,0:0:0:0:
256,192,65607,1,0,0:0:0:0:
256,192,65728,1,0,0:0:0:0:
256,192,65849,1,0,0:0:0:0:
256,192,65970,1,0,0:0:0:0:
256,192,66091,1,8,0:0:0:0:
256,192,66333,1,0,0:0:0:0:
256,192,66575,1,12,0:0:0:0:
256,192,66817,1,0,0:0:0:0:
256,192,67059,1,12,0:0:0:0:
256,192,67543,1,4,0:0:0:0:
256,192,68268,1,0,0:0:0:0:
256,192,68510,1,12,0:0:0:0:
256,192,68873,1,0,0:0:0:0:
256,192,68994,1,8,0:0:0:0:
256,192,69236,1,0,0:0:0:0:
256,192,69478,1,8,0:0:0:0:
256,192,69599,1,8,0:0:0:0:
256,192,69720,1,0,0:0:0:0:
256,192,69841,1,8,0:0:0:0:
256,192,69962,1,0,0:0:0:0:
256,192,70204,1,8,0:0:0:0:
256,192,70446,1,4,0:0:0:0:
256,192,70688,1,8,0:0:0:0:
256,192,70930,1,0,0:0:0:0:
256,192,71051,1,0,0:0:0:0:
256,192,71172,1,8,0:0:0:0:
256,192,71293,1,8,0:0:0:0:
256,192,71414,1,0,0:0:0:0:
256,192,71656,1,8,0:0:0:0:
256,192,71898,1,0,0:0:0:0:
256,192,72139,1,0,0:0:0:0:
256,192,72381,1,12,0:0:0:0:
256,192,72623,1,0,0:0:0:0:
256,192,72744,1,0,0:0:0:0:
256,192,72865,1,8,0:0:0:0:
256,192,73107,1,0,0:0:0:0:
256,192,73228,1,8,0:0:0:0:
256,192,73470,1,8,0:0:0:0:
256,192,73591,1,0,0:0:0:0:
256,192,73712,1,0,0:0:0:0:
256,192,73833,1,8,0:0:0:0:
256,192,74075,1,0,0:0:0:0:
256,192,74317,1,8,0:0:0:0:
256,192,74559,1,0,0:0:0:0:
256,192,74680,1,0,0:0:0:0:
256,192,74801,1,8,0:0:0:0:
256,192,75043,1,8,0:0:0:0:
256,192,75164,1,0,0:0:0:0:
256,192,75406,1,0,0:0:0:0:
256,192,75527,1,8,0:0:0:0:
256,192,75648,1,8,0:0:0:0:
256,192,75768,1,0,0:0:0:0:
256,192,76010,1,8,0:0:0:0:
256,192,76252,1,4,0:0:0:0:
256,192,76494,1,8,0:0:0:0:
256,192,76615,1,0,0:0:0:0:
256,192,76736,1,8,0:0:0:0:
256,192,76978,1,0,0:0:0:0:
256,192,77099,1,8,0:0:0:0:
256,192,77220,1,0,0:0:0:0:
256,192,77341,1,0,0:0:0:0:
256,192,77462,1,8,0:0:0:0:
256,192,77583,1,8,0:0:0:0:
256,192,77704,1,0,0:0:0:0:
256,192,77946,1,8,0:0:0:0:
256,192,78067,1,8,0:0:0:0:
256,192,78188,1,0,0:0:0:0:
256,192,78430,1,0,0:0:0:0:
256,192,78672,1,8,0:0:0:0:
256,192,78914,1,0,0:0:0:0:
256,192,79035,1,8,0:0:0:0:
256,192,79156,1,0,0:0:0:0:
256,192,79277,1,0,0:0:0:0:
256,192,79398,1,8,0:0:0:0:
256,192,79518,1,8,0:0:0:0:
256,192,79639,1,0,0:0:0:0:
256,192,79760,1,8,0:0:0:0:
256,192,79881,1,8,0:0:0:0:
256,192,80002,1,8,0:0:0:0:
256,192,80123,1,4,0:0:0:0:
256,192,80607,1,8,0:0:0:0:
256,192,80970,1,8,0:0:0:0:
256,192,81333,1,0,0:0:0:0:
256,192,81575,1,0,0:0:0:0:
256,192,81696,1,0,0:0:0:0:
256,192,81817,1,8,0:0:0:0:
256,192,82059,1,4,0:0:0:0:
256,192,82543,1,8,0:0:0:0:
256,192,82785,1,0,0:0:0:0:
256,192,82906,1,8,0:0:0:0:
256,192,83268,1,8,0:0:0:0:
256,192,83510,1,0,0:0:0:0:
256,192,83752,1,8,0:0:0:0:
256,192,83994,1,4,0:0:0:0:
256,192,84478,1,8,0:0:0:0:
256,192,84599,1,0,0:0:0:0:
256,192,84841,1,8,0:0:0:0:
256,192,85204,1,0,0:0:0:0:
256,192,85446,1,0,0:0:0:0:
256,192,85688,1,8,0:0:0:0:
256,192,85930,1,4,0:0:0:0:
256,192,86414,1,8,0:0:0:0:
256,192,86656,1,0,0:0:0:0:
256,192,86777,1,8,0:0:0:0:
256,192,87139,1,0,0:0:0:0:
256,192,87381,1,0,0:0:0:0:
256,192,87623,1,8,0:0:0:0:
