osu file format v14

[General]
AudioFilename: audio.ogg
AudioLeadIn: 0
PreviewTime: 54357
Countdown: 0
SampleSet: Normal
StackLeniency: 0.7
Mode: 1
LetterboxInBreaks: 0
WidescreenStoryboard: 1

[Editor]
Bookmarks: 8591,16333,31817,47301,55043,80204
DistanceSpacing: 1.4
BeatDivisor: 8
GridSize: 32
TimelineZoom: 0.8

[Metadata]
Title:Katachi (TV Size)
TitleUnicode:かたち (TV Size)
Artist:Azuna Riko
ArtistUnicode:安月名莉子
Creator:Faputa
Version:Futsuu
Source:メイドインアビス 烈日の黄金郷
Tags:Made in Abyss Retsujitsu no ougonkyou op opening J-pop jpop pop anime Japanese The Golden City of the Scorching Sun 2nd season s2 theme song thema オープニングテーマ miabyss
BeatmapID:3706517
BeatmapSetID:1807306

[Difficulty]
HPDrainRate:7.5
CircleSize:2
OverallDifficulty:3.5
ApproachRate:10
SliderMultiplier:1.4
SliderTickRate:1

[Events]
//Background and Video events
Video,0,"Nya.mp4"
0,0,"nachi.jpg",0,-50
//Break Periods
//Storyboard Layer 0 (Background)
//Storyboard Layer 1 (Fail)
//Storyboard Layer 2 (Pass)
//Storyboard Layer 3 (Foreground)
//Storyboard Layer 4 (Overlay)
//Storyboard Sound Samples

[TimingPoints]
769,483.870967741935,4,1,0,80,1,0
54902,-100,4,1,0,90,0,0
54962,-100,4,1,0,90,0,1
72381,483.870967741935,4,1,0,90,1,1
80063,-100,4,1,0,80,0,1
80122,-100,4,1,0,80,0,0

[HitObjects]
256,192,769,5,0,0:0:0:0:
256,192,1252,1,8,0:0:0:0:
256,192,1615,1,8,0:0:0:0:
256,192,2704,1,8,0:0:0:0:
256,192,3188,1,0,0:0:0:0:
256,192,3551,1,0,0:0:0:0:
256,192,4639,1,0,0:0:0:0:
256,192,5123,1,8,0:0:0:0:
256,192,5486,1,8,0:0:0:0:
256,192,6575,1,8,0:0:0:0:
256,192,7059,1,0,0:0:0:0:
256,192,7422,1,0,0:0:0:0:
256,192,8510,1,4,0:0:0:0:
256,192,8994,1,8,0:0:0:0:
256,192,9357,1,8,0:0:0:0:
256,192,9720,1,0,0:0:0:0:
256,192,9962,1,8,0:0:0:0:
256,192,10446,1,0,0:0:0:0:
256,192,10930,1,8,0:0:0:0:
256,192,11293,1,8,0:0:0:0:
256,192,11656,1,0,0:0:0:0:
256,192,11898,1,0,0:0:0:0:
256,192,12381,1,12,0:0:0:0:
256,192,12865,1,0,0:0:0:0:
256,192,13228,1,0,0:0:0:0:
256,192,13591,1,8,0:0:0:0:
256,192,13833,1,0,0:0:0:0:
256,192,14317,1,8,0:0:0:0:
256,192,14801,1,0,0:0:0:0:
256,192,15164,1,0,0:0:0:0:
256,192,16252,1,4,0:0:0:0:
256,192,16736,1,8,0:0:0:0:
256,192,17220,1,0,0:0:0:0:
256,192,17946,1,0,0:0:0:0:
256,192,18188,1,8,0:0:0:0:
256,192,18672,1,8,0:0:0:0:
256,192,19156,1,0,0:0:0:0:
256,192,20123,1,8,0:0:0:0:
256,192,20849,1,0,0:0:0:0:
256,192,21091,1,0,0:0:0:0:
256,192,21575,1,8,0:0:0:0:
256,192,22059,1,0,0:0:0:0:
256,192,22301,1,8,0:0:0:0:
256,192,23027,1,0,0:0:0:0:
256,192,23268,1,8,0:0:0:0:
256,192,23510,1,8,0:0:0:0:
256,192,23994,1,0,0:0:0:0:
256,192,24478,1,8,0:0:0:0:
256,192,24962,1,0,0:0:0:0:
256,192,25688,1,8,0:0:0:0:
256,192,25930,1,0,0:0:0:0:
256,192,26414,1,0,0:0:0:0:
256,192,26898,1,8,0:0:0:0:
256,192,27865,1,0,0:0:0:0:
256,192,28591,1,8,0:0:0:0:
256,192,28833,1,0,0:0:0:0:
256,192,29317,1,8,0:0:0:0:
256,192,29801,1,0,0:0:0:0:
256,192,30043,1,0,0:0:0:0:
256,192,30285,1,8,0:0:0:0:
256,192,30768,1,8,0:0:0:0:
256,192,31252,1,0,0:0:0:0:
256,192,31736,1,12,0:0:0:0:
256,192,32220,1,8,0:0:0:0:
256,192,32462,1,8,0:0:0:0:
256,192,32704,1,0,0:0:0:0:
256,192,33430,1,0,0:0:0:0:
256,192,33672,1,8,0:0:0:0:
256,192,34156,1,8,0:0:0:0:
256,192,34398,1,0,0:0:0:0:
256,192,34639,1,8,0:0:0:0:
256,192,35607,1,0,0:0:0:0:
256,192,36333,1,0,0:0:0:0:
256,192,36575,1,8,0:0:0:0:
256,192,37059,1,8,0:0:0:0:
256,192,37301,1,8,0:0:0:0:
256,192,37543,1,0,0:0:0:0:
256,192,37785,1,8,0:0:0:0:
256,192,38268,1,8,0:0:0:0:
256,192,38752,1,8,0:0:0:0:
256,192,38994,1,0,0:0:0:0:
256,192,39478,1,8,0:0:0:0:
256,192,39962,1,0,0:0:0:0:
256,192,40204,1,8,0:0:0:0:
256,192,40446,1,8,0:0:0:0:
256,192,41172,1,0,0:0:0:0:
256,192,41414,1,8,0:0:0:0:
256,192,41898,1,8,0:0:0:0:
256,192,42139,1,0,0:0:0:0:
256,192,42381,1,8,0:0:0:0:
256,192,43349,1,8,0:0:0:0:
256,192,44075,1,8,0:0:0:0:
256,192,44317,1,0,0:0:0:0:
256,192,44801,1,8,0:0:0:0:
256,192,45043,1,0,0:0:0:0:
256,192,45285,1,8,0:0:0:0:
256,192,45527,1,8,0:0:0:0:
256,192,45768,1,0,0:0:0:0:
256,192,46252,1,0,0:0:0:0:
256,192,46494,1,0,0:0:0:0:
256,192,46736,1,8,0:0:0:0:
256,192,47220,1,4,0:0:0:0:
256,192,47946,1,0,0:0:0:0:
256,192,48430,1,8,0:0:0:0:
256,192,48914,1,8,0:0:0:0:
256,192,49156,1,0,0:0:0:0:
256,192,49881,1,8,0:0:0:0:
256,192,50365,1,8,0:0:0:0:
256,192,50849,1,0,0:0:0:0:
256,192,51091,1,8,0:0:0:0:
256,192,51575,1,8,0:0:0:0:
256,192,52059,1,0,0:0:0:0:
256,192,52301,1,0,0:0:0:0:
256,192,52543,1,8,0:0:0:0:
256,192,52785,1,8,0:0:0:0:
256,192,53027,1,0,0:0:0:0:
256,192,53510,1,0,0:0:0:0:
256,192,53994,1,8,0:0:0:0:
256,192,54962,1,12,0:0:0:0:
256,192,55446,1,0,0:0:0:0:
256,192,55930,1,8,0:0:0:0:
256,192,56172,1,8,0:0:0:0:
256,192,56414,1,0,0:0:0:0:
256,192,56656,1,0,0:0:0:0:
256,192,56898,1,8,0:0:0:0:
256,192,57381,1,8,0:0:0:0:
256,192,57865,1,0,0:0:0:0:
256,192,58591,1,0,0:0:0:0:
256,192,58833,1,12,0:0:0:0:
256,192,59317,1,0,0:0:0:0:
256,192,59801,1,8,0:0:0:0:
256,192,60043,1,0,0:0:0:0:
256,192,60527,1,0,0:0:0:0:
256,192,60768,1,8,0:0:0:0:
256,192,61252,1,0,0:0:0:0:
256,192,61736,1,8,0:0:0:0:
256,192,62099,1,8,0:0:0:0:
256,192,62704,1,4,0:0:0:0:
256,192,63188,1,8,0:0:0:0:
256,192,63672,1,0,0:0:0:0:
256,192,63914,1,8,0:0:0:0:
256,192,64156,1,0,0:0:0:0:
256,192,64398,1,0,0:0:0:0:
256,192,64639,1,8,0:0:0:0:
256,192,65123,1,8,0:0:0:0:
256,192,65607,1,0,0:0:0:0:
256,192,66091,1,0,0:0:0:0:
256,192,66575,1,12,0:0:0:0:
256,192,67059,1,12,0:0:0:0:
256,192,67543,1,4,0:0:0:0:
256,192,68268,1,0,0:0:0:0:
256,192,68510,1,12,0:0:0:0:
256,192,68994,1,0,0:0:0:0:
256,192,69478,1,8,0:0:0:0:
256,192,69841,1,8,0:0:0:0:
256,192,70204,1,8,0:0:0:0:
256,192,70446,1,4,0:0:0:0:
256,192,71414,1,8,0:0:0:0:
256,192,71898,1,0,0:0:0:0:
256,192,72139,1,0,0:0:0:0:
256,192,72381,1,12,0:0:0:0:
256,192,72865,1,0,0:0:0:0:
256,192,73228,1,0,0:0:0:0:
256,192,73591,1,8,0:0:0:0:
256,192,73833,1,8,0:0:0:0:
256,192,74317,1,0,0:0:0:0:
256,192,74801,1,8,0:0:0:0:
256,192,75164,1,8,0:0:0:0:
256,192,75768,1,0,0:0:0:0:
256,192,76010,1,8,0:0:0:0:
256,192,76252,1,4,0:0:0:0:
256,192,76736,1,8,0:0:0:0:
256,192,77099,1,8,0:0:0:0:
256,192,77704,1,0,0:0:0:0:
256,192,77946,1,0,0:0:0:0:
256,192,78188,1,8,0:0:0:0:
256,192,78672,1,0,0:0:0:0:
256,192,79156,1,8,0:0:0:0:
256,192,79398,1,0,0:0:0:0:
256,192,79639,1,8,0:0:0:0:
256,192,80123,1,4,0:0:0:0:
256,192,80607,1,8,0:0:0:0:
256,192,80970,1,8,0:0:0:0:
256,192,82059,1,4,0:0:0:0:
256,192,82543,1,8,0:0:0:0:
256,192,82906,1,8,0:0:0:0:
256,192,83994,1,4,0:0:0:0:
256,192,84478,1,8,0:0:0:0:
256,192,84841,1,8,0:0:0:0:
256,192,85930,1,4,0:0:0:0:
256,192,86414,1,8,0:0:0:0:
256,192,86777,1,8,0:0:0:0:
256,192,87381,1,0,0:0:0:0:
256,192,87623,1,8,0:0:0:0:
