osu file format v14

[General]
AudioFilename: audio.ogg
AudioLeadIn: 0
PreviewTime: 54478
Countdown: 0
SampleSet: Drum
StackLeniency: 0.7
Mode: 3
LetterboxInBreaks: 0
SpecialStyle: 0
WidescreenStoryboard: 1

[Editor]
Bookmarks: 16333,31817,39559,47301,55043,72462
DistanceSpacing: 1.4
BeatDivisor: 4
GridSize: 32
TimelineZoom: 1.3

[Metadata]
Title:Katachi (TV Size)
TitleUnicode:かたち (TV Size)
Artist:Azuna Riko
ArtistUnicode:安月名莉子
Creator:Faputa
Version:Easy
Source:メイドインアビス 烈日の黄金郷
Tags:- Inui Toko - -_Inui_Toko_- -InuiToko- -_InuiToko_- Made in Abyss Retsujitsu no ougonkyou op opening J-pop jpop pop anime Japanese The Golden City of the Scorching Sun 2nd season s2 theme song thema オープニングテーマ miabyss
BeatmapID:3717209
BeatmapSetID:1807327

[Difficulty]
HPDrainRate:7
CircleSize:4
OverallDifficulty:7
ApproachRate:5
SliderMultiplier:1.4
SliderTickRate:1

[Events]
//Background and Video events
Video,0,"Nya.mp4"
0,0,"1275446.jpg",0,0
//Break Periods
//Storyboard Layer 0 (Background)
//Storyboard Layer 1 (Fail)
//Storyboard Layer 2 (Pass)
//Storyboard Layer 3 (Foreground)
//Storyboard Layer 4 (Overlay)
//Storyboard Sound Samples

[TimingPoints]
769,483.870967741935,4,3,1,40,1,0
54962,-100,4,3,1,40,0,1
80123,-100,4,3,1,40,0,0

[HitObjects]
64,192,769,128,0,1252:0:0:0:0:
320,192,1252,128,0,1615:0:0:0:0:
64,192,1615,128,0,2220:0:0:0:0:
448,192,2704,128,0,3188:0:0:0:0:
192,192,3188,128,0,3551:0:0:0:0:
448,192,3551,128,0,4156:0:0:0:0:
64,192,4639,128,0,5123:0:0:0:0:
320,192,5123,128,0,5486:0:0:0:0:
192,192,5486,128,0,6091:0:0:0:0:
448,192,6575,128,0,7059:0:0:0:0:
192,192,7059,128,0,7422:0:0:0:0:
320,192,7422,128,0,8027:0:0:0:0:
192,192,8027,1,0,0:0:0:0:
448,192,8510,1,0,0:0:0:0:
64,192,8510,128,0,8994:0:0:0:0:
320,192,8994,128,0,9357:0:0:0:0:
192,192,9357,128,0,9962:0:0:0:0:
448,192,9962,1,0,0:0:0:0:
320,192,10204,1,0,0:0:0:0:
448,192,10446,128,0,10930:0:0:0:0:
64,192,10446,1,0,0:0:0:0:
192,192,10930,128,0,11293:0:0:0:0:
320,192,11293,128,0,11898:0:0:0:0:
192,192,11898,1,0,0:0:0:0:
64,192,12139,1,0,0:0:0:0:
448,192,12381,1,0,0:0:0:0:
192,192,12381,128,0,12865:0:0:0:0:
320,192,12865,128,0,13228:0:0:0:0:
448,192,13228,128,0,13833:0:0:0:0:
320,192,13833,1,0,0:0:0:0:
192,192,14075,1,0,0:0:0:0:
64,192,14317,1,0,0:0:0:0:
320,192,14317,128,0,14801:0:0:0:0:
192,192,14801,128,0,15164:0:0:0:0:
64,192,15164,128,0,15768:0:0:0:0:
320,192,15768,1,0,0:0:0:0:
192,192,16010,1,0,0:0:0:0:
320,192,16252,1,0,0:0:0:0:
448,192,16252,1,0,0:0:0:0:
64,192,16736,1,0,0:0:0:0:
64,192,17220,1,0,0:0:0:0:
320,192,17462,1,0,0:0:0:0:
64,192,17704,1,0,0:0:0:0:
448,192,18188,1,0,0:0:0:0:
448,192,18672,1,0,0:0:0:0:
448,192,19156,1,0,0:0:0:0:
192,192,19398,1,0,0:0:0:0:
448,192,19639,1,0,0:0:0:0:
64,192,20123,1,0,0:0:0:0:
192,192,20607,1,0,0:0:0:0:
320,192,21091,1,0,0:0:0:0:
448,192,21333,1,0,0:0:0:0:
192,192,21575,1,0,0:0:0:0:
64,192,21817,1,0,0:0:0:0:
320,192,22059,1,0,0:0:0:0:
192,192,22543,1,0,0:0:0:0:
320,192,22785,1,0,0:0:0:0:
448,192,23027,1,0,0:0:0:0:
192,192,23510,1,0,0:0:0:0:
320,192,23994,1,0,0:0:0:0:
320,192,24478,1,0,0:0:0:0:
320,192,24962,1,0,0:0:0:0:
64,192,25204,1,0,0:0:0:0:
320,192,25446,1,0,0:0:0:0:
192,192,25930,1,0,0:0:0:0:
192,192,26414,1,0,0:0:0:0:
192,192,26898,1,0,0:0:0:0:
448,192,27139,1,0,0:0:0:0:
192,192,27381,1,0,0:0:0:0:
320,192,27865,1,0,0:0:0:0:
192,192,28349,1,0,0:0:0:0:
448,192,28833,1,0,0:0:0:0:
320,192,29075,1,0,0:0:0:0:
192,192,29317,1,0,0:0:0:0:
64,192,29559,1,0,0:0:0:0:
320,192,29801,1,0,0:0:0:0:
320,192,30285,1,0,0:0:0:0:
64,192,30768,1,0,0:0:0:0:
192,192,31010,1,0,0:0:0:0:
320,192,31252,1,0,0:0:0:0:
448,192,31494,1,0,0:0:0:0:
192,192,31736,1,0,0:0:0:0:
64,192,31736,1,0,0:0:0:0:
320,192,32220,1,0,0:0:0:0:
192,192,32462,1,0,0:0:0:0:
192,192,32946,1,0,0:0:0:0:
448,192,33188,1,0,0:0:0:0:
320,192,33672,1,0,0:0:0:0:
64,192,34156,1,0,0:0:0:0:
448,192,34398,1,0,0:0:0:0:
448,192,34881,1,0,0:0:0:0:
192,192,35123,1,0,0:0:0:0:
64,192,35607,1,0,0:0:0:0:
448,192,36091,1,0,0:0:0:0:
192,192,36333,1,0,0:0:0:0:
192,192,36817,1,0,0:0:0:0:
320,192,37059,1,0,0:0:0:0:
64,192,37301,1,0,0:0:0:0:
192,192,37543,1,0,0:0:0:0:
448,192,38027,1,0,0:0:0:0:
320,192,38268,1,0,0:0:0:0:
192,192,38510,128,0,38994:0:0:0:0:
320,192,38994,128,0,39478:0:0:0:0:
64,192,39478,1,0,0:0:0:0:
448,192,39962,1,0,0:0:0:0:
192,192,40204,1,0,0:0:0:0:
192,192,40688,1,0,0:0:0:0:
320,192,40930,1,0,0:0:0:0:
448,192,41414,1,0,0:0:0:0:
64,192,41898,1,0,0:0:0:0:
320,192,42139,1,0,0:0:0:0:
320,192,42623,1,0,0:0:0:0:
192,192,42865,1,0,0:0:0:0:
448,192,43107,1,0,0:0:0:0:
320,192,43349,1,0,0:0:0:0:
64,192,43833,1,0,0:0:0:0:
192,192,44075,1,0,0:0:0:0:
320,192,44317,1,0,0:0:0:0:
192,192,44801,1,0,0:0:0:0:
320,192,45043,1,0,0:0:0:0:
448,192,45285,1,0,0:0:0:0:
64,192,45768,1,0,0:0:0:0:
320,192,46010,1,0,0:0:0:0:
192,192,46252,128,0,46736:0:0:0:0:
448,192,46736,128,0,47220:0:0:0:0:
64,192,47220,1,0,0:0:0:0:
192,192,47220,1,0,0:0:0:0:
448,192,47704,1,0,0:0:0:0:
64,192,47946,1,0,0:0:0:0:
320,192,48188,1,0,0:0:0:0:
64,192,48672,1,0,0:0:0:0:
448,192,49156,1,0,0:0:0:0:
448,192,49639,1,0,0:0:0:0:
320,192,49881,1,0,0:0:0:0:
192,192,50123,1,0,0:0:0:0:
448,192,50365,1,0,0:0:0:0:
192,192,50607,1,0,0:0:0:0:
320,192,51091,1,0,0:0:0:0:
192,192,51575,1,0,0:0:0:0:
320,192,51817,1,0,0:0:0:0:
64,192,52059,1,0,0:0:0:0:
320,192,52543,1,0,0:0:0:0:
192,192,52785,1,0,0:0:0:0:
448,192,53027,1,0,0:0:0:0:
64,192,53510,1,0,0:0:0:0:
192,192,53752,1,0,0:0:0:0:
320,192,53994,1,0,0:0:0:0:
192,192,54962,1,0,0:0:0:0:
448,192,54962,128,0,55688:0:0:0:0:
64,192,55688,1,0,0:0:0:0:
320,192,55930,1,0,0:0:0:0:
192,192,56172,1,0,0:0:0:0:
320,192,56656,1,0,0:0:0:0:
448,192,56898,1,0,0:0:0:0:
192,192,57381,1,0,0:0:0:0:
320,192,57865,1,0,0:0:0:0:
64,192,58107,1,0,0:0:0:0:
448,192,58591,1,0,0:0:0:0:
320,192,58833,1,0,0:0:0:0:
192,192,58833,128,0,59559:0:0:0:0:
448,192,59559,1,0,0:0:0:0:
320,192,59801,1,0,0:0:0:0:
64,192,60043,1,0,0:0:0:0:
192,192,60527,1,0,0:0:0:0:
448,192,60768,1,0,0:0:0:0:
64,192,61252,1,0,0:0:0:0:
320,192,61736,1,0,0:0:0:0:
192,192,61978,1,0,0:0:0:0:
448,192,62220,1,0,0:0:0:0:
64,192,62704,1,0,0:0:0:0:
192,192,62704,1,0,0:0:0:0:
448,192,63188,1,0,0:0:0:0:
64,192,63672,1,0,0:0:0:0:
192,192,63914,1,0,0:0:0:0:
448,192,64156,1,0,0:0:0:0:
320,192,64398,1,0,0:0:0:0:
192,192,64639,1,0,0:0:0:0:
448,192,65123,1,0,0:0:0:0:
64,192,65607,1,0,0:0:0:0:
320,192,66091,1,0,0:0:0:0:
192,192,66333,1,0,0:0:0:0:
64,192,66575,1,0,0:0:0:0:
448,192,66575,1,0,0:0:0:0:
320,192,67059,1,0,0:0:0:0:
192,192,67059,1,0,0:0:0:0:
64,192,67543,1,0,0:0:0:0:
448,192,67543,1,0,0:0:0:0:
320,192,68268,1,0,0:0:0:0:
64,192,68510,1,0,0:0:0:0:
192,192,68510,1,0,0:0:0:0:
448,192,68994,1,0,0:0:0:0:
320,192,68994,1,0,0:0:0:0:
192,192,69478,1,0,0:0:0:0:
64,192,69478,1,0,0:0:0:0:
320,192,69720,1,0,0:0:0:0:
64,192,70204,1,0,0:0:0:0:
192,192,70446,1,0,0:0:0:0:
448,192,70446,1,0,0:0:0:0:
320,192,70930,1,0,0:0:0:0:
192,192,71172,1,0,0:0:0:0:
64,192,71414,1,0,0:0:0:0:
320,192,71414,1,0,0:0:0:0:
448,192,71898,1,0,0:0:0:0:
320,192,72139,1,0,0:0:0:0:
64,192,72381,1,0,0:0:0:0:
192,192,72381,128,0,72865:0:0:0:0:
448,192,72865,128,0,73228:0:0:0:0:
320,192,73228,128,0,73833:0:0:0:0:
192,192,73833,1,0,0:0:0:0:
64,192,74075,1,0,0:0:0:0:
448,192,74317,1,0,0:0:0:0:
320,192,74317,128,0,74801:0:0:0:0:
64,192,74801,128,0,75164:0:0:0:0:
192,192,75164,128,0,75768:0:0:0:0:
320,192,75768,1,0,0:0:0:0:
448,192,76010,1,0,0:0:0:0:
320,192,76252,1,0,0:0:0:0:
64,192,76252,128,0,76736:0:0:0:0:
192,192,76736,128,0,77099:0:0:0:0:
320,192,77099,128,0,77704:0:0:0:0:
64,192,77704,1,0,0:0:0:0:
192,192,77946,1,0,0:0:0:0:
64,192,78188,1,0,0:0:0:0:
448,192,78188,128,0,78672:0:0:0:0:
320,192,78672,128,0,79156:0:0:0:0:
64,192,79156,128,0,79639:0:0:0:0:
192,192,79639,128,0,80123:0:0:0:0:
320,192,80123,1,0,0:0:0:0:
448,192,80123,1,0,0:0:0:0:
192,192,80607,1,0,0:0:0:0:
192,192,80970,1,0,0:0:0:0:
448,192,81333,1,0,0:0:0:0:
320,192,81575,1,0,0:0:0:0:
192,192,81817,1,0,0:0:0:0:
64,192,82059,1,0,0:0:0:0:
448,192,82059,1,0,0:0:0:0:
320,192,82543,1,0,0:0:0:0:
320,192,82906,1,0,0:0:0:0:
192,192,83268,1,0,0:0:0:0:
64,192,83510,1,0,0:0:0:0:
448,192,83752,1,0,0:0:0:0:
192,192,83994,1,0,0:0:0:0:
320,192,83994,1,0,0:0:0:0:
64,192,84478,1,0,0:0:0:0:
64,192,84841,1,0,0:0:0:0:
320,192,85204,1,0,0:0:0:0:
448,192,85446,1,0,0:0:0:0:
64,192,85688,1,0,0:0:0:0:
192,192,85930,1,0,0:0:0:0:
320,192,85930,1,0,0:0:0:0:
448,192,86414,1,0,0:0:0:0:
448,192,86777,1,0,0:0:0:0:
64,192,87139,1,0,0:0:0:0:
192,192,87381,1,0,0:0:0:0:
320,192,87623,1,0,0:0:0:0:
