osu file format v14

[General]
AudioFilename: audio.mp3
AudioLeadIn: 0
PreviewTime: 55279
Countdown: 0
SampleSet: Soft
StackLeniency: 0.7
Mode: 0
LetterboxInBreaks: 0
WidescreenStoryboard: 1

[Editor]
DistanceSpacing: 1
BeatDivisor: 4
GridSize: 32
TimelineZoom: 0.8999999

[Metadata]
Title:Chance! & Revenge! (TV Size)
TitleUnicode:Chance! & Revenge! (TV Size)
Artist:Azuna Riko
ArtistUnicode:安月名莉子
Creator:Itsuuki
Version:Ky's Normal!
Source:幼なじみが絶対に負けないラブコメ
Tags:おさまけ Osananajimi ga Zettai ni Makenai Rabu Kome Romcom Where The Childhood Friend Won't Lose Wont OsaMake love comedy Anime opening op Japanese Jpop J-pop pop Kyle Y Kyle_Y climbx3145 GodKei
BeatmapID:2954286
BeatmapSetID:1432461

[Difficulty]
HPDrainRate:4
CircleSize:3.5
OverallDifficulty:4.5
ApproachRate:5
SliderMultiplier:1.1
SliderTickRate:1

[Events]
//Background and Video events
0,0,"osamake.jpg",0,0
Video,-76,"osamake op.mp4"
//Break Periods
//Storyboard Layer 0 (Background)
//Storyboard Layer 1 (Fail)
//Storyboard Layer 2 (Pass)
//Storyboard Layer 3 (Foreground)
//Storyboard Layer 4 (Overlay)
//Storyboard Sound Samples

[TimingPoints]
-828,379.746835443038,4,2,1,70,1,0
501,-100,4,2,1,70,0,0
3349,-100,4,2,1,5,0,0
3444,-100,4,2,1,70,0,0
3634,-100,4,2,1,5,0,0
3728,-100,4,2,1,70,0,0
18918,-100,4,2,1,60,0,0
33539,-100,4,2,1,5,0,0
33634,-100,4,2,1,60,0,0
33823,-100,4,2,1,5,0,0
33918,-100,4,2,1,60,0,0
43222,-100,4,2,1,50,0,0
46260,-100,4,2,1,60,0,0
49298,-100,4,2,1,50,0,0
52336,-100,4,2,1,60,0,0
55374,-90.9090909090909,4,2,1,80,0,1
65437,-90.9090909090909,4,2,1,5,0,1
65532,-90.9090909090909,4,2,1,80,0,1
65722,-90.9090909090909,4,2,1,5,0,1
65817,-90.9090909090909,4,2,1,80,0,1
66861,-90.9090909090909,4,2,1,5,0,1
66956,-90.9090909090909,4,2,1,80,0,1
78159,-90.9090909090909,4,2,1,80,0,1
79678,-100,4,2,1,70,0,0
88602,-100,4,2,1,55,0,0
88697,-100,4,2,1,45,0,0
88792,-100,4,2,1,35,0,0
88855,-100,4,2,1,30,0,0

[Colours]
Combo1 : 255,129,68
Combo2 : 57,255,57
Combo3 : 255,47,151

[HitObjects]
90,91,501,6,0,L|153:79,1,55,0|12,1:2|0:2,0:2:0:0:
227,9,1070,2,0,P|255:66|237:130,1,110,0|0,1:2|1:2,0:2:0:0:
236,155,1640,1,0,1:2:0:0:
236,155,1830,2,0,L|181:164,1,55,0|0,1:2|1:2,0:2:0:0:
144,187,2209,2,0,L|126:297,1,110,0|0,1:2|1:2,0:2:0:0:
116,338,2779,1,0,1:2:0:0:
221,371,3159,2,0,L|327:389,2,82.5,6|6|6,1:2|1:2|1:2,0:2:0:0:
245,266,4108,5,8,0:2:0:0:
245,266,4298,2,0,L|353:284,1,110,0|0,1:2|1:2,0:2:0:0:
397,287,4868,2,0,P|439:206|401:131,1,165,8|0,0:2|1:2,0:2:0:0:
376,118,5627,1,8,0:2:0:0:
308,30,6007,2,0,L|253:39,1,55,0|8,1:2|0:2,0:2:0:0:
224,72,6387,2,0,L|169:62,1,55,0|8,1:2|0:2,0:2:0:0:
125,58,6766,6,0,L|144:166,1,110,6|8,0:2|0:2,0:2:0:0:
149,210,7336,1,0,1:2:0:0:
256,187,7716,2,0,L|310:177,1,55,2|10,1:2|0:2,0:2:0:0:
353,185,8096,2,0,B|362:239|362:239|343:348,1,165,6|8,1:2|0:2,0:2:0:0:
317,382,8855,1,0,1:2:0:0:
213,345,9235,2,0,L|158:354,1,55,2|10,1:2|0:2,0:2:0:0:
116,347,9615,6,0,B|106:292|106:292|126:184,1,165,2|8,1:2|0:2,0:2:0:0:
152,150,10374,1,0,1:2:0:0:
215,60,10754,2,0,L|269:69,1,55,2|10,1:2|0:2,0:2:0:0:
302,98,11134,2,0,L|410:78,1,110,6|2,1:2|1:2,0:2:0:0:
454,75,11703,1,8,0:2:0:0:
454,75,11893,2,0,L|473:183,1,110,6|2,1:2|1:2,0:2:0:0:
479,227,12463,1,8,0:2:0:0:
414,315,12842,6,0,L|305:334,1,110,6|8,1:2|0:2,0:2:0:0:
262,339,13412,1,0,1:2:0:0:
153,323,13792,2,0,L|98:332,1,55,2|10,1:2|0:2,0:2:0:0:
56,325,14172,2,0,B|46:270|46:270|66:162,1,165,6|8,1:2|0:2,0:2:0:0:
92,128,14931,1,0,1:2:0:0:
172,52,15311,2,0,L|226:42,1,55,2|10,1:2|0:2,0:2:0:0:
269,50,15691,6,0,B|278:104|278:104|259:213,1,165,2|8,1:2|0:2,0:2:0:0:
239,320,16640,2,0,L|347:300,1,110,0|8,1:2|0:2,0:2:0:0:
390,292,17209,1,0,1:2:0:0:
460,207,17589,2,0,L|469:152,1,55,6|6,1:2|1:2,0:2:0:0:
479,109,17969,1,6,1:2:0:0:
388,44,18349,2,0,L|279:63,1,110,6|8,1:2|0:2,0:2:0:0:
239,78,18918,6,0,L|258:186,1,110,4|10,1:2|0:2,0:2:0:0:
335,264,19678,2,0,L|389:254,2,55,2|2|8,1:2|1:2|0:2,0:2:0:0:
261,346,20437,2,0,L|152:365,1,110,2|10,1:2|0:2,0:2:0:0:
56,311,21197,1,2,1:2:0:0:
56,311,21387,2,0,L|36:202,1,110,2|2,1:2|0:2,0:2:0:0:
15,164,21956,6,0,L|34:55,1,110,4|10,1:2|0:2,0:2:0:0:
137,18,22716,2,0,L|218:32,2,82.5,2|2|2,1:2|0:2|1:2,0:2:0:0:
129,61,23475,2,0,L|148:169,1,110,2|10,1:2|0:2,0:2:0:0:
152,213,24045,1,2,1:2:0:0:
226,293,24425,2,0,L|280:283,1,55,6|8,1:2|0:2,0:2:0:0:
317,259,24804,1,10,0:2:0:0:
317,259,24994,6,0,L|297:150,1,110,4|10,1:2|0:2,0:2:0:0:
221,71,25754,2,0,L|139:56,2,82.5,2|2|2,1:2|0:2|1:2,0:2:0:0:
256,45,26513,2,0,B|363:25|363:25|373:80,1,165,2|2,1:2|1:2,0:2:0:0:
382,128,27273,1,10,0:2:0:0:
382,128,27463,1,6,1:2:0:0:
466,198,27842,6,0,B|456:252|456:252|349:233,1,165,6|10,1:2|0:2,0:2:0:0:
304,223,28602,1,2,1:2:0:0:
233,138,28982,1,2,1:2:0:0:
233,138,29172,2,0,L|178:147,1,55,10|2,0:2|0:2,0:2:0:0:
135,157,29551,2,0,L|149:75,2,82.5,2|2|2,1:2|0:2|1:2,0:2:0:0:
121,199,30311,1,10,0:2:0:0:
16,234,30690,1,14,0:2:0:0:
73,328,31070,6,0,L|127:337,1,55,6|0,1:2|0:2,0:2:0:0:
157,369,31450,2,0,L|211:359,1,55,10|0,0:2|1:2,0:2:0:0:
241,326,31830,2,0,L|221:217,1,110,2|10,1:2|0:2,0:2:0:0:
296,137,32589,2,0,L|404:117,1,110,2|10,1:2|0:2,0:2:0:0:
441,93,33159,1,0,0:2:0:0:
441,93,33349,2,0,L|427:11,2,82.5,2|2|14,1:2|0:2|0:2,0:2:0:0:
465,204,34298,5,2,1:2:0:0:
465,204,34488,2,0,L|356:222,1,110,10|2,0:2|1:2,0:2:0:0:
322,193,35058,2,0,L|267:202,1,55,2|10,1:2|0:2,0:2:0:0:
185,274,35627,2,0,L|203:382,1,110,2|6,1:2|1:2,0:2:0:0:
313,381,36387,2,0,L|367:371,1,55,10|10,0:2|0:2,0:2:0:0:
409,353,36766,1,10,0:2:0:0:
409,353,36956,6,0,P|431:274|379:194,1,165,14|8,0:2|0:2,0:2:0:0:
368,174,37716,1,2,1:2:0:0:
368,174,37906,2,0,L|259:155,1,110,2|10,1:2|0:2,0:2:0:0:
172,88,38665,2,0,L|162:33,2,55,2|2|10,1:2|1:2|0:2,0:2:0:0:
153,128,39235,2,0,L|171:236,1,110,2|10,1:2|0:2,0:2:0:0:
186,282,39804,1,10,0:2:0:0:
186,282,39994,1,6,1:2:0:0:
83,314,40374,5,2,1:2:0:0:
83,314,40564,2,0,L|64:205,1,110,10|10,0:2|0:2,0:2:0:0:
58,164,41134,2,0,L|76:55,1,110,2|2,1:2|1:2,0:2:0:0:
108,26,41703,2,0,L|162:35,1,55,14|2,0:2|0:2,0:2:0:0:
203,62,42083,1,2,1:2:0:0:
203,62,42273,2,0,P|249:16|305:126,1,220,2|0,0:2|1:2,0:2:0:0:
294,149,43222,5,4,1:2:0:0:
304,258,43602,2,0,L|412:277,1,110,2|10,0:2|0:2,0:2:0:0:
455,266,44172,1,2,0:2:0:0:
503,169,44551,2,0,L|484:60,1,110,6|2,1:2|1:2,0:2:0:0:
387,8,45311,2,0,L|368:116,1,110,2|2,1:2|1:2,0:2:0:0:
358,159,45880,1,14,0:2:0:0:
258,205,46260,6,0,L|203:195,1,55,6|2,1:2|0:2,0:2:0:0:
175,161,46640,2,0,L|120:170,1,55,10|2,0:2|1:2,0:2:0:0:
85,196,47020,2,0,L|103:304,1,110,10|10,0:2|0:2,0:2:0:0:
105,348,47589,1,6,1:2:0:0:
211,377,47969,1,6,1:2:0:0:
284,295,48349,2,0,L|338:304,1,55,2|2,1:2|1:2,0:2:0:0:
382,308,48728,2,0,L|363:199,1,110,6|0,1:2|1:2,0:2:0:0:
354,156,49298,5,4,1:2:0:0:
393,53,49678,2,0,P|340:44|284:71,1,110,2|10,0:2|0:2,0:2:0:0:
259,98,50247,1,2,0:2:0:0:
256,208,50627,2,0,L|147:189,1,110,6|2,1:2|1:2,0:2:0:0:
116,83,51387,2,0,L|7:101,1,110,2|2,1:2|1:2,0:2:0:0:
1,135,51956,2,0,L|10:189,1,55,10|2,0:2|1:2,0:2:0:0:
29,228,52336,6,0,B|19:281|19:281|128:263,1,165,6|2,1:2|0:2,0:2:0:0:
171,253,53096,1,2,1:2:0:0:
244,171,53475,1,2,1:2:0:0:
243,171,53665,2,0,P|264:121|241:72,2,110,6|6|6,1:2|1:2|1:2,0:2:0:0:
142,367,55374,6,0,L|201:356,1,60.5000018463135,6|0,1:2|0:2,0:2:0:0:
243,350,55754,2,0,L|232:290,1,60.5000018463135,10|0,0:2|0:2,0:2:0:0:
253,254,56134,2,0,L|371:274,1,121.000003692627,8|8,0:2|0:2,0:2:0:0:
413,285,56703,1,2,1:2:0:0:
413,285,56893,2,0,L|402:344,2,60.5000018463135,8|2|8,0:2|0:2|0:2,0:2:0:0:
445,256,57463,2,0,L|465:137,1,121.000003692627,2|2,1:2|1:2,0:2:0:0:
432,110,58032,2,0,L|442:50,1,60.5000018463135,10|2,0:2|1:2,0:2:0:0:
464,14,58412,6,0,P|395:43|304:-4,1,181.500005538941,8|2,0:2|1:2,0:2:0:0:
232,78,59361,2,0,L|242:137,2,60.5000018463135,2|10|2,1:2|0:2|1:2,0:2:0:0:
207,43,59931,2,0,L|88:63,1,121.000003692627,10|8,0:2|0:2,0:2:0:0:
49,75,60501,1,2,1:2:0:0:
49,75,60690,2,0,L|38:15,2,60.5000018463135,8|0|8,0:2|1:2|0:2,0:2:0:0:
16,179,61450,6,0,L|26:238,1,60.5000018463135,14|0,0:2|0:2,0:2:0:0:
33,280,61830,2,0,L|92:269,1,60.5000018463135,10|0,0:2|0:2,0:2:0:0:
134,264,62210,2,0,L|154:145,1,121.000003692627,10|10,0:2|0:2,0:2:0:0:
162,106,62779,1,2,1:2:0:0:
162,106,62969,2,0,L|102:95,2,60.5000018463135,8|2|10,0:2|0:2|0:2,0:2:0:0:
201,89,63539,2,0,L|319:68,1,121.000003692627,2|2,1:2|1:2,0:2:0:0:
362,65,64108,2,0,L|351:124,1,60.5000018463135,10|2,0:2|1:2,0:2:0:0:
340,165,64488,6,0,P|401:192|421:256,1,121.000003692627,8|10,0:2|0:2,0:2:0:0:
408,347,65247,2,0,L|497:331,2,90.7500027694703,10|2|2,0:2|0:2|1:2,0:2:0:0:
373,372,66007,2,0,L|301:359,1,60.5000018463135,10|2,0:2|1:2,0:2:0:0:
280,334,66387,1,10,0:2:0:0:
280,334,66577,2,0,P|205:370|142:303,1,181.500005538941,2|8,1:2|0:2,0:2:0:0:
148,270,67336,1,10,0:2:0:0:
148,270,67526,6,0,L|168:151,1,121.000003692627,6|12,1:2|0:2,0:2:0:0:
212,55,68285,1,2,1:2:0:0:
212,55,68475,2,0,L|140:67,1,60.5000018463135,2|10,1:2|0:2,0:2:0:0:
111,80,68855,2,0,P|53:35|-2:38,2,121.000003692627,2|2|2,0:2|1:2|1:2,0:2:0:0:
65,178,69994,2,0,L|-6:165,2,60.5000018463135,2|10|2,1:2|0:2|1:2,0:2:0:0:
97,205,70564,5,0,1:2:0:0:
186,275,70944,1,8,0:2:0:0:
186,275,71134,2,0,L|304:255,1,121.000003692627,2|2,1:2|1:2,0:2:0:0:
347,241,71703,1,10,0:2:0:0:
347,241,71893,2,0,B|336:181,1,60.5000018463135,2|0,0:2|1:2,0:2:0:0:
319,142,72273,2,0,B|341:22,1,121.000003692627,2|10,1:2|0:2,0:2:0:0:
382,9,72842,2,0,L|500:29,1,121.000003692627,0|0,1:2|1:2,0:2:0:0:
510,138,73602,6,0,L|450:148,1,60.5000018463135,6|0,1:2|0:2,0:2:0:0:
434,187,73982,2,0,L|444:246,1,60.5000018463135,10|0,0:2|0:2,0:2:0:0:
450,288,74362,2,0,L|331:308,1,121.000003692627,10|10,0:2|0:2,0:2:0:0:
294,324,74931,1,2,1:2:0:0:
294,324,75121,2,0,L|283:383,2,60.5000018463135,10|2|10,0:2|0:2|0:2,0:2:0:0:
260,297,75691,2,0,L|239:178,1,121.000003692627,2|2,1:2|1:2,0:2:0:0:
221,139,76260,2,0,L|231:79,1,60.5000018463135,10|2,0:2|1:2,0:2:0:0:
238,37,76640,6,0,L|119:57,1,121.000003692627,12|2,0:2|1:2,0:2:0:0:
38,131,77399,2,0,L|48:190,1,60.5000018463135,2|0,1:2|1:2,0:2:0:0:
55,232,77779,2,0,L|114:242,1,60.5000018463135,0|2,1:2|1:2,0:2:0:0:
155,254,78159,1,6,1:2:0:0:
282,142,78918,6,0,L|298:51,2,90.7500027694703,2|2|2,0:2|0:2|0:2,0:2:0:0:
276,185,79678,6,0,L|384:166,1,110,6|8,1:2|0:2,0:2:0:0:
428,160,80248,1,0,1:2:0:0:
474,259,80627,2,0,L|464:313,1,55,2|10,1:2|0:2,0:2:0:0:
442,345,81007,2,0,L|334:326,1,110,6|0,1:2|1:2,0:2:0:0:
295,317,81577,1,8,0:2:0:0:
295,317,81766,1,0,1:2:0:0:
252,215,82146,2,0,L|242:161,1,55,2|10,1:2|0:2,0:2:0:0:
220,129,82526,6,0,L|112:148,1,110,2|0,1:2|1:2,0:2:0:0:
73,157,83096,1,8,0:2:0:0:
73,157,83285,2,0,L|54:265,1,110,0|8,0:2|0:2,0:2:0:0:
45,305,83855,1,8,0:2:0:0:
45,305,84045,1,0,1:2:0:0:
127,377,84425,2,0,L|181:367,1,55,14|14,0:2|0:2,0:2:0:0:
219,362,84804,1,14,0:2:0:0:
271,264,85184,2,0,L|252:156,1,110,6|0,1:2|0:2,0:2:0:0:
239,118,85754,5,6,1:2:0:0:
256,192,85944,12,0,88855,1:2:0:0:
