osu file format v14

[General]
AudioFilename: audio.mp3
AudioLeadIn: 0
PreviewTime: 55279
Countdown: 0
SampleSet: Soft
StackLeniency: 0.7
Mode: 0
LetterboxInBreaks: 0
WidescreenStoryboard: 1

[Editor]
DistanceSpacing: 1.5
BeatDivisor: 4
GridSize: 32
TimelineZoom: 1.4

[Metadata]
Title:Chance! & Revenge! (TV Size)
TitleUnicode:Chance! & Revenge! (TV Size)
Artist:Azuna Riko
ArtistUnicode:安月名莉子
Creator:Itsuuki
Version:Hard!
Source:幼なじみが絶対に負けないラブコメ
Tags:おさまけ Osananajimi ga Zettai ni Makenai Rabu Kome Romcom Where The Childhood Friend Won't Lose Wont OsaMake love comedy Anime opening op Japanese Jpop J-pop pop Kyle Y Kyle_Y climbx3145 GodKei
BeatmapID:2948235
BeatmapSetID:1432461

[Difficulty]
HPDrainRate:4.5
CircleSize:3.5
OverallDifficulty:6
ApproachRate:8
SliderMultiplier:1.4
SliderTickRate:1

[Events]
//Background and Video events
0,0,"osamake.jpg",0,0
Video,-76,"osamake op.mp4"
//Break Periods
//Storyboard Layer 0 (Background)
//Storyboard Layer 1 (Fail)
//Storyboard Layer 2 (Pass)
//Storyboard Layer 3 (Foreground)
//Storyboard Layer 4 (Overlay)
//Storyboard Sound Samples

[TimingPoints]
-828,379.746835443038,4,2,1,70,1,0
501,-100,4,2,1,70,0,0
3349,-100,4,2,1,5,0,0
3444,-100,4,2,1,70,0,0
3634,-100,4,2,1,5,0,0
3728,-100,4,2,1,70,0,0
18918,-111.111111111111,4,2,1,60,0,0
33539,-111.111111111111,4,2,1,5,0,0
33634,-111.111111111111,4,2,1,60,0,0
33823,-111.111111111111,4,2,1,5,0,0
33918,-111.111111111111,4,2,1,60,0,0
43222,-111.111111111111,4,2,1,50,0,0
46260,-111.111111111111,4,2,1,60,0,0
49298,-111.111111111111,4,2,1,50,0,0
52336,-111.111111111111,4,2,1,60,0,0
55374,-90.9090909090908,4,2,1,80,0,1
65437,-90.9090909090908,4,2,1,5,0,1
65532,-90.9090909090908,4,2,1,80,0,1
65722,-90.9090909090908,4,2,1,5,0,1
65817,-90.9090909090908,4,2,1,80,0,1
66861,-90.9090909090908,4,2,1,5,0,1
66956,-90.9090909090908,4,2,1,80,0,1
79678,-100,4,2,1,70,0,0
88855,-100,4,2,1,40,0,0

[Colours]
Combo1 : 255,129,68
Combo2 : 57,255,57
Combo3 : 255,47,151

[HitObjects]
31,172,501,5,0,1:2:0:0:
31,172,596,1,0,1:2:0:0:
31,172,690,1,12,0:2:0:0:
137,353,1070,6,0,P|183:364|224:353,1,70,0|0,1:2|1:2,0:2:0:0:
271,279,1450,2,0,P|307:274|343:285,1,70,0|0,1:2|1:2,0:2:0:0:
435,236,1830,1,0,1:2:0:0:
435,236,2020,1,0,1:2:0:0:
347,180,2210,2,0,P|342:143|353:107,1,70,0|0,1:2|1:2,0:2:0:0:
411,29,2589,5,0,1:2:0:0:
411,29,2684,1,0,1:2:0:0:
411,29,2779,2,0,L|460:19,2,35,0|0|0,1:2|1:2|1:2,0:2:0:0:
290,67,3159,6,0,L|190:77,1,70,6|8,1:2|0:2,0:2:0:0:
184,35,3444,2,0,L|114:28,1,70,6|0,1:2|0:2,0:2:0:0:
66,5,3728,2,0,P|-1:46|7:115,1,140,6|8,1:2|0:2,0:2:0:0:
56,201,4298,5,0,1:2:0:0:
56,201,4393,1,8,0:2:0:0:
56,201,4488,2,0,P|49:232|33:254,2,35,0|8|0,1:2|0:2|1:2,0:2:0:0:
157,172,4868,2,0,P|191:146|237:147,1,70,8|0,0:2|0:2,0:2:0:0:
290,67,5247,6,0,P|283:36|267:14,2,35,0|8|0,1:2|0:2|1:2,0:2:0:0:
385,111,5627,2,0,P|372:143|368:178,1,70,8|0,0:2|0:2,0:2:0:0:
368,178,5912,1,8,0:2:0:0:
368,178,6007,1,0,1:2:0:0:
427,264,6197,5,8,0:2:0:0:
427,264,6292,1,0,1:2:0:0:
427,264,6387,2,0,L|477:255,3,35,0|8|8|8,1:2|0:2|0:2|0:2,0:2:0:0:
412,276,6766,6,0,B|352:292|352:292|337:276|337:276|275:292,1,140,6|8,0:2|0:2,0:2:0:0:
202,358,7336,2,0,B|159:347|159:347|116:370,1,70,0|8,1:2|0:2,0:2:0:0:
34,359,7716,1,2,1:2:0:0:
34,359,7906,1,10,0:2:0:0:
23,253,8096,2,0,B|-4:183|-4:183|28:117,1,140,6|0,1:2|1:2,0:2:0:0:
108,60,8665,5,8,0:2:0:0:
108,60,8855,2,0,P|154:60|197:79,1,70,0|8,1:2|0:2,0:2:0:0:
286,81,9235,1,2,1:2:0:0:
286,81,9425,2,0,P|320:82|354:73,1,70,10|2,0:2|1:2,0:2:0:0:
450,117,9804,6,0,L|456:191,1,70,8|0,0:2|1:2,0:2:0:0:
357,224,10184,2,0,L|362:154,1,70,8|0,0:2|1:2,0:2:0:0:
286,81,10564,2,0,L|280:155,1,70,8|2,0:2|1:2,0:2:0:0:
206,226,10944,1,10,0:2:0:0:
128,154,11134,6,0,P|56:163|26:244,1,140,6|2,1:2|1:2,0:2:0:0:
113,272,11703,1,8,0:2:0:0:
206,226,11893,2,0,B|247:207|283:231|283:231|325:263|364:230,1,140,6|2,1:2|1:2,0:2:0:0:
422,308,12463,2,0,L|428:343,3,35,8|0|0|0,0:2|1:2|1:2|1:2,0:2:0:0:
435,290,12842,6,0,B|471:199|471:199|446:222|416:211,1,140,6|8,1:2|0:2,0:2:0:0:
413,110,13412,2,0,B|381:97|381:97|346:105,1,70,0|8,1:2|1:2,0:2:0:0:
268,42,13792,1,2,1:2:0:0:
268,42,13982,1,10,0:2:0:0:
183,104,14172,2,0,P|128:156|141:226,1,140,6|0,1:2|1:2,0:2:0:0:
81,305,14741,6,0,P|112:328|165:312,2,70,8|0|8,0:2|1:2|0:2,0:2:0:0:
17,229,15311,1,2,1:2:0:0:
17,229,15501,1,10,0:2:0:0:
2,124,15690,1,2,1:2:0:0:
2,124,15880,2,0,P|0:89|14:58,2,70,8|0|8,0:2|1:2|0:2,0:2:0:0:
103,151,16450,6,0,P|103:129|90:113,2,35,0|8|0,1:2|0:2|1:2,0:2:0:0:
212,132,16830,1,8,0:2:0:0:
212,132,16925,1,8,0:2:0:0:
212,132,17020,2,0,L|249:115,2,35,8|8|0,0:2|0:2|1:2,0:2:0:0:
212,132,17589,5,6,1:2:0:0:
108,226,17779,1,6,1:2:0:0:
229,295,17969,1,6,1:2:0:0:
229,295,18349,5,6,1:2:0:0:
441,256,18728,1,8,0:2:0:0:
441,256,18823,1,8,0:2:0:0:
441,256,18918,6,0,P|411:222|376:217,1,62.9999980773926,4|2,1:2|1:2,0:2:0:0:
301,254,19298,1,10,0:2:0:0:
318,154,19488,1,0,1:2:0:0:
318,154,19678,2,0,P|341:140|349:124,2,31.4999990386963,2|8|2,1:2|0:2|1:2,0:2:0:0:
224,192,20058,1,10,0:2:0:0:
151,260,20247,5,2,1:2:0:0:
151,260,20437,2,0,P|148:215|127:174,1,62.9999980773926,2|2,1:2|1:2,0:2:0:0:
74,122,20817,1,10,0:2:0:0:
19,206,21007,1,2,1:2:0:0:
19,206,21197,2,0,P|14:221|14:236,2,31.4999990386963,2|8|2,1:2|0:2|1:2,0:2:0:0:
74,122,21577,2,0,P|98:91|140:87,1,62.9999980773926,8|2,0:2|0:2,0:2:0:0:
207,34,21956,6,0,L|285:43,1,62.9999980773926,4|2,1:2|0:2,0:2:0:0:
364,5,22336,1,10,0:2:0:0:
452,53,22526,1,0,1:2:0:0:
452,53,22716,2,0,P|467:52|482:57,2,31.4999990386963,2|8|2,1:2|0:2|1:2,0:2:0:0:
364,5,23096,2,0,L|360:82,1,62.9999980773926,8|2,0:2|1:2,0:2:0:0:
421,148,23475,6,0,L|417:210,1,62.9999980773926,2|2,1:2|1:2,0:2:0:0:
331,262,23855,1,10,0:2:0:0:
331,262,24045,2,0,P|260:248|201:285,1,125.999996154785,2|6,1:2|1:2,0:2:0:0:
167,360,24615,1,8,0:2:0:0:
93,309,24804,1,10,0:2:0:0:
93,309,24899,1,8,0:2:0:0:
93,309,24994,6,0,P|88:263|99:235,1,62.9999980773926,4|2,1:2|1:2,0:2:0:0:
40,163,25374,1,10,0:2:0:0:
140,150,25564,1,0,1:2:0:0:
140,150,25754,2,0,B|187:144,2,31.4999990386963,2|8|2,1:2|0:2|1:2,0:2:0:0:
40,163,26134,1,8,0:2:0:0:
88,79,26323,1,2,1:2:0:0:
88,79,26513,6,0,B|25:86,2,62.9999980773926,2|2|10,1:2|1:2|0:2,0:2:0:0:
188,63,27083,2,0,B|201:88|186:108,2,31.4999990386963,2|8|10,1:2|0:2|0:2,0:2:0:0:
282,26,27463,1,6,1:2:0:0:
353,101,27653,1,8,0:2:0:0:
440,52,27842,6,0,P|482:113|457:168,1,125.999996154785,6|2,1:2|1:2,0:2:0:0:
375,200,28412,1,10,0:2:0:0:
353,101,28602,1,2,1:2:0:0:
353,101,28792,2,0,P|382:117|408:115,2,31.4999990386963,0|8|2,1:2|0:2|1:2,0:2:0:0:
269,157,29172,2,0,P|243:138|213:131,1,62.9999980773926,10|2,0:2|0:2,0:2:0:0:
131,190,29551,6,0,B|101:125|101:125|124:82,2,94.499997116089,2|2|2,1:2|1:2|1:2,0:2:0:0:
72,272,30311,1,10,0:2:0:0:
155,335,30501,1,0,1:2:0:0:
155,335,30596,1,0,1:2:0:0:
155,335,30690,1,14,0:2:0:0:
304,221,31070,6,0,B|337:211|337:211|366:221,1,62.9999980773926,6|0,1:2|0:2,0:2:0:0:
427,299,31450,2,0,B|453:308|453:308|486:298,1,62.9999980773926,10|0,0:2|1:2,0:2:0:0:
489,196,31830,1,2,1:2:0:0:
489,196,32020,1,0,1:2:0:0:
398,152,32209,2,0,L|383:78,1,62.9999980773926,10|0,0:2|0:2,0:2:0:0:
315,33,32589,5,2,1:2:0:0:
315,33,32779,1,0,1:2:0:0:
237,97,32969,2,0,L|224:158,1,62.9999980773926,10|0,0:2|0:2,0:2:0:0:
155,233,33349,6,0,P|143:198|119:182,1,62.9999980773926,2|8,1:2|0:2,0:2:0:0:
72,189,33634,2,0,P|48:169|39:139,1,62.9999980773926,2|0,0:2|0:2,0:2:0:0:
25,90,33918,2,0,B|125:56|125:56|155:69,1,125.999996154785,14|2,0:2|1:2,0:2:0:0:
237,97,34488,1,10,0:2:0:0:
237,97,34678,1,2,1:2:0:0:
309,26,34868,2,0,L|345:12,2,31.4999990386963,2|8|2,0:2|0:2|1:2,0:2:0:0:
237,97,35247,6,0,P|229:141|248:174,1,62.9999980773926,10|2,0:2|0:2,0:2:0:0:
304,231,35627,1,2,1:2:0:0:
304,231,35817,1,0,1:2:0:0:
402,195,36007,2,0,P|411:224|404:255,1,62.9999980773926,6|0,1:2|1:2,0:2:0:0:
304,231,36387,5,10,0:2:0:0:
242,310,36577,1,10,0:2:0:0:
172,237,36766,1,10,0:2:0:0:
94,301,36956,2,0,P|62:251|97:174,1,125.999996154785,14|2,0:2|1:2,0:2:0:0:
25,103,37526,1,8,0:2:0:0:
118,57,37716,1,2,1:2:0:0:
118,57,37906,6,0,P|152:38|203:45,1,62.9999980773926,2|2,1:2|1:2,0:2:0:0:
265,82,38285,2,0,P|296:78|322:61,1,62.9999980773926,10|2,0:2|1:2,0:2:0:0:
403,11,38665,2,0,P|419:37|418:68,1,62.9999980773926,2|2,1:2|1:2,0:2:0:0:
492,128,39045,1,10,0:2:0:0:
422,191,39235,1,2,1:2:0:0:
422,191,39330,1,8,0:2:0:0:
422,191,39425,6,0,P|404:228|409:254,2,62.9999980773926,0|10|10,1:2|0:2|0:2,0:2:0:0:
391,101,39994,2,0,P|316:127|268:96,1,125.999996154785,6|2,1:2|1:2,0:2:0:0:
225,35,40564,1,10,0:2:0:0:
225,35,40754,1,0,1:2:0:0:
153,106,40944,2,0,P|82:116|82:116,1,62.9999980773926,10|2,0:2|1:2,0:2:0:0:
61,18,41323,2,0,P|132:28|132:28,1,62.9999980773926,8|2,0:2|1:2,0:2:0:0:
225,35,41703,6,0,B|356:17,1,125.999996154785,14|2,0:2|1:2,0:2:0:0:
453,6,42273,1,2,1:2:0:0:
453,6,42463,1,0,1:2:0:0:
452,110,42653,1,0,1:2:0:0:
452,110,42842,1,0,1:2:0:0:
355,126,43032,1,0,1:2:0:0:
355,126,43222,6,0,B|361:188|361:188|354:203|354:203|359:252,1,125.999996154785,4|2,1:2|0:2,0:2:0:0:
424,326,43792,1,0,1:2:0:0:
424,326,43982,2,0,P|359:300|302:329,1,125.999996154785,10|0,0:2|0:2,0:2:0:0:
221,351,44551,1,14,0:2:0:0:
31,344,44931,6,0,L|16:260,1,62.9999980773926,2|0,1:2|1:2,0:2:0:0:
63,197,45311,2,0,L|74:134,2,62.9999980773926,2|8|2,1:2|0:2|1:2,0:2:0:0:
157,198,45880,1,14,0:2:0:0:
209,290,46070,1,10,0:2:0:0:
209,290,46165,1,8,0:2:0:0:
209,290,46260,6,0,P|248:279|273:243,1,62.9999980773926,6|2,1:2|0:2,0:2:0:0:
290,165,46640,2,0,P|313:144|344:138,1,62.9999980773926,10|2,0:2|1:2,0:2:0:0:
445,136,47020,2,0,P|438:105|418:81,1,62.9999980773926,10|2,0:2|1:2,0:2:0:0:
320,55,47400,2,0,P|299:31|293:0,1,62.9999980773926,10|6,0:2|1:2,0:2:0:0:
217,66,47779,6,0,B|181:86|181:86|131:80,2,62.9999980773926,8|6|8,0:2|1:2|0:2,0:2:0:0:
320,55,48349,1,2,1:2:0:0:
320,55,48539,1,2,1:2:0:0:
282,148,48728,2,0,P|348:172|407:150,1,125.999996154785,6|0,1:2|1:2,0:2:0:0:
447,134,49203,1,0,1:2:0:0:
447,134,49298,6,0,P|462:193|439:250,1,125.999996154785,4|2,1:2|0:2,0:2:0:0:
341,278,49868,1,0,1:2:0:0:
341,278,50058,2,0,B|252:286|252:286|231:328,1,125.999996154785,10|0,0:2|0:2,0:2:0:0:
154,270,50627,1,14,2:2:0:0:
19,137,51007,6,0,L|8:199,1,62.9999980773926,2|0,1:2|0:2,0:2:0:0:
54,288,51387,1,2,1:2:0:0:
54,288,51577,1,8,0:2:0:0:
154,270,51766,1,2,1:2:0:0:
154,270,51861,1,0,1:2:0:0:
154,270,51956,2,0,L|143:207,1,62.9999980773926,10|2,0:2|1:2,0:2:0:0:
61,139,52336,6,0,P|94:75|157:74,1,125.999996154785,6|0,1:2|1:2,0:2:0:0:
228,131,52906,1,2,0:2:0:0:
228,131,53096,1,2,1:2:0:0:
305,66,53285,1,0,1:2:0:0:
305,66,53475,1,2,1:2:0:0:
379,133,53665,6,0,B|471:116|471:116|508:150,2,125.999996154785,6|6|6,1:2|1:2|1:2,0:2:0:0:
379,133,55374,6,0,P|391:182|378:211,1,77.0000023498536,6|0,1:2|0:2,0:2:0:0:
278,258,55754,2,0,P|265:222|274:185,1,77.0000023498536,10|0,0:2|0:2,0:2:0:0:
191,103,56134,2,0,P|155:90|118:99,1,77.0000023498536,8|0,0:2|1:2,0:2:0:0:
60,199,56514,2,0,P|95:211|132:202,1,77.0000023498536,8|2,0:2|1:2,0:2:0:0:
204,292,56893,6,0,B|211:335|211:335|183:368,2,77.0000023498536,8|2|8,0:2|0:2|0:2,0:2:0:0:
218,176,57463,2,0,P|272:119|350:123,1,154.000004699707,2|2,1:2|1:2,0:2:0:0:
375,142,57937,1,0,1:2:0:0:
375,142,58032,2,0,P|412:141|437:113,1,77.0000023498536,10|2,0:2|1:2,0:2:0:0:
483,219,58412,6,0,L|501:300,1,77.0000023498536,8|2,0:2|0:2,0:2:0:0:
387,263,58792,1,10,0:2:0:0:
387,263,58982,2,0,L|370:338,1,77.0000023498536,2|8,1:2|0:2,0:2:0:0:
264,290,59361,2,0,P|220:303|187:289,2,77.0000023498536,2|10|2,1:2|0:2|1:2,0:2:0:0:
387,263,59931,6,0,P|406:176|365:120,1,154.000004699707,10|8,0:2|0:2,0:2:0:0:
290,42,60501,1,2,1:2:0:0:
233,137,60690,2,0,B|186:142|186:142|155:118,2,77.0000023498536,8|0|8,0:2|1:2|0:2,0:2:0:0:
290,42,61260,1,0,1:2:0:0:
372,125,61450,6,0,L|387:206,1,77.0000023498536,14|0,0:2|0:2,0:2:0:0:
310,288,61830,2,0,L|295:212,1,77.0000023498536,10|0,0:2|0:2,0:2:0:0:
184,245,62209,2,0,L|108:260,1,77.0000023498536,10|0,0:2|1:2,0:2:0:0:
64,152,62589,2,0,L|140:166,1,77.0000023498536,10|2,0:2|1:2,0:2:0:0:
229,88,62969,6,0,B|220:138|220:138|235:165,2,77.0000023498536,8|2|10,0:2|0:2|0:2,0:2:0:0:
318,13,63539,2,0,B|373:-8|407:16|407:16|441:44|488:23,1,154.000004699707,2|2,1:2|1:2,0:2:0:0:
494,54,64013,1,0,1:2:0:0:
494,54,64108,2,0,P|511:103|500:127,1,77.0000023498536,10|2,0:2|1:2,0:2:0:0:
389,153,64488,2,0,P|371:186|380:222,1,77.0000023498536,8|2,0:2|0:2,0:2:0:0:
469,298,64868,1,10,0:2:0:0:
372,354,65058,1,2,1:2:0:0:
372,354,65153,1,0,0:2:0:0:
372,354,65247,6,0,L|274:343,1,77.0000023498536,10|0,0:2|1:2,0:2:0:0:
267,318,65532,2,0,L|190:326,1,77.0000023498536,2|0,0:2|0:2,0:2:0:0:
157,346,65817,5,2,1:2:0:0:
157,346,66007,1,10,0:2:0:0:
75,272,66197,1,2,1:2:0:0:
75,272,66387,1,10,0:2:0:0:
169,206,66577,6,0,P|225:197|278:173,1,115.50000352478,2|0,1:2|0:2,0:2:0:0:
285,149,66956,1,8,0:2:0:0:
285,149,67051,1,8,0:2:0:0:
285,149,67146,2,0,P|303:143|322:141,3,38.5000011749268,8|8|10|8,0:2|0:2|0:2|0:2,0:2:0:0:
353,126,67526,6,0,B|390:190|314:234|365:286,1,154.000004699707,6|12,1:2|0:2,0:2:0:0:
265,345,68096,1,0,1:2:0:0:
265,345,68190,1,8,0:2:0:0:
265,345,68285,2,0,P|220:359|177:343,2,77.0000023498536,2|2|10,1:2|1:2|0:2,0:2:0:0:
355,274,68855,6,0,P|390:260|428:266,1,77.0000023498536,2|0,0:2|1:2,0:2:0:0:
504,178,69235,2,0,P|510:140|496:104,1,77.0000023498536,2|8,1:2|0:2,0:2:0:0:
401,167,69615,1,2,1:2:0:0:
401,167,69709,1,8,0:2:0:0:
401,167,69804,2,0,P|397:148|404:130,2,38.5000011749268,0|8|2,1:2|0:2|1:2,0:2:0:0:
355,273,70184,1,10,0:2:0:0:
280,200,70374,5,2,1:2:0:0:
280,200,70469,1,8,0:2:0:0:
280,200,70564,2,0,P|256:229|219:240,1,77.0000023498536,2|0,1:2|1:2,0:2:0:0:
104,224,70944,1,8,0:2:0:0:
33,146,71134,1,2,1:2:0:0:
33,146,71228,1,8,0:2:0:0:
33,146,71323,2,0,P|57:117|94:106,1,77.0000023498536,0|2,1:2|1:2,0:2:0:0:
205,144,71703,5,10,0:2:0:0:
205,144,71893,1,2,0:2:0:0:
179,31,72083,2,0,L|255:9,2,77.0000023498536,0|2|8,1:2|1:2|0:2,0:2:0:0:
95,107,72653,1,10,0:2:0:0:
205,144,72842,6,0,L|194:181,2,38.5000011749268,0|8|2,1:2|0:2|1:2,0:2:0:0:
313,186,73222,2,0,L|349:175,3,38.5000011749268,0|0|0|0,1:2|1:2|1:2|1:2,0:2:0:0:
293,161,73602,6,0,P|281:121|303:78,1,77.0000023498536,6|0,1:2|0:2,0:2:0:0:
406,66,73982,2,0,P|417:102|405:137,1,77.0000023498536,10|0,0:2|0:2,0:2:0:0:
293,161,74361,2,0,L|207:147,1,77.0000023498536,10|0,0:2|1:2,0:2:0:0:
176,257,74741,2,0,L|251:244,1,77.0000023498536,10|2,0:2|1:2,0:2:0:0:
367,252,75121,6,0,B|410:240|410:240|463:266,2,77.0000023498536,10|2|10,0:2|0:2|0:2,0:2:0:0:
293,161,75690,2,0,B|251:120|327:76|290:12,1,154.000004699707,2|2,1:2|1:2,0:2:0:0:
175,7,76260,1,10,0:2:0:0:
117,110,76450,1,2,1:2:0:0:
117,110,76545,1,0,0:2:0:0:
117,110,76640,6,0,P|67:181|102:245,1,154.000004699707,12|2,0:2|1:2,0:2:0:0:
189,176,77209,1,2,1:2:0:0:
303,192,77399,1,2,1:2:0:0:
371,98,77589,1,0,1:2:0:0:
462,200,77779,1,0,1:2:0:0:
462,200,77874,1,0,1:2:0:0:
462,200,77969,2,0,L|504:192,2,38.5000011749268,2|0|6,1:2|1:2|1:2,0:2:0:0:
462,200,78918,6,0,B|433:205|420:238|420:238|415:203|390:194,2,115.50000352478,2|2|2,0:2|0:2|0:2,0:2:0:0:
464,94,79678,6,0,L|313:77,1,140,6|8,1:2|0:2,0:2:0:0:
231,43,80247,1,0,1:2:0:0:
231,43,80437,2,0,L|216:124,1,70,8|2,0:2|1:2,0:2:0:0:
290,196,80817,1,10,0:2:0:0:
290,196,81007,2,0,B|322:219|322:219|315:333,1,140,6|0,1:2|1:2,0:2:0:0:
210,323,81577,6,0,P|225:279|258:256,2,70,8|0|8,0:2|1:2|0:2,0:2:0:0:
111,349,82146,1,2,1:2:0:0:
111,349,82336,2,0,P|96:305|63:282,1,70,10|2,0:2|1:2,0:2:0:0:
27,198,82716,6,0,L|118:207,1,70,8|0,0:2|1:2,0:2:0:0:
179,139,83096,2,0,L|248:132,1,70,8|0,0:2|0:2,0:2:0:0:
330,198,83475,1,0,1:2:0:0:
405,125,83665,1,8,0:2:0:0:
405,125,83760,1,8,0:2:0:0:
405,125,83855,1,8,0:2:0:0:
465,211,84045,1,0,1:2:0:0:
465,211,84425,5,14,0:2:0:0:
391,286,84615,1,14,0:2:0:0:
330,198,84804,1,14,0:2:0:0:
138,283,85184,5,6,1:2:0:0:
325,29,85754,1,6,1:2:0:0:
256,192,85849,12,0,88855,1:2:0:0:
