osu file format v14

[General]
AudioFilename: audio.mp3
AudioLeadIn: 0
PreviewTime: 66738
Countdown: 0
SampleSet: Soft
StackLeniency: 0.4
Mode: 0
LetterboxInBreaks: 0
WidescreenStoryboard: 0

[Editor]
Bookmarks: 70973,72385
DistanceSpacing: 1
BeatDivisor: 4
GridSize: 4
TimelineZoom: 2.999999

[Metadata]
Title:Umapyoi Densetsu
TitleUnicode:うまぴょい伝説
Artist:Azumi Waki, Marika Kouno, Machico
ArtistUnicode:和氣あず未、高野麻里佳、Machico
Creator:Bariton
Version:Normal
Source:ウマ娘 プリティーダービー
Tags:Uma Musume Pretty Derby starting gate 01 cygames Akihiro Honda Special Week Silence Suzuka Toukai Teioh トウカイテイオー スペシャルウィーク サイレンススズカ 本田晃弘
BeatmapID:1406341
BeatmapSetID:664462

[Difficulty]
HPDrainRate:3.5
CircleSize:3.2
OverallDifficulty:4
ApproachRate:5
SliderMultiplier:1.2
SliderTickRate:1

[Events]
//Background and Video events
0,0,"bg.jpg",0,0
//Break Periods
//Storyboard Layer 0 (Background)
//Storyboard Layer 1 (Fail)
//Storyboard Layer 2 (Pass)
//Storyboard Layer 3 (Foreground)
//Storyboard Sound Samples

[TimingPoints]
20192,352.941176470588,4,2,1,65,1,0
20192,-100,4,2,1,65,0,0
36738,-100,4,2,1,65,0,0
37091,-100,4,2,1,65,0,0
48385,-100,4,2,1,65,0,0
66780,-100,4,2,1,75,0,1
77986,-100,4,2,1,75,0,0
78074,-100,4,2,1,75,0,1
86456,-100,4,2,1,75,0,0
86544,-100,4,2,1,75,0,1
92191,-100,4,2,1,75,0,0

[Colours]
Combo1 : 133,202,228
Combo2 : 250,156,201
Combo3 : 132,132,193
Combo4 : 205,244,132

[HitObjects]
140,140,20192,6,0,B|180:120|180:120|220:116|268:144,1,120,12|2,0:0|0:1,0:0:0:0:
364,184,20897,1,8,0:0:0:0:
364,184,21074,2,0,L|377:242,1,60,0|2,0:0|0:1,0:0:0:0:
392,300,21427,6,0,P|432:312|508:276,2,120,0|2|0,0:0|0:1|0:0,0:0:0:0:
280,256,22486,1,0,0:0:0:0:
280,256,22663,2,0,L|223:274,1,60,2|0,0:1|0:0,0:0:0:0:
164,292,23015,6,0,P|140:236|152:176,1,120,12|2,0:0|0:1,0:0:0:0:
224,84,23721,2,0,P|197:70|167:67,2,60,8|0|2,0:0|0:0|0:1,0:0:0:0:
280,108,24250,1,0,0:0:0:0:
280,108,24427,6,0,L|392:64,1,120,8|2,0:0|0:1,0:0:0:0:
384,184,25133,2,0,L|272:228,1,120,8|2,0:0|0:1,0:0:0:0:
160,192,25839,6,0,P|140:244|156:304,2,120,12|2|8,0:0|0:1|0:0,0:0:0:0:
196,144,26721,1,0,0:0:0:0:
196,144,26897,2,0,P|228:116|240:96,1,60,2|0,0:1|0:0,0:0:0:0:
224,44,27250,6,0,B|284:32|284:32|312:40|336:64,1,120,12|2,0:0|0:1,0:0:0:0:
412,152,27956,2,0,P|420:192|416:224,1,60,8|0,0:0|0:0,0:0:0:0:
372,248,28309,2,0,P|364:288|368:320,1,60,2|0,0:1|0:0,0:0:0:0:
376,368,28662,6,0,P|312:372|268:340,1,120,12|2,0:0|0:1,0:0:0:0:
199,242,29368,2,0,P|135:238|91:270,1,120,8|2,0:0|0:1,0:0:0:0:
52,316,29897,1,0,0:0:0:0:
52,316,30074,6,0,L|20:184,2,120,8|2|8,0:0|0:1|0:0,0:0:0:0:
172,328,31133,1,2,0:1:0:0:
120,220,31486,5,12,0:0:0:0:
232,260,31839,2,0,P|288:268|344:240,1,120,2|8,0:1|0:0,0:0:0:0:
364,184,32368,1,0,0:0:0:0:
364,184,32544,1,2,0:1:0:0:
480,208,32897,6,0,B|468:152|468:152|492:80,1,120,8|2,0:0|0:1,0:0:0:0:
452,44,33427,1,0,0:0:0:0:
452,44,33603,2,0,P|400:72|340:64,1,120,8|2,0:0|0:1,0:0:0:0:
224,36,34309,5,8,0:0:0:0:
164,140,34662,1,2,0:1:0:0:
256,220,35015,2,0,P|280:276|256:344,1,120,8|2,0:0|0:1,0:0:0:0:
208,316,35544,1,0,0:0:0:0:
208,316,35721,6,0,L|84:340,1,120,8|2,0:0|0:1,0:0:0:0:
88,220,36427,2,0,L|212:196,1,120,8|2,0:0|0:1,0:0:0:0:
260,220,36956,1,0,0:0:0:0:
260,220,37133,6,0,P|272:160|248:104,1,120,12|2,0:0|0:1,0:0:0:0:
364,64,37839,2,0,P|352:124|376:180,1,120,8|2,0:0|0:1,0:0:0:0:
404,228,38368,1,0,0:0:0:0:
404,228,38544,6,0,L|364:348,1,120,8|2,0:0|0:1,0:0:0:0:
260,280,39250,2,0,L|146:336,1,120,8|2,0:0|0:1,0:0:0:0:
100,300,39780,1,0,0:0:0:0:
100,300,39956,6,0,P|88:240|112:188,1,120,8|2,0:0|0:1,0:0:0:0:
160,80,40662,2,0,P|210:113|230:167,1,120,8|2,0:0|0:1,0:0:0:0:
224,228,41192,1,0,0:0:0:0:
224,228,41368,6,0,B|280:204|280:204|340:220,1,120,8|2,0:0|0:1,0:0:0:0:
428,300,42074,2,0,B|372:324|372:324|312:308,1,120,8|2,0:0|0:1,0:0:0:0:
204,356,42780,6,0,B|160:348|132:364|132:364|104:320,1,120,8|6,0:0|0:1,0:0:0:0:
80,272,43309,1,0,0:0:0:0:
80,272,43486,2,0,P|60:216|80:160,1,120,8|6,0:0|0:1,0:0:0:0:
128,124,44015,1,0,0:0:0:0:
128,124,44192,6,0,L|260:152,2,120,8|2|8,0:0|0:1|0:0,0:0:0:0:
40,40,45250,1,2,0:1:0:0:
160,44,45603,6,0,L|292:72,1,120,8|2,0:0|0:1,0:0:0:0:
332,48,46133,1,0,0:0:0:0:
332,48,46309,2,0,P|312:104|332:160,1,120,8|2,0:0|0:1,0:0:0:0:
416,248,47015,5,8,0:0:0:0:
116,84,48427,6,0,L|184:92,1,60,12|0,0:0|0:0,0:0:0:0:
228,120,48780,1,2,0:1:0:0:
228,120,48956,2,0,P|288:124|336:84,1,120
440,144,49662,6,0,L|416:268,1,120
404,320,50191,1,2,0:1:0:0:
404,320,50368,2,0,P|348:296|292:308,1,120
240,340,50897,1,8,0:0:0:0:
136,284,51250,6,0,P|120:220|144:172,1,120,8|2,0:0|0:1,0:0:0:0:
184,60,51956,2,0,L|116:76,2,60,8|0|0,0:0|0:0|0:0,0:0:0:0:
244,72,52486,6,0,P|296:100|356:88,1,120
392,136,53015,1,2,0:1:0:0:
424,184,53191,2,0,P|375:217|358:273,1,120
364,332,53721,2,0,L|305:320,1,60
252,348,54073,5,12,0:0:0:0:
176,256,54427,1,2,0:1:0:0:
280,192,54780,2,0,P|304:136|284:80,1,120
172,120,55486,6,0,P|140:120|99:100,1,60,12|0,0:0|0:0,0:0:0:0:
72,68,55839,2,0,L|92:192,1,120,2|0,0:1|0:0,0:0:0:0:
112,304,56544,1,0,0:0:0:0:
228,272,56897,6,0,P|260:264|296:268,1,60,12|8,0:0|0:0,0:0:0:0:
340,292,57250,1,2,0:1:0:0:
340,292,57427,2,0,B|392:308|392:308|472:276,1,120,4|0,0:0|0:0,0:0:0:0:
388,184,58133,6,0,P|376:128|408:72,1,120,4|0,0:0|0:0,0:0:0:0:
452,40,58662,1,2,0:1:0:0:
452,40,58839,2,0,L|328:60,1,120,4|0,0:0|0:0,0:0:0:0:
236,128,59544,6,0,L|112:108,1,120,4|0,0:0|0:0,0:0:0:0:
68,76,60074,1,2,0:1:0:0:
68,76,60250,2,0,P|80:116|36:196,1,120,4|0,0:0|0:0,0:0:0:0:
120,284,60956,6,0,B|164:300|164:300|192:272|240:276,1,120,4|0,0:0|0:0,0:0:0:0:
284,304,61486,1,2,0:1:0:0:
284,304,61662,2,0,B|328:324|328:324|364:308|376:268,1,120,4|0,0:0|0:0,0:0:0:0:
344,220,62191,2,0,P|344:180|360:144,1,60,8|4,0:0|0:0,0:0:0:0:
256,192,62456,12,2,65368,0:0:0:0:
96,56,66780,5,12,0:0:0:0:
148,164,67133,2,0,P|192:200|256:200,1,120,2|8,0:1|0:0,0:0:0:0:
300,164,67662,2,0,L|272:292,1,120,2|0,0:1|0:0,0:0:0:0:
260,340,68191,6,0,P|312:304|372:304,1,120,8|2,0:0|0:1,0:0:0:0:
444,212,68897,1,8,0:0:0:0:
444,212,69074,2,0,L|424:148,1,60,0|2,0:0|0:1,0:0:0:0:
384,44,69603,5,12,0:0:0:0:
296,124,69956,2,0,P|244:152|180:144,1,120,2|8,0:1|0:0,0:0:0:0:
140,104,70486,2,0,B|116:176|116:176|128:228,1,120,2|0,0:1|0:0,0:0:0:0:
148,276,71015,6,0,L|272:252,1,120,12|2,0:0|0:1,0:0:0:0:
372,312,71721,2,0,P|392:256|376:200,2,120,12|2|12,0:0|0:1|0:0,0:0:0:0:
265,253,72780,6,0,P|245:197|261:141,1,120,2|8,0:1|0:0,0:0:0:0:
296,92,73309,1,0,0:0:0:0:
296,92,73486,2,0,L|160:112,1,120,2|8,0:1|0:0,0:0:0:0:
104,204,74191,6,0,L|240:184,1,120,2|8,0:1|0:0,0:0:0:0:
276,220,74721,1,0,0:0:0:0:
276,220,74897,2,0,P|336:228|388:196,1,120,2|8,0:1|0:0,0:0:0:0:
368,80,75603,6,0,P|308:72|256:104,1,120,2|8,0:1|0:0,0:0:0:0:
224,152,76133,2,0,P|188:152|144:132,2,60,0|2|0,0:0|0:1|0:0,0:0:0:0:
264,196,76662,6,0,P|300:244|296:304,1,120,12|2,0:0|0:1,0:0:0:0:
176,320,77368,2,0,P|140:272|144:212,1,120,12|2,0:0|0:1,0:0:0:0:
156,156,77897,1,0,0:0:0:0:
156,156,78074,5,12,0:0:0:0:
204,48,78427,2,0,P|260:28|324:48,1,120,2|8,0:1|0:0,0:0:0:0:
352,92,78956,2,0,B|384:132|384:132|384:168|368:204,1,120,2|0,0:1|0:0,0:0:0:0:
340,252,79486,6,0,L|464:232,2,120,8|2|8,0:0|0:1|0:0,0:0:0:0:
296,292,80368,2,0,L|228:304,1,60,0|2,0:0|0:1,0:0:0:0:
116,312,80897,5,12,0:0:0:0:
196,220,81250,2,0,P|212:164|192:108,1,120,2|8,0:1|0:0,0:0:0:0:
160,56,81780,2,0,L|292:96,1,120,2|0,0:1|0:0,0:0:0:0:
332,80,82309,6,0,P|384:60|448:76,1,120,12|2,0:0|0:1,0:0:0:0:
500,180,83015,2,0,P|448:200|384:184,1,120,12|2,0:0|0:1,0:0:0:0:
308,280,83721,6,0,P|264:318|203:320,1,120,12|2,0:0|0:1,0:0:0:0:
164,276,84250,1,0,0:0:0:0:
164,276,84427,2,0,B|108:264|108:264|32:284,1,120,8|2,0:0|0:1,0:0:0:0:
88,168,85133,6,0,P|68:116|84:52,1,120,12|2,0:0|0:1,0:0:0:0:
140,36,85662,1,0,0:0:0:0:
140,36,85839,2,0,L|264:64,1,120,8|2,0:0|0:1,0:0:0:0:
340,148,86544,6,0,P|364:200|352:260,2,120,8|2|8,0:0|0:1|0:0,0:0:0:0:
236,204,87603,1,2,0:1:0:0:
236,204,87780,6,0,B|188:224|188:224|112:196,1,120
72,172,88309,2,0,P|68:212|60:236,1,60,2|0,0:1|0:0,0:0:0:0:
40,288,88662,2,0,P|96:276|160:312,1,120,8|2,0:0|0:1,0:0:0:0:
268,320,89368,6,0,P|316:284|380:284,1,120,12|2,0:0|0:1,0:0:0:0:
420,320,89897,1,0,0:0:0:0:
420,320,90074,2,0,L|440:188,1,120,12|2,0:0|0:1,0:0:0:0:
424,144,90603,1,0,0:0:0:0:
424,144,90780,6,0,P|360:152|312:124,1,120,12|2,0:0|0:1,0:0:0:0:
272,84,91309,1,0,0:0:0:0:
272,84,91486,6,0,P|220:160|220:68,1,240,8|4,0:0|0:0,0:0:0:0:
