osu file format v14

[General]
AudioFilename: audio.mp3
AudioLeadIn: 0
PreviewTime: 66738
Countdown: 0
SampleSet: Soft
StackLeniency: 0.3
Mode: 0
LetterboxInBreaks: 0
WidescreenStoryboard: 0

[Editor]
Bookmarks: 70973,72385
DistanceSpacing: 1.4
BeatDivisor: 4
GridSize: 4
TimelineZoom: 3.099999

[Metadata]
Title:Umapyoi Densetsu
TitleUnicode:うまぴょい伝説
Artist:Azumi Waki, Marika Kouno, Machico
ArtistUnicode:和氣あず未、高野麻里佳、Machico
Creator:Bariton
Version:Insane
Source:ウマ娘 プリティーダービー
Tags:Uma Musume Pretty Derby starting gate 01 cygames Akihiro Honda Special Week Silence Suzuka Toukai Teioh トウカイテイオー スペシャルウィーク サイレンススズカ 本田晃弘
BeatmapID:1406340
BeatmapSetID:664462

[Difficulty]
HPDrainRate:6
CircleSize:4
OverallDifficulty:8
ApproachRate:9
SliderMultiplier:1.7
SliderTickRate:1

[Events]
//Background and Video events
0,0,"bg.jpg",0,0
//Break Periods
//Storyboard Layer 0 (Background)
//Storyboard Layer 1 (Fail)
//Storyboard Layer 2 (Pass)
//Storyboard Layer 3 (Foreground)
//Storyboard Sound Samples

[TimingPoints]
20192,352.941176470588,4,2,1,65,1,0
20192,-100,4,2,1,65,0,0
36770,-133.333333333333,4,2,1,65,0,0
36956,-133.333333333333,4,3,0,65,0,0
37044,-133.333333333333,4,2,1,65,0,0
37123,-100,4,2,1,65,0,0
48417,-100,4,2,1,65,0,0
62191,-200,4,2,1,65,0,0
62502,-153.846153846153,4,2,1,65,0,0
62855,-133.333333333333,4,2,1,65,0,0
63208,-117.647058823529,4,2,1,65,0,0
63561,-105.263157894737,4,2,1,65,0,0
63914,-100,4,2,1,65,0,0
64267,-90.9090909090909,4,2,1,65,0,0
64620,-83.3333333333333,4,2,1,65,0,0
64973,-76.9230769230769,4,2,1,65,0,0
66385,-133.333333333333,4,2,1,65,0,0
66780,-83.3333333333333,4,2,1,75,0,1
69208,-62.5,4,2,1,75,0,1
69561,-83.3333333333333,4,2,1,75,0,1
70973,-71.4285714285714,4,2,1,75,0,1
71326,-83.3333333333333,4,2,1,75,0,1
71679,-100,4,2,1,75,0,1
72032,-133.333333333333,4,2,1,75,0,1
72385,-83.3333333333333,4,2,1,75,0,1
76620,-71.4285714285714,4,2,1,75,0,1
76973,-83.3333333333333,4,2,1,75,0,1
77326,-100,4,2,1,75,0,1
77679,-133.333333333333,4,2,1,75,0,1
77986,-133.333333333333,4,2,1,75,0,0
78074,-83.3333333333333,4,2,1,75,0,1
80502,-71.4285714285714,4,2,1,75,0,1
80855,-83.3333333333333,4,2,1,75,0,1
82267,-71.4285714285714,4,2,1,75,0,1
82620,-83.3333333333333,4,2,1,75,0,1
82973,-100,4,2,1,75,0,1
83326,-133.333333333333,4,2,1,75,0,1
83679,-83.3333333333333,4,2,1,75,0,1
86456,-100,4,2,1,75,0,0
86544,-83.3333333333333,4,2,1,75,0,1
89280,-83.3333333333333,4,2,1,75,0,0
89368,-83.3333333333333,4,2,1,75,0,1
92191,-100,4,2,1,75,0,0

[Colours]
Combo1 : 133,202,228
Combo2 : 250,156,201
Combo3 : 132,132,193
Combo4 : 205,244,132

[HitObjects]
128,188,20192,6,0,P|208:212|276:168,2,170,12|2|8,0:0|0:1|0:0,0:0:0:0:
48,100,21074,1,0,0:0:0:0:
208,36,21250,2,0,P|209:86|167:141,1,85,2|0,0:1|0:0,0:0:0:0:
120,308,21603,6,0,P|83:273|73:205,1,85,8|0,0:0|0:0,0:0:0:0:
249,200,21956,1,2,0:1:0:0:
120,308,22133,1,0,0:0:0:0:
249,200,22309,2,0,P|292:225|316:289,1,85,8|0,0:0|0:0,0:0:0:0:
310,254,22574,1,0,0:0:0:0:
310,254,22662,1,2,0:1:0:0:
120,308,22839,1,0,0:0:0:0:
311,255,23015,6,0,P|355:279|423:267,1,85,8|0,0:0|0:0,0:0:0:0:
472,192,23368,1,2,0:1:0:0:
360,76,23544,1,0,0:0:0:0:
268,186,23721,2,0,P|283:228|312:256,1,85,8|0,2:0|2:0,2:0:0:0:
280,104,24074,2,0,P|264:146|268:187,1,85,2|0,2:1|2:0,2:0:0:0:
208,40,24427,5,8,0:0:0:0:
348,156,24603,1,0,0:0:0:0:
132,96,24780,2,0,L|48:124,1,85,2|0,0:1|0:0,0:0:0:0:
296,32,25133,5,8,0:0:0:0:
132,96,25309,1,0,0:0:0:0:
348,156,25486,2,0,L|432:184,1,85,2|0,0:1|0:0,0:0:0:0:
212,264,25839,6,0,P|132:268|80:200,2,170,4|2|0,0:0|0:1|0:0,0:0:0:0:
332,160,26721,5,2,0:0:0:0:
332,160,26809,1,0,0:0:0:0:
332,160,26897,1,2,0:1:0:0:
216,104,27074,1,0,0:0:0:0:
304,240,27250,6,0,B|364:252|400:208|400:208|436:216|468:192,1,170,8|2,0:0|0:1,0:0:0:0:
242,184,27780,1,0,0:0:0:0:
416,132,27956,2,0,P|390:96|355:77,1,85,8|0,2:0|2:0,2:0:0:0:
242,184,28309,2,0,P|268:220|303:239,1,85,2|0,2:1|2:0,2:0:0:0:
124,112,28662,5,10,0:0:0:0:
180,296,28839,1,0,0:0:0:0:
164,196,29015,1,2,0:1:0:0:
104,352,29192,1,0,0:0:0:0:
264,292,29368,6,0,L|160:296,1,85,10|0,0:0|0:0,0:0:0:0:
348,288,29721,2,0,L|244:292,1,85,2|0,0:1|0:0,0:0:0:0:
420,352,30074,6,0,P|388:296|404:232,1,127.5,8|0,0:0|0:0,0:0:0:0:
452,176,30427,2,0,L|320:192,1,127.5,2|0,0:1|0:0,0:0:0:0:
252,200,30780,1,8,0:0:0:0:
296,40,30956,1,0,0:0:0:0:
152,140,31133,1,8,0:3:0:0:
152,140,31221,1,8,0:3:0:0:
152,140,31309,2,8,P|177:137|203:126,1,42.5,8|8,0:3|0:3,0:3:0:0:
296,40,31486,6,0,L|208:56,1,85,12|0,0:0|0:0,0:0:0:0:
144,36,31750,1,0,0:0:0:0:
144,36,31839,2,0,L|56:52,1,85,2|0,0:1|0:0,0:0:0:0:
12,104,32103,1,0,0:0:0:0:
12,104,32192,2,0,P|10:149|26:186,1,85,8|0,2:0|2:0,2:0:0:0:
152,264,32544,1,2,0:1:0:0:
96,132,32721,1,12,0:0:0:0:
152,264,32897,5,8,0:0:0:0:
193,263,32985,1,0,0:0:0:0:
231,247,33073,1,0,0:0:0:0:
261,217,33161,1,0,0:0:0:0:
277,177,33250,2,0,L|284:232,1,42.5,2|0,0:1|0:0,0:0:0:0:
296,312,33427,1,0,0:0:0:0:
296,312,33515,1,0,0:0:0:0:
296,312,33603,5,12,0:0:0:0:
372,196,33780,1,0,0:0:0:0:
416,332,33956,5,6,0:1:0:0:
277,177,34133,1,0,0:0:0:0:
456,168,34309,6,0,P|458:213|442:250,1,85,8|0,2:0|2:0,2:0:0:0:
372,196,34574,1,0,0:0:0:0:
372,196,34662,1,2,0:1:0:0:
404,96,34839,1,0,0:0:0:0:
214,185,35015,2,0,P|259:187|296:171,1,85,8|0,2:0|2:0,2:0:0:0:
308,48,35368,1,2,0:1:0:0:
214,185,35544,1,0,0:0:0:0:
132,116,35721,6,0,P|92:131|64:162,1,85,8|0,2:0|2:0,2:0:0:0:
208,80,36074,2,0,P|177:46|140:31,1,85,2|0,2:1|2:0,2:0:0:0:
132,196,36427,2,0,P|124:224|124:248,1,42.5,8|0,0:0|0:0,0:0:0:0:
208,248,36603,2,0,P|216:276|216:300,1,42.5
192,380,36780,1,2,0:1:0:0:
219,363,36868,1,8,0:3:0:0:
249,355,36956,1,8,0:3:0:0:
281,357,37044,1,8,0:3:0:0:
311,369,37133,6,0,L|336:280,1,85,8|0,0:0|0:0,0:0:0:0:
388,204,37397,1,0,0:0:0:0:
388,204,37486,2,0,P|416:196|440:196,1,42.5,2|0,0:1|0:0,0:0:0:0:
264,192,37662,2,0,P|236:200|212:200,1,42.5
148,136,37839,2,0,P|101:142|68:164,1,85,8|0,2:0|2:0,2:0:0:0:
264,192,38192,1,2,0:1:0:0:
428,32,38368,1,4,0:0:0:0:
259,83,38544,6,0,L|351:67,1,85,8|0,0:0|0:0,0:0:0:0:
488,112,38897,2,0,P|464:120|436:140,3,42.5,2|0|0|0,0:1|0:0|0:0|0:0,0:0:0:0:
380,188,39250,2,0,P|356:180|328:160,3,42.5,8|0|0|0,0:0|0:0|0:0|0:0,0:0:0:0:
500,188,39603,1,2,0:1:0:0:
391,41,39780,1,4,0:0:0:0:
396,264,39956,6,0,P|438:285|477:285,1,85,8|0,2:0|2:0,2:0:0:0:
336,324,40309,1,2,0:1:0:0:
300,301,40397,1,0,0:0:0:0:
258,292,40485,1,0,0:0:0:0:
216,296,40573,1,0,0:0:0:0:
178,314,40662,6,0,P|199:272|199:233,1,85,12|0,2:0|2:0,2:0:0:0:
78,184,41015,2,0,P|92:228|120:256,1,85,6|0,2:1|2:0,2:0:0:0:
192,48,41368,5,8,0:0:0:0:
176,56,41456,1,0,0:0:0:0:
160,64,41544,1,0,0:0:0:0:
144,72,41632,1,0,0:0:0:0:
132,80,41720,1,2,0:1:0:0:
78,184,41897,1,0,0:0:0:0:
320,100,42074,6,0,P|348:108|376:120,1,42.5,8|0,0:0|0:0,0:0:0:0:
400,184,42250,2,0,P|428:176|456:164,1,42.5,8|0,0:0|0:0,0:0:0:0:
416,56,42427,1,2,0:1:0:0:
416,56,42515,1,0,0:0:0:0:
416,56,42603,1,0,0:0:0:0:
208,120,42780,6,0,P|172:96|159:91,1,42.5,8|0,0:0|0:0,0:0:0:0:
176,200,42956,2,0,P|140:224|127:228,1,42.5
248,44,43132,5,4,0:0:0:0:
300,248,43309,1,2,0:2:0:0:
392,112,43486,6,0,P|428:88|441:83,1,42.5,8|0,0:0|0:0,0:0:0:0:
377,193,43662,2,0,P|413:217|426:221,1,42.5
332,48,43838,5,4,0:0:0:0:
300,248,44015,1,2,0:2:0:0:
428,292,44192,6,0,P|396:320|356:332,1,85,8|0,2:0|2:0,2:0:0:0:
260,320,44456,1,0,0:0:0:0:
244,308,44544,2,0,P|223:270|221:228,1,85,2|0,0:1|2:0,2:0:0:0:
304,112,44897,6,0,L|292:64,1,42.5,8|0,0:0|0:0,0:0:0:0:
396,184,45074,2,0,L|340:176,1,42.5,0|0,0:0|0:1,0:0:0:0:
224,120,45250,1,2,0:1:0:0:
192,144,45339,1,0,0:0:0:0:
152,158,45427,1,0,0:0:0:0:
110,156,45515,1,0,0:0:0:0:
72,138,45603,6,0,P|80:192|76:208,2,42.5,8|0|0,0:0|0:0|0:0,0:0:0:0:
16,288,45956,1,6,0:1:0:0:
72,138,46133,1,0,0:0:0:0:
192,158,46309,6,0,P|184:212|188:228,2,42.5,8|0|0,0:0|0:0|0:0,0:0:0:0:
260,292,46662,1,6,0:1:0:0:
192,158,46839,1,0,0:0:0:0:
260,292,47015,5,8,0:0:0:0:
183,127,48427,6,0,P|219:147|263:147,1,85,12|0,0:0|0:0,0:0:0:0:
128,40,48780,1,2,0:1:0:0:
113,172,48956,2,0,P|193:192|265:144,1,170
324,44,49486,1,2,0:1:0:0:
400,176,49662,2,0,B|432:248|392:300|392:300|368:276|376:240,1,170
324,128,50191,5,2,0:1:0:0:
252,255,50368,2,0,B|308:305|374:266|374:266|392:304,1,170,8|8,0:0|0:3,0:0:0:0:
389,299,50809,1,8,0:3:0:0:
389,299,50897,1,2,0:1:0:0:
232,168,51074,1,8,0:0:0:0:
176,309,51250,5,12,0:0:0:0:
232,168,51427,1,0,0:0:0:0:
124,220,51603,2,0,P|87:200|64:162,1,85,2|0,0:1|0:0,0:0:0:0:
233,251,51956,2,0,P|213:287|175:310,1,85,8|0,0:0|0:0,0:0:0:0:
64,164,52309,1,2,0:1:0:0:
232,168,52486,6,0,P|236:248|174:310,1,170
148,128,53015,1,2,0:1:0:0:
232,252,53191,2,0,B|260:288|316:292|344:264|344:264|376:268|396:296,1,170
383,281,53633,1,0,0:0:0:0:
383,281,53721,1,2,0:1:0:0:
512,216,53897,1,8,0:0:0:0:
400,111,54074,6,0,L|380:299,1,170,12|2,0:0|0:1,0:0:0:0:
512,216,54603,1,0,0:0:0:0:
368,48,54780,1,8,0:0:0:0:
496,116,54956,1,0,0:0:0:0:
245,153,55133,2,0,P|286:149|322:123,1,85,2|0,0:1|0:0,0:0:0:0:
168,80,55486,5,12,0:0:0:0:
245,153,55662,1,0,0:0:0:0:
168,80,55839,2,0,P|127:84|91:110,1,85,2|0,0:1|0:0,0:0:0:0:
80,124,56103,1,0,0:0:0:0:
72,140,56191,1,8,0:0:0:0:
231,233,56368,2,8,P|248:195|244:151,1,85,8|2,0:0|0:1,0:0:0:0:
168,80,56721,1,8,0:0:0:0:
164,280,56897,6,0,P|202:266|231:232,1,85,4|0,0:0|0:0,0:0:0:0:
76,272,57250,1,2,0:1:0:0:
230,232,57427,2,0,P|274:260|386:228,1,170,12|0,0:0|0:0,0:0:0:0:
381,232,57956,1,2,0:1:0:0:
346,77,58133,6,0,B|354:97|370:113|370:113|387:155|366:193|366:193|383:211|382:245,1,170,12|0,0:0|0:0,0:0:0:0:
381,232,58662,1,2,0:1:0:0:
424,36,58839,2,0,B|396:84|348:80|348:80|328:60|296:52|260:64,1,170,12|0,0:0|0:0,0:0:0:0:
277,59,59368,1,2,0:1:0:0:
298,191,59544,6,0,P|330:111|274:59,1,170,12|0,0:0|0:0,0:0:0:0:
276,59,60074,1,2,0:1:0:0:
178,108,60250,2,0,P|146:188|202:240,1,170,12|0,0:0|0:0,0:0:0:0:
199,239,60780,1,2,0:1:0:0:
252,60,60956,6,0,L|80:89,1,170,12|0,0:0|0:0,0:0:0:0:
84,88,61486,1,2,0:1:0:0:
288,144,61662,2,0,P|324:116|308:-4,1,170,4|0,0:0|0:0,0:0:0:0:
372,124,62191,2,0,P|400:144|424:152,1,42.5,0|4,0:0|0:0,0:0:0:0:
388,268,62544,6,0,P|436:280|452:280,1,55.2499974708558,2|0,0:2|0:0,0:0:0:0:
352,288,62897,6,0,P|400:280|424:268,1,63.7500024318696,2|0,0:2|0:0,0:0:0:0:
320,264,63250,6,0,P|364:276|400:272,1,72.2500013780594,2|0,0:2|0:0,0:0:0:0:
288,300,63603,6,0,P|336:296|368:280,1,80.7499978437424,2|0,0:2|0:0,0:0:0:0:
248,264,63956,6,0,P|292:284|332:284,1,85,2|0,0:2|0:0,0:0:0:0:
208,312,64309,6,0,P|261:303|306:277,1,93.5000028533936,2|0,0:2|0:0,0:0:0:0:
164,264,64662,6,0,P|224:288|284:280,1,101.999996887207,2|0,0:2|0:0,0:0:0:0:
113,309,65015,6,0,P|155:318|228:300,1,110.499994941712,2|0,0:2|0:0,0:0:0:0:
88,224,65368,5,4,0:0:0:0:
88,224,66427,2,0,L|112:128,1,95.6250036478044
128,60,66780,5,4,0:0:0:0:
232,156,66956,1,0,0:0:0:0:
268,44,67133,2,0,L|244:152,1,101.999996887207,2|0,0:1|0:0,0:0:0:0:
328,248,67486,1,8,0:0:0:0:
288,356,67662,2,0,L|312:248,1,101.999996887207,0|2,0:0|0:1,0:0:0:0:
340,112,68015,1,0,0:0:0:0:
192,264,68191,6,0,P|152:278|92:264,1,101.999996887207,8|0,0:0|0:0,0:0:0:0:
258,180,68544,2,0,P|295:198|328:250,1,101.999996887207,2|0,0:1|0:0,0:0:0:0:
143,200,68897,1,8,0:0:0:0:
256,96,69074,1,0,0:0:0:0:
84,148,69250,22,0,B|128:224|220:204|220:204|212:180|168:160,1,204,2|0,0:1|0:0,0:1:0:0:
258,180,69603,1,12,0:0:0:0:
288,336,69780,1,0,0:0:0:0:
258,180,69956,6,0,P|295:198|328:250,1,101.999996887207,2|0,0:1|0:0,0:1:0:0:
144,200,70309,1,8,0:0:0:0:
304,184,70486,2,0,P|329:216|336:277,1,101.999996887207,0|2,0:1|0:1,0:1:0:0:
168,80,70839,1,0,0:0:0:0:
168,80,70927,1,0,0:0:0:0:
168,80,71015,6,0,P|220:96|288:8,1,178.499994552612,12|0,0:0|0:0,0:0:0:0:
316,76,71368,2,0,B|352:116|352:116|408:128|452:72,1,152.999995330811,2|0,0:1|0:0,0:0:0:0:
484,28,71721,6,0,L|456:156,1,127.5,12|0,0:0|0:0,0:0:0:0:
400,204,72075,2,0,L|411:266,1,63.7500024318696,2|0,0:1|0:0,0:0:0:0:
411,266,72339,1,0,0:0:0:0:
411,266,72427,5,12,0:0:0:0:
312,312,72603,2,0,P|263:326|215:313,1,101.999996887207,0|2,0:1|0:1,0:1:0:0:
304,220,72956,1,0,0:0:0:0:
304,220,73044,1,0,0:0:0:0:
304,220,73133,1,8,0:0:0:0:
312,312,73309,1,0,0:0:0:0:
151,265,73486,1,2,0:1:0:0:
199,185,73662,1,0,0:0:0:0:
216,312,73839,6,0,P|176:340|120:340,1,101.999996887207,8|0,0:0|0:0,0:0:0:0:
199,185,74191,2,0,P|150:176|111:136,1,101.999996887207,2|0,0:1|0:0,0:0:0:0:
113,140,74456,1,0,0:0:0:0:
113,140,74544,1,8,0:0:0:0:
280,136,74721,1,0,0:0:0:0:
164,48,74897,1,2,0:1:0:0:
199,185,75074,1,0,0:0:0:0:
248,60,75250,6,0,B|328:40|376:100|376:100|376:132|352:164,2,203.999993774414,8|2|0,0:0|0:1|0:0,0:0:0:0:
120,148,76133,1,0,0:0:0:0:
219,291,76310,2,0,P|268:284|306:251,1,101.999996887207,2|0,0:1|0:0,0:0:0:0:
156,252,76662,6,0,P|228:292|308:248,1,178.499994552612,12|0,0:0|0:0,0:0:0:0:
344,192,77015,2,0,L|312:348,1,152.999995330811,2|0,0:1|0:0,0:0:0:0:
232,208,77368,6,0,P|220:156|260:92,1,127.5,12|0,0:0|0:0,0:0:0:0:
312,123,77721,2,0,L|243:88,1,63.7500024318696,2|0,0:1|0:0,0:0:0:0:
255,94,77986,1,0,0:0:0:0:
255,94,78074,5,12,0:0:0:0:
428,196,78250,1,0,0:0:0:0:
428,196,78427,2,0,P|448:140|436:92,1,101.999996887207,2|0,0:1|0:0,0:0:0:0:
252,184,78780,1,8,0:0:0:0:
351,256,78956,2,0,P|404:230|430:188,1,101.999996887207,0|2,0:0|0:1,0:0:0:0:
264,272,79309,1,0,0:0:0:0:
292,104,79486,5,8,0:0:0:0:
164,240,79662,1,0,0:0:0:0:
204,96,79839,1,2,0:1:0:0:
264,272,80015,1,0,0:0:0:0:
204,96,80191,2,0,P|152:72|100:80,1,101.999996887207,8|0,0:0|0:0,0:0:0:0:
240,176,80544,22,0,P|308:192|380:120,1,178.499994552612,2|0,0:1|0:0,0:0:0:0:
352,56,80897,1,12,0:0:0:0:
460,144,81074,1,0,0:0:0:0:
388,260,81250,6,0,P|342:230|323:181,1,101.999996887207,2|0,0:1|0:0,0:0:0:0:
460,144,81603,1,8,0:0:0:0:
464,296,81780,2,0,P|425:334|373:344,1,101.999996887207,0|2,0:0|0:1,0:0:0:0:
208,232,82133,1,0,0:0:0:0:
208,232,82221,1,0,0:0:0:0:
208,232,82309,22,0,P|171:291|69:291,1,178.499994552612,12|0,0:0|0:0,0:0:0:0:
63,311,82662,2,0,P|80:232|28:184,1,152.999995330811,2|0,0:1|0:0,0:0:0:0:
144,149,83015,6,0,P|89:190|8:169,1,127.5,12|0,0:0|0:0,0:0:0:0:
120,91,83368,2,0,P|128:127|162:161,1,63.7500024318696,2|0,0:1|0:0,0:0:0:0:
143,148,83633,1,0,0:0:0:0:
143,148,83721,5,12,0:0:0:0:
288,108,83897,2,0,P|293:54|270:7,1,101.999996887207,0|2,0:0|0:1,0:0:0:0:
240,196,84250,1,0,0:0:0:0:
240,196,84427,2,0,P|309:196|381:88,1,203.999993774414,8|2,0:0|0:1,0:0:0:0:
216,68,84956,1,0,0:0:0:0:
381,93,85133,5,8,0:0:0:0:
273,267,85309,1,0,0:0:0:0:
428,244,85486,1,2,0:1:0:0:
288,108,85662,1,0,0:0:0:0:
396,320,85839,2,0,P|448:320|492:296,1,101.999996887207,0|0,0:2|0:0,0:0:0:0:
324,184,86191,2,0,P|287:220|273:268,1,101.999996887207,2|0,0:1|0:0,0:0:0:0:
272,284,86456,1,0,0:0:0:0:
276,296,86544,5,12,0:0:0:0:
204,100,86721,1,0,0:0:0:0:
200,336,86897,5,2,0:1:0:0:
288,108,87074,1,0,0:0:0:0:
348,276,87250,2,0,P|392:304|448:300,1,101.999996887207,8|0,0:0|0:0,0:0:0:0:
288,108,87603,1,2,0:1:0:0:
348,276,87780,6,0,P|408:268|344:196,1,203.999993774414
184,296,88309,1,2,0:1:0:0:
132,164,88486,1,0,0:0:0:0:
248,240,88662,2,0,P|268:285|259:335,1,101.999996887207,8|0,0:0|0:0,0:0:0:0:
104,248,89015,1,2,0:1:0:0:
216,128,89191,5,0,0:0:0:0:
216,128,89280,1,0,0:0:0:0:
216,128,89368,5,12,0:0:0:0:
148,320,89544,1,0,0:0:0:0:
72,160,89721,1,2,0:1:0:0:
232,268,89897,1,0,0:0:0:0:
232,268,89986,1,0,0:0:0:0:
232,268,90074,5,12,0:0:0:0:
276,72,90250,2,0,P|228:48|176:56,1,101.999996887207,0|2,0:0|0:1,0:0:0:0:
324,224,90603,1,0,0:0:0:0:
324,224,90691,1,0,0:0:0:0:
324,224,90780,5,12,0:0:0:0:
156,312,90956,2,0,P|204:348|252:352,1,101.999996887207,0|2,0:0|0:1,0:0:0:0:
176,192,91309,1,8,0:0:0:0:
180,200,91397,1,0,0:0:0:0:
184,208,91486,5,8,0:0:0:0:
209,250,91574,1,0,0:0:0:0:
257,266,91662,1,8,0:0:0:0:
303,246,91750,1,0,0:0:0:0:
325,201,91838,1,2,0:1:0:0:
312,153,91927,1,0,0:0:0:0:
271,125,92015,1,8,0:0:0:0:
221,131,92103,1,0,0:0:0:0:
187,168,92191,5,4,0:0:0:0:
