osu file format v14

[General]
AudioFilename: audio.ogg
AudioLeadIn: 0
PreviewTime: 50632
Countdown: 0
SampleSet: Soft
StackLeniency: 0.3
Mode: 0
LetterboxInBreaks: 0
WidescreenStoryboard: 0

[Editor]
Bookmarks: 99906
DistanceSpacing: 1.8
BeatDivisor: 4
GridSize: 32
TimelineZoom: 1

[Metadata]
Title:Full Moon Full Life -Opening Movie version-
TitleUnicode:Full Moon Full Life -Opening Movie version-
Artist:Azumi Takahashi feat. Lotus Juice
ArtistUnicode:高橋あず美 feat. Lotus Juice
Creator:Nyukai
Version:SupaV's Hard
Source:ペルソナ3 リロード
Tags:atsushi kitajo 喜多條敦志 atlus sega persona 3 reload p3 spinoff spin-off shin megami tensei rpg jrpg j-rpg ペルソナ video game videogame opening remake kanui supav freezinganimenz sotarks rap english pop
BeatmapID:4449992
BeatmapSetID:2118662

[Difficulty]
HPDrainRate:4
CircleSize:3.6
OverallDifficulty:6
ApproachRate:8
SliderMultiplier:1.38
SliderTickRate:1

[Events]
//Background and Video events
0,0,"background.jpg",0,0
Video,45,"persona.avi"
//Break Periods
//Storyboard Layer 0 (Background)
//Storyboard Layer 1 (Fail)
//Storyboard Layer 2 (Pass)
//Storyboard Layer 3 (Foreground)
//Storyboard Layer 4 (Overlay)
//Storyboard Sound Samples

[TimingPoints]
1513,310.880829015544,4,2,2,50,1,0
1513,-125,4,2,2,50,0,0
10528,-111.111111111111,4,2,2,50,0,0
11461,-111.111111111111,4,2,2,60,0,0
20165,-142.857142857143,4,2,1,60,0,0
21331,-111.111111111111,4,2,1,5,0,0
21409,-125,4,2,2,60,0,0
39751,-125,4,2,1,70,0,0
41150,-100,4,2,1,70,0,0
51253,-86.9565217391304,4,2,1,80,0,0
91046,-125,4,2,2,60,0,0
93533,-125,4,2,2,50,0,0

[Colours]
Combo1 : 173,191,233
Combo2 : 236,168,199

[HitObjects]
326,3,1513,6,0,P|318:55|310:119,1,110.4,2|8,3:2|0:0,0:0:0:0:
236,161,1979,2,0,P|229:106|220:51,1,110.4,2|2,3:2|0:0,0:0:0:0:
143,7,2445,2,0,P|115:2|88:-1,1,55.2,8|0,0:0|3:0,0:0:0:0:
19,54,2756,1,0,3:0:0:0:
1,229,3067,2,0,P|49:257|113:238,1,110.4,10|0,0:0|0:0,0:0:0:0:
177,202,3533,1,2,0:0:0:0:
329,110,3844,1,0,3:0:0:0:
329,110,4000,6,0,P|383:118|438:125,1,110.4,2|8,3:2|0:0,0:0:0:0:
483,201,4466,2,0,P|428:207|373:216,1,110.4,2|2,3:2|0:0,0:0:0:0:
298,263,4932,2,0,P|294:294|290:331,1,55.2,8|0,0:0|3:0,0:0:0:0:
354,379,5243,1,0,3:0:0:0:
508,292,5554,2,0,P|525:262|504:181,1,110.4,10|2,0:0|0:0,0:0:0:0:
449,128,6020,1,2,0:0:0:0:
375,174,6176,1,10,0:0:0:0:
375,174,6331,6,0,P|320:168|254:162,1,110.4,2|0,0:0|0:0,0:0:0:0:
188,206,6797,1,10,0:0:0:0:
22,143,7108,2,0,P|-3:97|8:38,1,110.4,2|8,0:0|0:0,0:0:0:0:
85,1,7575,2,0,P|139:6|194:12,1,110.4,2|0,3:2|0:0,0:0:0:0:
282,1,8041,1,10,0:0:0:0:
395,136,8352,1,2,0:0:0:0:
273,263,8663,1,8,0:0:0:0:
192,226,8818,6,0,P|130:217|82:250,1,110.4,2|0,0:0|0:0,0:0:0:0:
30,305,9285,1,8,0:0:0:0:
187,383,9595,2,0,P|252:373|314:364,1,110.4,2|8,0:0|0:0,0:0:0:0:
383,382,10062,1,2,3:2:0:0:
483,239,10373,1,2,0:0:0:0:
483,239,10450,1,2,0:0:0:0:
483,239,10528,2,0,L|488:186,3,31.0499990524292,10|2|2|2,0:0|0:0|3:2|0:0,0:0:0:0:
512,173,10839,2,0,L|509:142,3,31.0499990524292,10|2|2|2,0:0|0:0|0:0|0:0,0:0:0:0:
488,103,11150,2,0,L|490:72,3,31.0499990524292,10|2|2|2,0:0|0:0|0:0|0:0,0:0:0:0:
477,30,11461,6,0,P|423:0|363:10,1,124.199996209717,6|8,3:2|0:0,0:0:0:0:
296,66,11927,2,0,P|301:96|309:141,1,62.0999981048585,2|0,3:2|0:0,0:0:0:0:
363,200,12238,1,0,0:0:0:0:
363,200,12393,2,0,P|358:230|350:275,1,62.0999981048585,10|0,0:0|3:0,0:0:0:0:
291,323,12704,1,2,3:2:0:0:
354,382,12860,2,0,P|416:356|490:377,2,124.199996209717,2|2|0,0:0|3:2|0:0,0:0:0:0:
294,325,13637,1,10,0:0:0:0:
294,325,13792,1,0,0:0:0:0:
220,372,13948,6,0,P|152:379|82:386,1,124.199996209717,2|8,3:2|0:0,0:0:0:0:
17,347,14414,2,0,P|4:314|15:276,1,62.0999981048585,2|0,3:2|0:0,0:0:0:0:
36,208,14725,1,0,0:0:0:0:
36,208,14880,2,0,P|31:179|23:132,1,62.0999981048585,10|0,0:0|0:0,0:0:0:0:
79,79,15191,1,2,3:2:0:0:
154,123,15347,2,0,P|159:153|173:247,2,124.199996209717,2|2|0,0:0|3:2|3:0,0:0:0:0:
217,63,16124,1,10,0:0:0:0:
217,63,16279,1,0,0:0:0:0:
301,85,16435,6,0,P|358:59|425:82,1,124.199996209717,2|8,3:2|0:0,0:0:0:0:
501,65,16901,2,0,P|506:98|512:139,1,62.0999981048585,2|0,3:2|0:0,0:0:0:0:
464,200,17212,1,2,0:0:0:0:
512,278,17367,1,10,0:0:0:0:
512,278,17523,1,2,0:0:0:0:
453,342,17678,2,0,P|403:373|334:357,1,124.199996209717,2|10,3:2|0:0,0:0:0:0:
256,383,18145,1,2,3:2:0:0:
132,268,18456,1,2,0:0:0:0:
132,268,18611,2,0,P|134:235|140:196,1,62.0999981048585,8|0,0:0|0:0,0:0:0:0:
205,151,18922,6,0,P|198:96|188:19,1,124.199996209717,2|8,3:2|0:0,0:0:0:0:
106,0,19388,2,0,P|78:-4|39:19,1,62.0999981048585,2|0,3:2|0:0,0:0:0:0:
0,83,19699,1,2,0:0:0:0:
61,151,19854,1,10,0:0:0:0:
61,151,20010,1,2,0:0:0:0:
10,221,20165,6,0,P|14:272|19:329,1,96.599997052002,2|2,0:0|0:0,0:0:0:0:
78,381,20632,1,2,0:0:0:0:
255,384,21409,6,0,P|251:344|238:254,1,110.4,2|8,3:2|0:0,0:0:0:0:
189,202,21875,1,2,3:2:0:0:
189,202,22342,2,0,P|139:177|73:193,1,110.4,2|0,0:0|3:0,0:0:0:0:
15,141,22808,1,2,0:0:0:0:
15,141,22963,2,0,P|10:109|4:71,1,55.2,8|0,0:0|3:0,0:0:0:0:
44,6,23274,2,0,P|90:29|164:10,1,110.4,2|8,0:0|0:0,0:0:0:0:
233,2,23740,2,0,P|264:7|303:14,1,55.2,2|0,3:2|3:0,0:0:0:0:
367,49,24051,2,0,P|394:44|423:40,1,55.2,2|8,0:0|0:0,0:0:0:0:
500,0,24362,1,2,3:2:0:0:
500,0,24829,6,0,P|525:51|508:116,1,110.4,2|0,0:0|3:2,0:0:0:0:
463,174,25295,1,2,0:0:0:0:
463,174,25450,2,0,P|436:171|405:167,1,55.2,8|0,0:0|3:0,0:0:0:0:
327,130,25761,2,0,P|299:133|210:145,1,110.4,2|8,0:0|0:0,0:0:0:0:
132,117,26228,2,0,P|106:162|126:237,1,110.4,2|0,3:2|0:0,0:0:0:0:
163,297,26694,1,10,0:0:0:0:
163,297,26849,1,0,3:0:0:0:
333,249,27160,6,0,P|360:252|387:255,1,55.2,2|8,0:0|0:0,0:0:0:0:
472,227,27471,2,0,P|501:277|489:339,1,110.4,2|0,3:2|0:0,0:0:0:0:
426,383,27937,1,10,0:0:0:0:
264,310,28248,1,2,0:0:0:0:
340,150,28559,1,10,0:0:0:0:
222,18,28870,6,0,P|165:11|99:3,1,110.4,2|8,3:2|0:0,0:0:0:0:
23,0,29336,2,0,P|-2:45|14:113,1,110.4,2|0,3:2|0:0,0:0:0:0:
43,182,29803,1,10,0:0:0:0:
43,182,29958,2,0,P|35:232|27:305,1,110.4,0|2,3:0|0:0,0:0:0:0:
60,374,30424,2,0,P|106:349|171:366,1,110.4,8|0,0:0|3:0,0:0:0:0:
235,309,30891,1,2,0:0:0:0:
235,309,31046,1,10,0:0:0:0:
148,155,31357,6,0,P|142:100|132:34,1,110.4,2|8,3:2|0:0,0:0:0:0:
211,1,31823,1,2,3:2:0:0:
211,1,32290,2,0,P|262:25|318:13,1,110.4,2|0,0:0|3:0,0:0:0:0:
401,47,32756,1,0,3:0:0:0:
401,47,32911,2,0,P|398:76|394:112,1,55.2,10|0,0:0|3:0,0:0:0:0:
337,168,33222,2,0,P|343:210|351:280,1,110.4,2|10,0:0|0:0,0:0:0:0:
343,366,33689,2,0,P|372:370|408:377,1,55.2,2|0,3:2|3:0,0:0:0:0:
485,381,34000,2,0,P|495:353|485:314,1,55.2,2|8,0:0|0:0,0:0:0:0:
506,241,34310,1,2,3:2:0:0:
363,145,34621,5,2,0:0:0:0:
363,145,34777,2,0,P|310:151|236:160,1,110.4,2|0,0:0|3:0,0:0:0:0:
169,128,35243,2,0,P|156:102|161:60,1,55.2,2|8,0:0|0:0,0:0:0:0:
205,3,35554,1,0,3:0:0:0:
372,59,35865,1,2,0:0:0:0:
438,1,36020,1,10,0:0:0:0:
438,1,36176,1,0,3:0:0:0:
510,50,36331,6,0,P|503:97|493:173,1,110.4,2|8,3:2|0:0,0:0:0:0:
511,246,36797,1,2,3:2:0:0:
511,246,37264,2,0,P|461:270|399:256,1,110.4,10|0,0:0|3:0,0:0:0:0:
327,237,37730,1,2,0:0:0:0:
327,237,37886,2,0,P|293:233|251:227,1,55.2,8|0,0:0|3:0,0:0:0:0:
195,186,38196,2,0,P|167:189|79:200,1,110.4,2|10,0:0|0:0,0:0:0:0:
18,258,38663,1,0,3:0:0:0:
74,325,38818,2,0,P|122:353|186:331,1,110.4,2|8,3:2|0:0,0:0:0:0:
252,382,39285,2,0,P|298:354|351:365,1,110.4,2|0,3:2|3:0,0:0:0:0:
437,382,39751,5,10,0:0:0:0:
437,382,39906,1,0,3:0:0:0:
504,325,40062,2,0,P|508:295|515:252,1,55.2,8|2,0:0|3:2,0:0:0:0:
463,196,40373,2,0,P|459:166|452:123,1,55.2,8|0,0:0|3:0,0:0:0:0:
500,67,40683,1,8,0:0:0:0:
500,67,40839,1,8,0:0:0:0:
441,1,40994,1,10,0:0:0:0:
359,39,41150,6,0,P|297:57|225:22,1,138,10|0,0:0|0:0,0:0:0:0:
145,4,41616,2,0,P|111:8|69:13,1,69,2|0,0:0|3:0,0:0:0:0:
2,63,41927,2,0,P|-7:103|10:142,1,69,8|0,0:0|0:0,0:0:0:0:
66,190,42238,1,0,3:0:0:0:
147,153,42393,2,0,P|210:162|288:172,2,138,2|2|0,0:0|0:0|0:0,0:0:0:0:
66,190,43171,2,0,P|70:226|76:279,1,69,10|0,0:0|0:0,0:0:0:0:
30,336,43481,1,2,0:0:0:0:
106,383,43637,6,0,P|159:355|238:372,1,138,2|0,3:2|0:0,0:0:0:0:
322,383,44103,2,0,P|326:347|333:306,1,69,2|0,0:0|3:0,0:0:0:0:
362,232,44414,1,10,0:0:0:0:
362,232,44569,2,0,P|358:197|344:79,1,138,2|0,0:0|3:0,0:0:0:0:
383,12,45036,2,0,P|413:1|463:13,1,69,2|2,0:0|0:0,0:0:0:0:
512,75,45347,1,2,0:0:0:0:
512,75,45502,1,0,3:0:0:0:
466,152,45658,2,0,P|471:186|475:220,1,69,10|0,0:0|0:0,0:0:0:0:
511,302,45968,1,2,0:0:0:0:
448,366,46124,6,0,P|383:332|313:351,1,138,2|0,0:0|0:0,0:0:0:0:
240,383,46590,2,0,P|236:345|228:294,1,69,2|0,0:0|3:0,0:0:0:0:
190,240,46901,1,10,0:0:0:0:
190,240,47057,1,0,0:0:0:0:
243,168,47212,2,0,P|247:130|255:79,1,69,2|0,3:2|0:0,0:0:0:0:
218,15,47523,2,0,P|156:47|91:35,1,138,2|0,0:0|3:0,0:0:0:0:
11,5,47989,1,2,0:0:0:0:
11,5,48145,1,10,0:0:0:0:
1,184,48456,2,0,P|6:218|11:258,1,69,2|0,0:0|3:0,0:0:0:0:
0,341,48766,6,0,P|60:377|136:349,1,138,6|2,3:2|0:0,0:0:0:0:
216,372,49233,1,0,3:0:0:0:
216,372,49388,2,0,P|220:337|225:303,1,69,10|0,0:0|0:0,0:0:0:0:
284,236,49699,1,2,3:2:0:0:
367,280,49854,1,12,0:0:0:0:
367,280,50010,2,0,P|434:298|500:252,1,138,2|0,0:0|3:0,0:0:0:0:
510,178,50476,5,0,0:0:0:0:
449,111,50632,2,0,P|444:72|438:28,1,69,10|8,0:0|0:0,0:0:0:0:
410,8,50865,1,8,0:0:0:0:
395,4,50943,1,8,0:0:0:0:
318,50,51098,1,10,0:0:0:0:
235,11,51253,6,0,P|194:4|149:25,1,79.3500015134812,6|0,3:2|0:0,0:0:0:0:
68,10,51564,2,0,P|62:48|57:105,1,79.3500015134812,10|0,0:0|0:0,0:0:0:0:
5,164,51875,1,2,3:2:0:0:
5,164,52031,1,0,0:0:0:0:
72,225,52186,2,0,P|113:234|156:207,1,79.3500015134812,10|0,0:0|0:0,0:0:0:0:
221,167,52497,2,0,P|293:177|392:190,1,158.700003026962,2|8,3:2|0:0,0:0:0:0:
461,225,52963,2,0,P|480:260|476:308,1,79.3500015134812,2|0,0:0|3:2,0:0:0:0:
430,377,53274,1,2,3:2:0:0:
355,323,53430,1,8,0:0:0:0:
272,360,53585,6,0,P|200:370|101:387,1,158.700003026962,2|0,3:2|3:0,0:0:0:0:
34,340,54051,2,0,P|-6:279|21:184,2,158.700003026962,8|2|8,0:0|0:0|0:0,0:0:0:0:
116,381,54829,1,0,3:0:0:0:
198,338,54984,1,2,0:0:0:0:
198,338,55139,2,0,P|201:292|206:240,1,79.3500015134812,0|8,3:0|0:0,0:0:0:0:
270,196,55450,2,0,P|258:119|241:20,1,158.700003026962,2|0,0:0|3:0,0:0:0:0:
160,1,55917,1,10,0:0:0:0:
71,160,56228,6,0,P|110:165|149:172,1,79.3500015134812,2|0,3:2|0:0,0:0:0:0:
212,238,56538,2,0,P|251:231|290:224,1,79.3500015134812,10|0,0:0|0:0,0:0:0:0:
381,255,56849,1,2,3:2:0:0:
381,255,57005,1,0,3:0:0:0:
457,205,57160,2,0,P|470:165|454:120,1,79.3500015134812,10|0,0:0|0:0,0:0:0:0:
484,41,57471,2,0,P|405:31|326:20,1,158.700003026962,2|8,3:2|0:0,0:0:0:0:
237,0,57937,2,0,P|219:35|229:86,1,79.3500015134812,2|0,0:0|3:2,0:0:0:0:
275,148,58248,1,2,0:0:0:0:
252,236,58404,1,8,0:0:0:0:
163,216,58559,6,0,P|88:227|-5:241,1,158.700003026962,6|0,3:2|3:0,0:0:0:0:
2,330,59025,2,0,P|37:335|105:346,1,79.3500015134812,8|0,0:0|0:0,0:0:0:0:
172,319,59336,1,2,3:2:0:0:
172,319,59492,1,0,3:0:0:0:
239,380,59647,2,0,P|278:373|317:368,1,79.3500015134812,10|0,0:0|0:0,0:0:0:0:
407,382,59958,2,0,P|437:323|412:232,1,158.700003026962,2|8,3:2|0:0,0:0:0:0:
335,192,60424,2,0,P|305:133|330:42,1,158.700003026962,2|0,3:2|3:0,0:0:0:0:
400,3,60891,1,10,0:0:0:0:
509,149,61202,6,0,P|501:216|489:327,2,158.700003026962,2|8|2,3:2|0:0|3:2,0:0:0:0:
425,124,61979,1,0,3:0:0:0:
425,124,62134,2,0,P|381:129|336:135,1,79.3500015134812,8|0,0:0|0:0,0:0:0:0:
273,189,62445,2,0,P|261:230|278:278,1,79.3500015134812,2|0,3:2|0:0,0:0:0:0:
224,344,62756,2,0,P|145:353|67:367,1,158.700003026962,8|0,0:0|3:2,0:0:0:0:
0,303,63222,1,2,3:2:0:0:
44,222,63378,2,0,P|77:217|134:207,1,79.3500015134812,8|0,0:0|0:0,0:0:0:0:
183,141,63689,6,0,P|195:80|138:-9,2,158.700003026962,2|8|2,3:2|0:0|3:2,0:0:0:0:
254,206,64466,1,0,3:0:0:0:
254,206,64621,2,0,P|293:211|332:217,1,79.3500015134812,8|0,0:0|0:0,0:0:0:0:
402,276,64932,2,0,P|438:270|485:263,1,79.3500015134812,2|0,3:2|0:0,0:0:0:0:
509,180,65243,1,8,0:0:0:0:
509,180,65399,2,0,P|515:147|493:98,1,79.3500015134812,2|0,0:0|3:2,0:0:0:0:
512,18,65709,1,2,3:2:0:0:
512,18,65865,1,8,0:0:0:0:
330,1,66176,6,0,P|254:11|168:21,1,158.700003026962,2|8,3:2|0:0,0:0:0:0:
82,5,66642,2,0,P|43:73|70:162,1,158.700003026962,2|0,0:0|3:0,0:0:0:0:
118,217,67108,1,10,0:0:0:0:
203,183,67264,2,0,P|279:193|365:203,1,158.700003026962,6|0,3:2|3:0,0:0:0:0:
448,177,67730,2,0,P|464:218|460:264,1,79.3500015134812,8|0,0:0|0:0,0:0:0:0:
415,331,68041,1,0,3:0:0:0:
415,331,68196,1,0,3:0:0:0:
331,294,68352,1,10,0:0:0:0:
262,353,68507,6,0,P|185:362|104:372,1,158.700003026962,2|0,3:2|3:0,0:0:0:0:
16,384,68974,1,10,0:0:0:0:
16,384,69129,2,0,P|-14:313|17:234,1,158.700003026962,2|0,0:0|3:0,0:0:0:0:
65,164,69595,1,10,0:0:0:0:
144,208,69751,2,0,P|221:217|301:227,1,158.700003026962,6|0,3:2|3:0,0:0:0:0:
340,252,70139,1,0,3:0:0:0:
354,263,70217,2,0,P|394:256|451:250,1,79.3500015134812,10|0,0:0|3:0,0:0:0:0:
505,195,70528,1,2,0:0:0:0:
474,120,70683,1,8,0:0:0:0:
474,120,70761,1,8,0:0:0:0:
474,120,70839,2,0,L|481:59,3,39.6750007567406,8|8|8|0,0:0|0:0|0:0|0:0,0:0:0:0:
472,35,71150,6,0,P|438:19|383:33,1,79.3500015134812,6|0,3:2|0:0,0:0:0:0:
308,1,71461,2,0,P|300:40|292:90,1,79.3500015134812,10|0,0:0|0:0,0:0:0:0:
336,165,71772,1,2,3:2:0:0:
336,165,71928,1,0,3:0:0:0:
282,237,72082,2,0,P|290:276|298:326,1,79.3500015134812,10|0,0:0|0:0,0:0:0:0:
234,383,72394,2,0,P|166:345|75:370,1,158.700003026962,2|8,3:2|0:0,0:0:0:0:
13,309,72860,2,0,P|19:269|26:227,1,79.3500015134812,2|0,0:0|3:0,0:0:0:0:
92,168,73171,1,2,3:2:0:0:
92,168,73327,1,8,0:0:0:0:
165,220,73482,6,0,P|244:229|349:246,1,158.700003026962,2|0,3:2|3:0,0:0:0:0:
413,243,73948,2,0,P|453:304|426:399,2,158.700003026962,8|2|8,0:0|3:2|0:0,0:0:0:0:
456,161,74726,1,0,0:0:0:0:
410,88,74880,1,2,3:2:0:0:
410,88,75036,2,0,P|370:81|320:74,1,79.3500015134812,0|8,0:0|0:0,0:0:0:0:
249,35,75347,2,0,P|207:98|230:195,1,158.700003026962,2|0,0:0|3:0,0:0:0:0:
264,256,75814,1,10,0:0:0:0:
123,372,76125,6,0,P|83:377|44:384,1,79.3500015134812,2|0,3:2|0:0,0:0:0:0:
0,305,76435,2,0,P|-11:278|3:230,1,79.3500015134812,10|0,0:0|3:0,0:0:0:0:
67,167,76746,1,2,3:2:0:0:
67,167,76902,1,0,3:0:0:0:
146,213,77057,2,0,P|138:254|133:295,1,79.3500015134812,10|0,0:0|0:0,0:0:0:0:
163,377,77368,2,0,P|229:343|317:366,1,158.700003026962,2|8,3:2|0:0,0:0:0:0:
397,383,77834,2,0,P|443:376|483:372,1,79.3500015134812,2|0,3:2|3:0,0:0:0:0:
508,287,78145,1,2,3:2:0:0:
446,219,78301,1,8,0:0:0:0:
505,150,78456,6,0,P|527:89|497:-9,1,158.700003026962,6|0,3:2|3:0,0:0:0:0:
412,1,78922,2,0,P|377:6|311:13,1,79.3500015134812,8|0,0:0|0:0,0:0:0:0:
265,72,79233,1,2,3:2:0:0:
265,72,79389,1,0,3:0:0:0:
311,149,79544,2,0,P|306:189|301:236,1,79.3500015134812,8|0,0:0|0:0,0:0:0:0:
329,314,79854,2,0,P|274:350|174:329,1,158.700003026962,2|8,3:2|0:0,0:0:0:0:
104,381,80321,1,2,0:0:0:0:
30,335,80477,1,2,3:2:0:0:
30,335,80632,1,2,3:2:0:0:
69,252,80788,1,10,0:0:0:0:
0,75,81098,6,0,P|82:86|170:98,1,158.700003026962,6|8,3:2|0:0,0:0:0:0:
243,65,81564,1,2,0:0:0:0:
302,141,81720,1,2,3:2:0:0:
302,141,81875,1,0,3:0:0:0:
386,106,82031,2,0,P|424:100|464:95,1,79.3500015134812,10|0,0:0|3:0,0:0:0:0:
453,3,82342,2,0,P|415:8|367:15,1,79.3500015134812,2|0,3:2|0:0,0:0:0:0:
284,2,82652,2,0,P|252:52|273:148,1,158.700003026962,10|2,0:0|0:0,0:0:0:0:
246,234,83119,1,2,3:2:0:0:
160,201,83274,2,0,P|155:163|148:115,1,79.3500015134812,8|0,0:0|0:0,0:0:0:0:
141,31,83585,6,0,P|60:14|-9:70,2,158.700003026962,6|10|2,3:2|0:0|3:2,0:0:0:0:
227,1,84362,1,2,3:2:0:0:
227,1,84518,2,0,P|266:6|312:13,1,79.3500015134812,8|0,0:0|3:0,0:0:0:0:
396,0,84829,2,0,P|430:57|420:156,1,158.700003026962,2|10,3:2|0:0,0:0:0:0:
353,205,85295,2,0,P|358:243|368:298,1,79.3500015134812,2|2,3:2|0:0,0:0:0:0:
329,369,85606,1,0,3:0:0:0:
329,369,85761,1,8,0:0:0:0:
147,351,86072,6,0,P|68:373|-11:321,1,158.700003026962,2|8,3:2|0:0,0:0:0:0:
0,248,86538,2,0,P|58:242|159:227,1,158.700003026962,2|0,0:0|3:0,0:0:0:0:
239,269,87005,1,10,0:0:0:0:
307,208,87160,2,0,P|331:127|292:51,1,158.700003026962,2|0,0:0|0:0,0:0:0:0:
233,2,87626,2,0,P|190:8|132:13,1,79.3500015134812,10|0,0:0|3:0,0:0:0:0:
63,2,87937,1,2,3:2:0:0:
63,2,88093,1,0,0:0:0:0:
6,73,88248,2,0,P|-4:116|9:153,1,79.3500015134812,10|0,0:0|0:0,0:0:0:0:
63,219,88559,6,0,P|54:290|43:391,2,158.700003026962,6|10|2,3:2|0:0|3:2,0:0:0:0:
138,167,89336,1,0,3:0:0:0:
207,235,89492,1,10,0:0:0:0:
207,235,89647,1,0,3:0:0:0:
286,190,89803,2,0,P|344:162|438:183,1,158.700003026962,10|0,3:2|3:0,0:0:0:0:
503,239,90269,1,8,0:0:0:0:
462,322,90424,1,2,3:2:0:0:
462,322,90580,1,0,3:0:0:0:
374,295,90735,2,0,P|333:301|286:308,1,79.3500015134812,10|10,0:0|0:0,0:0:0:0:
261,337,90968,5,10,0:0:0:0:
249,346,91046,2,0,P|191:337|125:329,1,110.4,6|8,3:2|0:0,0:0:0:0:
57,365,91513,1,2,3:2:0:0:
57,365,91979,5,8,0:0:0:0:
4,301,92134,1,0,3:0:0:0:
4,301,92290,1,0,3:0:0:0:
84,143,92601,2,0,P|77:86|69:20,1,110.4,10|0,0:0|0:0,0:0:0:0:
157,5,93067,1,2,0:0:0:0:
157,5,93222,2,0,P|159:30|165:77,1,55.2,8|0,0:0|3:0,0:0:0:0:
237,106,93533,2,0,P|279:84|356:105,1,110.4,2|8,3:2|0:0,0:0:0:0:
413,142,94000,1,2,3:2:0:0:
413,142,94466,5,8,0:0:0:0:
484,89,94621,1,0,3:0:0:0:
484,89,94777,1,0,3:0:0:0:
331,0,95088,2,0,P|274:6|207:13,1,110.4,10|0,0:0|0:0,0:0:0:0:
146,59,95554,2,0,P|88:51|22:42,1,110.4,2|0,0:0|3:0,0:0:0:0:
4,126,96020,2,0,P|50:153|118:140,1,110.4,2|8,3:2|0:0,0:0:0:0:
178,198,96487,1,2,3:2:0:0:
178,198,96953,5,8,0:0:0:0:
135,276,97108,1,0,3:0:0:0:
135,276,97264,1,0,3:0:0:0:
275,383,97575,2,0,P|327:376|390:368,1,110.4,10|0,0:0|0:0,0:0:0:0:
476,381,98041,1,2,0:0:0:0:
476,381,98196,2,0,P|480:350|485:312,1,55.2,8|0,0:0|3:0,0:0:0:0:
509,241,98507,2,0,P|460:213|402:228,1,110.4,2|8,3:2|0:0,0:0:0:0:
333,269,98974,1,2,3:2:0:0:
333,269,99440,5,10,0:0:0:0:
262,215,99595,2,0,P|256:164|249:100,1,110.4,0|2,3:0|0:0,0:0:0:0:
