osu file format v14

[General]
AudioFilename: audio.ogg
AudioLeadIn: 0
PreviewTime: 50632
Countdown: 0
SampleSet: Soft
StackLeniency: 0.3
Mode: 0
LetterboxInBreaks: 0
WidescreenStoryboard: 1

[Editor]
DistanceSpacing: 1.8
BeatDivisor: 4
GridSize: 32
TimelineZoom: 1

[Metadata]
Title:Full Moon Full Life -Opening Movie version-
TitleUnicode:Full Moon Full Life -Opening Movie version-
Artist:Azumi Takahashi feat. Lotus Juice
ArtistUnicode:高橋あず美 feat. Lotus Juice
Creator:Nyukai
Version:Sotarks' Persona
Source:ペルソナ3 リロード
Tags:atsushi kitajo 喜多條敦志 atlus sega persona 3 reload p3 spinoff spin-off shin megami tensei rpg jrpg j-rpg ペルソナ video game videogame opening remake kanui supav freezinganimenz sotarks rap english pop
BeatmapID:4467075
BeatmapSetID:2118662

[Difficulty]
HPDrainRate:6
CircleSize:4
OverallDifficulty:9
ApproachRate:9.2
SliderMultiplier:1.92
SliderTickRate:1

[Events]
//Background and Video events
Video,45,"persona.avi"
0,0,"background.jpg",0,0
//Break Periods
//Storyboard Layer 0 (Background)
//Storyboard Layer 1 (Fail)
//Storyboard Layer 2 (Pass)
//Storyboard Layer 3 (Foreground)
//Storyboard Layer 4 (Overlay)
//Storyboard Sound Samples

[TimingPoints]
1513,310.880829015544,4,2,2,50,1,0
1513,-138.888888888889,4,2,2,50,0,0
11461,-98.0392156862745,4,2,2,60,0,0
20165,-161.290322580645,4,2,1,60,0,0
21409,-138.888888888889,4,2,2,60,0,0
22342,-192.307692307693,4,2,2,60,0,0
22652,-138.888888888889,4,2,2,60,0,0
32290,-192.307692307693,4,2,2,60,0,0
32600,-138.888888888889,4,2,2,60,0,0
39751,-121.951219512195,4,2,1,70,0,0
41305,-108.695652173913,4,2,1,70,0,0
51253,-98.0392156862745,4,2,1,80,0,1
71072,-98.0392156862745,4,2,1,80,0,0
71150,-98.0392156862745,4,2,1,80,0,1
91046,-138.888888888889,4,2,2,60,0,0
93533,-138.888888888889,4,2,2,50,0,0

[Colours]
Combo1 : 173,191,233
Combo2 : 236,168,199

[HitObjects]
81,76,1513,6,0,P|139:85|229:116,1,138.240003375,2|8,3:2|0:0,0:0:0:0:
388,145,1979,2,0,P|362:86|276:102,1,138.240003375,2|2,3:2|0:0,0:0:0:0:
130,205,2445,1,8,0:0:0:0:
291,158,2601,1,0,3:0:0:0:
214,109,2756,6,0,P|208:172|217:240,1,103.68000253125,0|0,3:0|0:0,0:0:0:0:
211,212,3067,1,10,0:0:0:0:
282,352,3222,2,0,B|257:350|231:345|231:345|204:351|204:351|173:345|138:342,1,138.240003375,0|2,3:0|0:0,0:0:0:0:
325,285,3689,1,8,0:0:0:0:
147,343,3844,1,0,0:0:0:0:
338,275,4000,6,0,P|362:232|298:159,1,138.240003375,2|8,3:2|0:0,0:0:0:0:
110,179,4466,2,0,P|198:194|258:213,1,138.240003375,2|2,3:2|0:0,0:0:0:0:
197,102,4932,1,8,0:0:0:0:
338,275,5088,1,0,3:0:0:0:
319,162,5243,6,0,P|313:108|325:46,1,103.68000253125,0|0,3:0|0:0,0:0:0:0:
320,59,5554,1,10,0:0:0:0:
197,102,5709,2,0,B|133:77|134:114|44:84,1,138.240003375,0|2,3:0|0:0,0:0:0:0:
120,195,6176,1,10,0:0:0:0:
22,20,6331,6,0,P|-18:60|12:142,1,138.240003375,2|0,0:0|0:0,0:0:0:0:
54,273,6797,2,0,P|46:229|33:200,1,69.1200016875,10|0,0:0|3:0,0:0:0:0:
142,59,7108,2,0,P|123:146|119:206,1,138.240003375,2|8,0:0|0:0,0:0:0:0:
210,333,7575,6,0,P|265:355|315:278,1,138.240003375,2|0,3:2|0:0,0:0:0:0:
169,261,8041,1,10,0:0:0:0:
298,203,8196,1,0,3:0:0:0:
235,115,8352,2,0,P|222:170|223:192,1,69.1200016875,2|0,0:0|3:0,0:0:0:0:
356,81,8663,1,8,0:0:0:0:
187,4,8818,6,0,B|156:34|156:34|108:17|45:28,1,138.240003375,2|0,0:0|0:0,0:0:0:0:
110,200,9285,2,0,L|134:124,1,69.1200016875,8|0,0:0|3:0,0:0:0:0:
18,248,9595,2,0,L|44:392,1,138.240003375,2|8,0:0|0:0,0:0:0:0:
157,266,10062,1,2,3:2:0:0:
301,348,10217,6,0,P|255:352|219:366,1,69.1200016875,2|2,3:2|0:0,0:0:0:0:
202,373,10450,1,2,0:0:0:0:
202,373,10528,6,0,L|218:333,1,34.56000084375,10|2,0:0|0:0,0:0:0:0:
351,270,10683,2,0,L|335:230,1,34.56000084375,2|2,3:2|0:0,0:0:0:0:
139,249,10839,6,0,L|155:209,1,34.56000084375,10|2,0:0|0:0,0:0:0:0:
358,148,10994,2,0,L|342:108,1,34.56000084375,2|2,0:0|0:0,0:0:0:0:
238,34,11150,5,10,0:0:0:0:
238,34,11228,1,2,0:0:0:0:
238,34,11305,1,2,0:0:0:0:
238,34,11383,1,2,0:0:0:0:
238,34,11461,6,0,P|195:85|111:70,1,146.880000896484,6|0,3:2|0:0,0:0:0:0:
104,66,11772,1,8,0:0:0:0:
54,261,11927,2,0,P|33:192|43:149,1,97.9200005976563,2|0,3:2|0:0,0:0:0:0:
227,241,12238,1,0,0:0:0:0:
88,355,12393,2,0,P|21:357|-17:324,1,97.9200005976563,8|0,0:0|0:0,0:0:0:0:
259,354,12704,5,2,3:2:0:0:
150,299,12860,1,2,0:0:0:0:
240,120,13015,1,8,0:0:0:0:
227,241,13171,1,2,3:2:0:0:
227,241,13248,1,0,0:0:0:0:
227,241,13326,1,0,0:0:0:0:
91,147,13481,1,0,0:0:0:0:
229,38,13637,1,10,0:0:0:0:
78,142,13792,1,0,0:0:0:0:
359,172,13948,6,0,B|326:166|289:154|289:154|242:167|242:167|209:154|167:139,1,195.840001195313,2|8,3:2|0:0,0:0:0:0:
332,88,14414,1,2,3:2:0:0:
270,241,14569,1,0,0:0:0:0:
481,170,14725,1,0,0:0:0:0:
366,352,14880,2,0,P|351:287|354:246,1,97.9200005976563,10|0,0:0|0:0,0:0:0:0:
359,172,15191,5,2,3:2:0:0:
275,323,15347,1,2,0:0:0:0:
126,188,15502,1,8,0:0:0:0:
251,145,15658,1,2,3:2:0:0:
251,145,15735,1,0,0:0:0:0:
251,145,15813,1,0,0:0:0:0:
75,246,15968,1,0,3:0:0:0:
275,323,16124,1,10,0:0:0:0:
126,188,16279,1,0,0:0:0:0:
203,381,16435,6,0,B|216:350|232:322|232:322|219:268|219:268|223:223|239:178,1,195.840001195313,2|8,3:2|0:0,0:0:0:0:
125,314,16901,2,0,P|51:327|21:336,1,97.9200005976563,2|0,3:2|0:0,0:0:0:0:
126,188,17212,1,2,0:0:0:0:
203,381,17367,1,10,0:0:0:0:
136,180,17523,1,2,0:0:0:0:
290,227,17678,6,0,L|184:257,1,97.9200005976563,2|0,3:2|0:0,0:0:0:0:
339,99,17989,1,10,0:0:0:0:
315,322,18145,2,0,L|334:126,1,195.840001195313,2|2,3:2|0:0,0:0:0:0:
421,243,18611,2,0,L|449:294,1,48.9600002988281,8|0,0:0|0:0,0:0:0:0:
237,188,18766,2,0,L|209:239,1,48.9600002988281
416,130,18922,6,0,P|439:66|364:31,1,146.880000896484,2|0,3:2|0:0,0:0:0:0:
357,34,19233,1,8,0:0:0:0:
237,188,19388,2,0,P|240:256|255:302,1,97.9200005976563,2|0,3:2|0:0,0:0:0:0:
335,121,19699,1,2,0:0:0:0:
154,129,19854,1,10,0:0:0:0:
247,310,20010,1,2,0:0:0:0:
267,201,20165,5,2,0:0:0:0:
172,248,20321,2,0,L|46:219,1,119.039995277344,2|2,0:0|0:0,0:0:0:0:
154,129,20787,2,0,L|167:168,3,29.759998819336,2|2|2|2,0:0|0:0|0:0|0:0,0:0:0:0:
77,111,21098,2,0,L|43:99,1,29.759998819336,2|2,0:0|0:0,0:0:0:0:
199,53,21253,2,0,L|233:41,1,29.759998819336,2|2,0:0|0:0,0:0:0:0:
113,25,21409,5,2,3:2:0:0:
154,129,21564,1,0,3:0:0:0:
113,233,21720,1,8,0:0:0:0:
229,353,21875,1,2,3:2:0:0:
237,278,22342,6,0,L|227:369,1,74.8799995429687,2|0,0:0|0:0,0:0:0:0:
228,352,22652,5,0,3:0:0:0:
328,289,22808,1,2,0:0:0:0:
212,206,22963,1,8,0:0:0:0:
158,296,23119,1,0,3:0:0:0:
238,281,23274,1,2,0:0:0:0:
238,281,23585,5,8,0:0:0:0:
287,95,23740,1,2,3:2:0:0:
145,188,23896,2,0,P|198:203|232:208,1,69.1200016875,0|0,3:0|0:0,0:0:0:0:
131,79,24207,1,8,0:0:0:0:
78,259,24362,1,2,3:2:0:0:
78,259,24829,6,0,L|53:299,1,34.56000084375,2|0,0:0|0:0,0:0:0:0:
23,201,24984,1,0,3:0:0:0:
161,294,25139,1,0,3:2:0:0:
33,352,25295,1,2,0:0:0:0:
145,188,25450,2,0,P|181:194|239:209,1,69.1200016875,8|0,0:0|0:0,0:0:0:0:
130,354,25761,1,2,0:0:0:0:
23,201,25917,1,0,0:0:0:0:
181,76,26072,1,8,0:0:0:0:
128,212,26228,1,2,3:2:0:0:
288,199,26383,6,0,P|219:194|150:204,1,138.240003375,0|10,3:0|0:0,0:0:0:0:
334,265,26849,2,0,P|375:217|328:144,1,138.240003375,0|2,3:0|0:0,0:0:0:0:
243,276,27316,1,8,0:0:0:0:
305,92,27471,1,2,3:2:0:0:
139,136,27626,6,0,P|147:194|159:221,1,69.1200016875,0|2,3:0|0:0,0:0:0:0:
197,67,27937,2,0,P|206:33|208:0,1,69.1200016875,10|0,0:0|3:0,0:0:0:0:
139,284,28248,2,0,P|129:317|127:351,1,69.1200016875,2|0,0:0|0:0,0:0:0:0:
75,151,28559,1,10,0:0:0:0:
226,200,28715,1,0,3:0:0:0:
56,147,28870,6,0,P|44:199|50:273,1,103.68000253125,2|0,3:2|0:0,0:0:0:0:
50,277,29181,1,8,0:0:0:0:
233,176,29336,2,0,P|250:125|216:45,1,138.240003375,2|0,3:2|0:0,0:0:0:0:
323,154,29803,1,10,0:0:0:0:
152,108,29958,6,0,P|100:119|67:114,1,69.1200016875,0|0,3:0|0:0,0:0:0:0:
208,32,30269,1,2,0:0:0:0:
150,189,30424,2,0,P|142:233|155:343,1,138.240003375,8|0,0:0|3:0,0:0:0:0:
294,237,30891,1,2,0:0:0:0:
167,351,31046,1,10,0:0:0:0:
338,384,31202,1,0,3:0:0:0:
267,312,31357,6,0,P|252:359|247:403,1,69.1200016875,2|0,3:2|0:0,0:0:0:0:
379,275,31668,1,8,0:0:0:0:
275,163,31823,2,0,P|258:104|274:18,1,138.240003375,2|0,3:2|0:0,0:0:0:0:
342,43,32290,6,0,L|268:28,1,74.8799995429687,2|0,0:0|0:0,0:0:0:0:
241,23,32601,5,0,3:0:0:0:
349,119,32756,1,2,0:0:0:0:
188,166,32911,1,10,0:0:0:0:
255,107,33067,1,0,3:0:0:0:
255,107,33378,5,0,0:0:0:0:
286,311,33533,1,10,0:0:0:0:
90,256,33689,1,2,3:2:0:0:
181,190,33844,6,0,P|207:247|176:332,1,138.240003375,0|8,3:0|0:0,0:0:0:0:
84,154,34310,1,2,3:2:0:0:
84,154,34621,5,2,0:0:0:0:
190,104,34777,2,0,P|230:95|278:90,1,69.1200016875,2|0,0:0|0:0,0:0:0:0:
181,190,35088,1,0,3:0:0:0:
21,101,35243,1,2,0:0:0:0:
181,17,35399,1,8,0:0:0:0:
84,154,35554,2,0,P|76:202|71:244,1,69.1200016875,2|0,0:0|0:0,0:0:0:0:
191,105,35865,5,2,0:0:0:0:
131,321,36020,1,10,0:0:0:0:
194,113,36176,1,0,3:0:0:0:
144,332,36331,6,0,B|177:334|200:338|200:338|227:352|227:352|249:355|296:358,1,138.240003375,2|8,3:2|0:0,0:0:0:0:
356,241,36797,2,0,P|304:261|301:351,1,138.240003375,2|0,3:2|0:0,0:0:0:0:
387,246,37264,1,10,0:0:0:0:
275,111,37419,1,0,3:0:0:0:
387,70,37575,5,0,3:0:0:0:
240,219,37730,1,2,0:0:0:0:
262,36,37886,2,0,P|293:73|290:111,1,69.1200016875,8|0,0:0|3:0,0:0:0:0:
177,162,38196,2,0,P|107:173|60:151,1,103.68000253125,2|0,0:0|0:0,0:0:0:0:
57,149,38507,1,10,0:0:0:0:
240,219,38663,1,0,3:0:0:0:
62,247,38818,6,0,P|62:315|83:388,1,138.240003375,2|8,3:2|0:0,0:0:0:0:
271,203,39285,2,0,P|252:265|243:349,1,138.240003375,2|0,3:2|3:0,0:0:0:0:
380,132,39751,6,0,P|389:179|392:187,1,39.3600006005859,10|0,0:0|0:0,0:0:0:0:
430,240,39906,1,0,3:0:0:0:
438,82,40062,5,8,0:0:0:0:
361,283,40217,1,2,3:2:0:0:
372,47,40373,5,8,0:0:0:0:
469,307,40528,1,0,3:0:0:0:
245,113,40683,5,8,0:0:0:0:
512,175,40839,1,8,0:0:0:0:
228,205,40994,1,10,0:0:0:0:
512,192,41150,1,10,0:0:0:0:
260,108,41305,6,0,L|81:72,1,176.639994070313,6|2,3:2|0:0,0:0:0:0:
187,0,41772,1,0,3:0:0:0:
26,139,41927,2,0,L|-7:33,1,88.3199970351563,8|0,0:0|0:0,0:0:0:0:
137,179,42238,1,0,3:0:0:0:
86,300,42393,6,0,L|59:384,1,88.3199970351563,2|0,0:0|0:0,0:0:0:0:
50,148,42704,2,0,L|17:42,1,88.3199970351563,2|0,0:0|3:0,0:0:0:0:
0,260,43015,1,0,0:0:0:0:
113,95,43171,2,0,L|150:7,1,88.3199970351563,10|0,0:0|0:0,0:0:0:0:
206,112,43481,1,2,0:0:0:0:
40,42,43637,1,2,3:2:0:0:
156,215,43792,5,2,3:2:0:0:
319,55,43948,1,0,0:0:0:0:
113,95,44103,1,2,0:0:0:0:
228,268,44259,1,0,3:0:0:0:
206,112,44414,1,10,0:0:0:0:
106,331,44569,2,0,L|304:381,1,176.639994070313,2|0,0:0|3:0,0:0:0:0:
349,159,45036,5,2,0:0:0:0:
228,268,45191,1,2,0:0:0:0:
417,203,45347,1,2,0:0:0:0:
287,65,45502,1,0,3:0:0:0:
419,217,45658,2,0,L|526:198,1,88.3199970351563,10|0,0:0|0:0,0:0:0:0:
420,111,45968,1,2,0:0:0:0:
472,317,46124,1,2,0:0:0:0:
321,186,46279,6,0,B|254:169|254:169|209:177|209:177|126:150,1,176.639994070313,0|2,3:0|0:0,0:0:0:0:
56,58,46746,1,0,3:0:0:0:
143,274,46901,1,10,0:0:0:0:
11,152,47057,1,0,0:0:0:0:
141,291,47212,2,0,L|119:386,1,88.3199970351563,2|0,3:2|0:0,0:0:0:0:
247,149,47523,6,0,L|227:62,1,88.3199970351563,2|0,0:0|0:0,0:0:0:0:
338,210,47834,1,0,3:0:0:0:
145,140,47989,1,2,0:0:0:0:
379,147,48145,2,0,L|351:314,1,132.479995552735,10|0,0:0|0:0,0:0:0:0:
354,301,48456,1,2,0:0:0:0:
431,87,48611,1,0,3:0:0:0:
437,347,48766,6,0,B|376:328|376:328|342:345|342:345|242:334,1,176.639994070313,6|2,3:2|0:0,0:0:0:0:
454,227,49233,1,0,3:0:0:0:
250,328,49388,1,10,0:0:0:0:
448,223,49544,1,0,0:0:0:0:
257,145,49699,1,2,3:2:0:0:
341,303,49854,1,12,0:0:0:0:
162,209,50010,6,0,L|48:230,1,88.3199970351563,2|2,0:0|0:0,0:0:0:0:
329,90,50321,2,0,L|443:111,1,88.3199970351563,0|0,3:0|0:0,0:0:0:0:
235,0,50632,5,10,0:0:0:0:
283,259,50787,1,8,0:0:0:0:
283,259,50865,1,8,0:0:0:0:
283,259,50943,1,8,0:0:0:0:
327,0,51098,1,10,0:0:0:0:
205,299,51253,6,0,P|252:353|327:322,1,146.880000896484,6|0,3:2|0:0,0:0:0:0:
341,349,51564,2,0,P|363:296|363:248,1,97.9200005976563,10|0,0:0|0:0,0:0:0:0:
108,178,51875,2,0,P|118:251|116:337,1,146.880000896484,2|0,3:2|0:0,0:0:0:0:
113,351,52186,2,0,P|59:365|29:324,1,97.9200005976563,10|0,0:0|0:0,0:0:0:0:
258,228,52497,6,0,B|307:213|307:213|352:230|419:216,1,146.880000896484,2|0,3:2|0:0,0:0:0:0:
415,211,52808,1,8,0:0:0:0:
272,140,52963,2,0,P|255:78|261:39,1,97.9200005976563,2|0,0:0|3:2,0:0:0:0:
346,265,53274,2,0,P|363:327|357:366,1,97.9200005976563,2|8,3:2|0:0,0:0:0:0:
157,133,53585,6,0,P|93:122|68:231,1,195.840001195313,2|0,3:2|3:0,0:0:0:0:
136,353,54051,1,8,0:0:0:0:
0,288,54207,1,0,0:0:0:0:
169,249,54362,2,0,P|173:313|159:352,1,97.9200005976563,2|0,0:0|3:0,0:0:0:0:
34,136,54673,1,8,0:0:0:0:
163,23,54829,1,0,3:0:0:0:
58,152,54984,6,0,P|45:104|51:56,1,97.9200005976563,2|0,0:0|0:0,0:0:0:0:
259,177,55295,1,8,0:0:0:0:
133,108,55450,1,2,0:0:0:0:
291,52,55606,1,0,3:0:0:0:
169,249,55761,1,0,3:0:0:0:
412,331,55917,1,10,0:0:0:0:
281,189,56072,1,0,3:0:0:0:
495,214,56228,6,0,P|439:255|360:247,1,146.880000896484,2|0,3:2|0:0,0:0:0:0:
334,246,56538,2,0,P|325:189|350:154,1,97.9200005976563,10|0,0:0|0:0,0:0:0:0:
487,12,56849,2,0,B|437:37|437:37|384:21|329:25,1,146.880000896484,2|0,3:2|0:0,0:0:0:0:
326,41,57160,2,0,P|261:50|224:67,1,97.9200005976563,10|0,0:0|0:0,0:0:0:0:
53,161,57471,6,0,P|13:105|76:59,1,146.880000896484,2|0,3:2|0:0,0:0:0:0:
89,65,57782,1,8,0:0:0:0:
64,262,57937,2,0,P|7:289|-33:292,1,97.9200005976563,2|0,0:0|3:2,0:0:0:0:
102,46,58248,2,0,P|150:53|193:76,1,97.9200005976563,2|8,0:0|0:0,0:0:0:0:
148,376,58559,6,0,B|138:337|126:314|126:314|142:268|142:268|141:221|150:173,1,195.840001195313,6|0,3:2|3:0,0:0:0:0:
218,330,59025,1,8,0:0:0:0:
69,183,59181,1,0,0:0:0:0:
325,70,59336,1,2,3:2:0:0:
295,262,59492,1,0,3:0:0:0:
166,175,59647,6,0,L|154:282,1,97.9200005976563,10|0,0:0|0:0,0:0:0:0:
424,134,59958,2,0,L|226:74,1,195.840001195313,2|8,3:2|0:0,0:0:0:0:
360,202,60424,5,2,3:2:0:0:
501,83,60580,1,0,3:0:0:0:
358,7,60735,1,0,3:0:0:0:
445,216,60891,2,0,P|458:281|431:366,1,146.880000896484,10|0,0:0|0:0,0:0:0:0:
409,373,61202,6,0,P|349:361|298:361,1,97.9200005976563,2|0,3:2|0:0,0:0:0:0:
120,293,61512,2,0,P|180:281|231:281,1,97.9200005976563,8|0,0:0|0:0,0:0:0:0:
362,182,61823,1,2,3:2:0:0:
219,362,61979,1,0,0:0:0:0:
311,109,62134,1,8,0:0:0:0:
312,360,62290,1,0,0:0:0:0:
239,50,62445,6,0,P|168:55|91:69,1,146.880000896484,2|0,3:2|0:0,0:0:0:0:
72,73,62756,2,0,P|58:128|71:176,1,97.9200005976563,8|2,0:0|0:0,0:0:0:0:
261,136,63067,1,0,3:2:0:0:
112,328,63222,1,2,3:2:0:0:
323,255,63378,2,0,P|245:250|179:293,1,146.880000896484,8|0,0:0|0:0,0:0:0:0:
186,300,63689,6,0,P|161:248|178:197,1,97.9200005976563,2|0,3:2|0:0,0:0:0:0:
359,132,64000,1,8,0:0:0:0:
272,330,64155,1,0,0:0:0:0:
475,245,64310,1,2,3:2:0:0:
274,107,64466,1,0,3:0:0:0:
338,257,64621,1,8,0:0:0:0:
447,32,64777,1,0,0:0:0:0:
203,48,64932,6,0,P|172:134|221:204,1,146.880000896484,2|0,3:2|0:0,0:0:0:0:
216,197,65243,1,8,0:0:0:0:
95,86,65399,2,0,P|37:69|-8:64,1,97.9200005976563,2|0,0:0|3:2,0:0:0:0:
127,275,65709,1,2,3:2:0:0:
266,113,65865,2,0,B|327:95|327:95|374:106|427:108,1,146.880000896484,8|0,0:0|0:0,0:0:0:0:
436,130,66176,6,0,P|458:75|446:29,1,97.9200005976563,2|0,3:2|0:0,0:0:0:0:
334,238,66487,1,8,0:0:0:0:
512,292,66642,2,0,P|496:224|492:167,1,97.9200005976563,2|0,0:0|3:0,0:0:0:0:
280,372,66953,1,0,3:0:0:0:
482,302,67108,1,10,0:0:0:0:
309,249,67264,6,0,B|211:229|228:297|104:269,1,195.840001195313,6|0,3:2|3:0,0:0:0:0:
14,153,67730,1,8,0:0:0:0:
98,299,67886,1,0,0:0:0:0:
197,108,68041,1,0,3:0:0:0:
35,168,68196,1,0,3:0:0:0:
286,235,68352,1,10,0:0:0:0:
239,5,68507,6,0,P|148:-4|96:86,1,195.840001195313,2|0,3:2|3:0,0:0:0:0:
240,309,68974,1,10,0:0:0:0:
189,81,69129,1,2,0:0:0:0:
238,293,69285,1,0,3:2:0:0:
263,37,69440,1,0,3:0:0:0:
163,329,69595,1,10,0:0:0:0:
412,176,69751,6,0,B|373:170|337:156|337:156|293:175|293:175|262:164|215:162,1,195.840001195313,6|0,3:2|3:0,0:0:0:0:
199,161,70139,1,0,3:0:0:0:
199,161,70217,1,10,0:0:0:0:
399,61,70373,1,0,3:0:0:0:
175,250,70528,1,2,0:0:0:0:
417,173,70683,5,8,0:0:0:0:
426,220,70760,1,8,0:0:0:0:
406,263,70839,1,8,0:0:0:0:
383,304,70916,1,8,0:0:0:0:
399,348,70994,1,8,0:0:0:0:
444,364,71072,1,8,0:0:0:0:
485,341,71150,6,0,P|486:274|467:174,1,146.880000896484,6|0,3:2|0:0,0:0:0:0:
450,183,71461,2,0,P|441:122|467:96,1,97.9200005976563,10|0,0:0|0:0,0:0:0:0:
301,223,71772,2,0,P|230:255|156:217,1,146.880000896484,2|0,3:2|0:0,0:0:0:0:
151,242,72082,2,0,P|95:217|44:220,1,97.9200005976563,10|0,0:0|0:0,0:0:0:0:
213,1,72393,6,0,B|232:40|232:40|217:99|228:147,1,146.880000896484,2|0,3:2|0:0,0:0:0:0:
234,162,72704,1,8,0:0:0:0:
119,52,72860,2,0,P|61:33|12:26,1,97.9200005976563,2|0,0:0|3:0,0:0:0:0:
329,103,73171,2,0,P|377:94|423:78,1,97.9200005976563,2|8,3:2|0:0,0:0:0:0:
117,233,73481,6,0,P|118:332|207:302,1,195.840001195313,2|0,3:2|3:0,0:0:0:0:
422,202,73948,1,8,0:0:0:0:
215,248,74103,1,0,0:0:0:0:
409,311,74259,1,2,3:2:0:0:
329,103,74414,1,0,3:0:0:0:
259,354,74569,1,8,0:0:0:0:
54,282,74725,1,0,0:0:0:0:
192,153,74880,6,0,P|211:219|215:268,1,97.9200005976563,2|0,3:2|0:0,0:0:0:0:
57,375,75191,2,0,P|42:328|35:280,1,97.9200005976563,8|2,0:0|0:0,0:0:0:0:
112,94,75502,1,0,3:0:0:0:
36,258,75658,1,0,3:0:0:0:
46,47,75813,2,0,P|117:9|176:47,1,146.880000896484,10|0,0:0|0:0,0:0:0:0:
210,101,76124,6,0,B|242:122|242:122|290:90|374:97,1,146.880000896484,2|0,3:2|0:0,0:0:0:0:
363,115,76435,2,0,P|396:61|375:33,1,97.9200005976563,10|0,0:0|3:0,0:0:0:0:
246,203,76746,2,0,P|236:282|259:357,1,146.880000896484,2|0,3:2|0:0,0:0:0:0:
263,364,77057,2,0,P|324:350|366:350,1,97.9200005976563,10|0,0:0|0:0,0:0:0:0:
126,259,77367,6,0,P|52:247|36:333,1,146.880000896484,2|0,3:2|0:0,0:0:0:0:
29,324,77678,1,8,0:0:0:0:
139,136,77834,1,2,3:2:0:0:
21,64,77989,1,0,3:0:0:0:
140,289,78145,1,2,3:2:0:0:
210,20,78300,1,8,0:0:0:0:
48,150,78456,6,0,P|116:157|227:196,1,146.880000896484,6|0,3:2|0:0,0:0:0:0:
207,183,78766,1,0,3:0:0:0:
379,93,78922,2,0,P|390:27|373:-11,1,97.9200005976563,8|0,0:0|0:0,0:0:0:0:
223,105,79233,1,2,3:2:0:0:
428,157,79388,1,0,3:0:0:0:
391,367,79544,2,0,B|383:326|383:326|385:291|385:291|374:270|365:205,1,146.880000896484,8|0,0:0|0:0,0:0:0:0:
352,209,79854,6,0,P|301:185|221:285,1,195.840001195313,2|8,3:2|0:0,0:0:0:0:
315,105,80321,1,2,0:0:0:0:
116,127,80476,1,2,3:2:0:0:
227,296,80632,1,2,3:2:0:0:
335,102,80787,2,0,P|346:46|319:12,1,97.9200005976563,10|0,0:0|3:0,0:0:0:0:
137,238,81098,6,0,B|241:229|213:292|354:266,1,195.840001195313,6|8,3:2|0:0,0:0:0:0:
225,155,81564,1,2,0:0:0:0:
277,361,81720,1,2,3:2:0:0:
77,280,81875,1,0,3:0:0:0:
238,141,82031,2,0,P|305:144|338:176,1,97.9200005976563,10|0,0:0|3:0,0:0:0:0:
122,345,82342,6,0,P|109:278|110:190,1,146.880000896484,2|0,3:2|0:0,0:0:0:0:
122,172,82652,1,10,0:0:0:0:
7,332,82808,2,0,P|-5:272|6:214,1,97.9200005976563,0|2,3:0|0:0,0:0:0:0:
61,39,83119,1,2,3:2:0:0:
196,270,83274,2,0,P|273:252|261:182,1,146.880000896484,8|0,0:0|0:0,0:0:0:0:
218,151,83585,6,0,P|220:102|236:38,1,97.9200005976563,6|0,3:2|0:0,0:0:0:0:
352,232,83896,2,0,L|454:263,1,97.9200005976563,10|0,0:0|0:0,0:0:0:0:
319,104,84207,1,2,3:2:0:0:
155,203,84362,2,0,L|53:234,1,97.9200005976563,2|8,3:2|0:0,0:0:0:0:
172,56,84673,1,0,3:0:0:0:
347,125,84829,2,0,L|441:97,1,97.9200005976563,2|0,3:2|0:0,0:0:0:0:
258,0,85139,1,10,0:0:0:0:
93,77,85295,2,0,L|-1:49,1,97.9200005976563,2|2,3:2|0:0,0:0:0:0:
112,0,85606,1,0,3:0:0:0:
177,174,85761,2,0,P|194:249|193:356,1,146.880000896484,8|0,0:0|0:0,0:0:0:0:
182,345,86072,6,0,P|119:367|84:341,1,97.9200005976563,2|0,3:2|0:0,0:0:0:0:
283,277,86383,2,0,L|403:251,1,97.9200005976563,8|2,0:0|0:0,0:0:0:0:
103,245,86694,2,0,L|-17:219,1,97.9200005976563,2|0,3:2|3:0,0:0:0:0:
285,167,87005,1,10,0:0:0:0:
139,31,87160,2,0,L|95:228,1,195.840001195313,2|0,0:0|0:0,0:0:0:0:
290,144,87626,2,0,L|315:20,1,97.9200005976563,10|0,0:0|3:0,0:0:0:0:
187,177,87937,1,2,3:2:0:0:
361,267,88093,1,0,0:0:0:0:
208,379,88248,2,0,P|303:340|339:355,1,146.880000896484,10|0,0:0|0:0,0:0:0:0:
366,370,88559,6,0,P|399:303|386:272,1,97.9200005976563,6|2,3:2|3:2,0:0:0:0:
246,88,88870,1,10,0:0:0:0:
276,307,89025,1,0,0:0:0:0:
405,164,89181,1,2,3:2:0:0:
205,222,89336,1,0,3:0:0:0:
366,370,89492,1,10,0:0:0:0:
146,281,89647,1,0,3:0:0:0:
250,33,89803,5,10,3:2:0:0:
70,186,89958,1,0,3:0:0:0:
321,287,90114,1,0,3:0:0:0:
69,85,90269,5,8,0:0:0:0:
69,348,90424,1,2,3:2:0:0:
299,198,90580,1,0,3:0:0:0:
10,48,90735,6,0,L|-8:101,1,48.9600002988281,10|0,0:0|0:0,0:0:0:0:
171,255,90891,2,0,L|155:209,1,48.9600002988281,10|10,0:0|0:0,0:0:0:0:
81,133,91046,6,0,P|55:191|62:276,1,138.240003375,6|8,3:2|0:0,0:0:0:0:
240,320,91513,2,0,P|267:257|263:189,1,138.240003375,2|0,3:2|0:0,0:0:0:0:
184,101,91979,1,8,0:0:0:0:
276,24,92134,1,0,3:0:0:0:
276,24,92290,1,0,3:0:0:0:
276,24,92601,6,0,P|352:54|414:45,1,138.240003375,10|0,0:0|0:0,0:0:0:0:
504,51,93067,1,2,0:0:0:0:
434,133,93222,1,8,0:0:0:0:
434,133,93378,1,0,3:0:0:0:
512,332,93533,6,0,P|518:267|490:186,1,138.240003375,2|8,3:2|0:0,0:0:0:0:
356,77,94000,2,0,P|335:143|341:211,1,138.240003375,2|2,3:2|0:0,0:0:0:0:
386,300,94466,1,8,0:0:0:0:
290,343,94621,1,0,3:0:0:0:
290,343,94777,1,0,3:0:0:0:
290,343,95088,6,0,P|226:363|169:308,1,138.240003375,10|0,0:0|0:0,0:0:0:0:
147,226,95554,1,2,0:0:0:0:
71,284,95709,1,8,0:0:0:0:
223,216,95865,1,0,3:0:0:0:
131,132,96020,6,0,P|116:182|113:219,1,69.1200016875,2|0,3:2|0:0,0:0:0:0:
219,100,96331,1,8,0:0:0:0:
73,54,96487,2,0,P|39:134|35:206,1,138.240003375,2|0,3:2|0:0,0:0:0:0:
106,275,96953,1,8,0:0:0:0:
37,359,97108,1,0,3:0:0:0:
37,359,97264,1,0,3:0:0:0:
37,359,97575,6,0,P|151:344|192:353,1,138.240003375,10|0,0:0|0:0,0:0:0:0:
258,278,98041,1,2,0:0:0:0:
337,376,98196,1,8,0:0:0:0:
337,376,98352,1,0,3:0:0:0:
169,308,98507,5,2,3:2:0:0:
316,214,98663,1,0,0:0:0:0:
243,377,98818,1,8,0:0:0:0:
403,295,98974,1,2,3:2:0:0:
293,186,99129,1,0,0:0:0:0:
337,376,99285,1,0,0:0:0:0:
424,177,99440,1,10,0:0:0:0:
424,177,99595,6,0,P|366:188|279:137,1,138.240003375,0|2,3:0|0:0,0:0:0:0:
