osu file format v14

[General]
AudioFilename: audio.ogg
AudioLeadIn: 0
PreviewTime: 50632
Countdown: 0
SampleSet: Soft
StackLeniency: 0.3
Mode: 0
LetterboxInBreaks: 0
WidescreenStoryboard: 0

[Editor]
DistanceSpacing: 1.8
BeatDivisor: 4
GridSize: 32
TimelineZoom: 1

[Metadata]
Title:Full Moon Full Life -Opening Movie version-
TitleUnicode:Full Moon Full Life -Opening Movie version-
Artist:Azumi Takahashi feat. Lotus Juice
ArtistUnicode:高橋あず美 feat. Lotus Juice
Creator:Nyukai
Version:Expert
Source:ペルソナ3 リロード
Tags:atsushi kitajo 喜多條敦志 atlus sega persona 3 reload p3 spinoff spin-off shin megami tensei rpg jrpg j-rpg ペルソナ video game videogame opening remake kanui supav freezinganimenz sotarks rap english pop
BeatmapID:4449989
BeatmapSetID:2118662

[Difficulty]
HPDrainRate:5.5
CircleSize:4.2
OverallDifficulty:8.5
ApproachRate:9.2
SliderMultiplier:1.7
SliderTickRate:1

[Events]
//Background and Video events
Video,45,"persona.avi"
0,0,"background.jpg",0,0
//Break Periods
//Storyboard Layer 0 (Background)
//Storyboard Layer 1 (Fail)
//Storyboard Layer 2 (Pass)
//Storyboard Layer 3 (Foreground)
//Storyboard Layer 4 (Overlay)
//Storyboard Sound Samples

[TimingPoints]
1513,310.880829015544,4,2,2,50,1,0
1513,-133.333333333333,4,2,2,50,0,0
2989,-133.333333333333,4,2,2,5,0,0
3067,-133.333333333333,4,2,2,50,0,0
5476,-133.333333333333,4,2,2,5,0,0
5554,-133.333333333333,4,2,2,50,0,0
11461,-100,4,2,2,60,0,0
20165,-133.333333333333,4,2,1,60,0,0
20243,-133.333333333333,4,2,1,10,0,0
21331,-133.333333333333,4,2,1,5,0,0
21409,-133.333333333333,4,2,2,60,0,0
39751,-117.647058823529,4,2,1,70,0,0
51253,-100,4,2,1,80,0,1
62678,-100,4,2,1,5,0,1
62756,-100,4,2,1,80,0,1
71072,-100,4,2,1,80,0,0
71150,-100,4,2,1,80,0,1
91046,-133.333333333333,4,2,2,60,0,0
93533,-133.333333333333,4,2,2,50,0,0

[Colours]
Combo1 : 173,191,233
Combo2 : 236,168,199

[HitObjects]
246,120,1513,6,0,P|192:138|122:87,1,127.500004863739,2|8,3:2|0:0,0:0:0:0:
23,71,1979,2,0,L|39:197,1,127.500004863739,2|2,3:2|0:0,0:0:0:0:
63,288,2445,1,8,0:0:0:0:
140,342,2601,1,0,3:0:0:0:
140,342,2756,6,0,P|195:325|242:343,1,95.6250036478044,0|0,3:0|0:0,0:0:0:0:
271,336,3067,1,10,0:0:0:0:
366,289,3222,2,0,B|382:248|382:248|413:229|413:229|426:160,1,127.500004863739,0|2,3:0|0:0,0:0:0:0:
305,131,3689,2,0,L|315:203,1,63.7500024318696,8|0,0:0|0:0,0:0:0:0:
323,39,4000,6,0,B|257:24|265:84|191:73,1,127.500004863739,2|8,3:2|0:0,0:0:0:0:
141,147,4466,2,0,P|125:184|151:268,1,127.500004863739,2|2,3:2|0:0,0:0:0:0:
235,215,4932,1,8,0:0:0:0:
310,149,5088,1,0,3:0:0:0:
310,149,5243,6,0,B|341:164|366:159|366:159|416:187,1,95.6250036478044,0|0,3:0|0:0,0:0:0:0:
435,198,5554,1,10,0:0:0:0:
476,284,5709,2,0,P|464:314|456:345,1,63.7500024318696,0|2,3:0|0:0,0:0:0:0:
299,248,6020,1,2,0:0:0:0:
354,355,6176,1,10,0:0:0:0:
226,326,6331,1,2,0:0:0:0:
401,244,6487,6,0,P|433:192|400:110,1,127.500004863739,2|10,3:2|0:0,0:0:0:0:
327,58,6953,1,0,3:0:0:0:
258,156,7108,2,0,L|321:163,1,63.7500024318696,2|0,0:0|0:0,0:0:0:0:
390,51,7419,2,0,L|327:58,1,63.7500024318696,8|0,0:0|3:0,0:0:0:0:
182,61,7730,6,0,B|137:72|137:72|102:71|102:71|87:88|54:100,1,127.500004863739,0|10,3:0|0:0,0:0:0:0:
36,185,8196,1,0,3:0:0:0:
36,185,8352,2,0,L|51:248,1,63.7500024318696,2|0,0:0|3:0,0:0:0:0:
134,198,8663,2,0,L|148:135,1,63.7500024318696,8|2,0:0|0:0,0:0:0:0:
250,68,8974,6,0,P|300:89|316:164,1,127.500004863739,0|8,3:0|0:0,0:0:0:0:
233,211,9440,1,0,3:0:0:0:
139,259,9595,2,0,P|129:217|146:175,1,63.7500024318696,2|0,0:0|0:0,0:0:0:0:
250,68,9906,2,0,P|253:99|244:129,1,63.7500024318696,8|2,0:0|3:2,0:0:0:0:
138,142,10217,6,0,L|93:132,3,31.8750012159348,2|2|2|2,3:2|0:0|0:0|0:0,0:0:0:0:
220,106,10528,1,10,0:0:0:0:
243,100,10605,1,2,0:0:0:0:
266,95,10683,1,2,3:2:0:0:
290,90,10761,1,2,0:0:0:0:
315,85,10839,2,0,L|304:30,1,31.8750012159348,10|2,0:0|0:0,0:0:0:0:
405,100,10994,2,0,L|398:131,1,31.8750012159348,2|2,0:0|0:0,0:0:0:0:
325,204,11150,5,10,0:0:0:0:
334,234,11227,1,2,0:0:0:0:
343,265,11305,1,2,0:0:0:0:
352,295,11383,1,2,0:0:0:0:
361,326,11461,6,0,B|265:294|291:354|170:326,1,170,6|8,3:2|0:0,0:0:0:0:
88,350,11927,2,0,P|67:313|61:271,1,85,2|0,3:2|0:0,0:0:0:0:
167,191,12238,1,0,0:0:0:0:
133,72,12393,2,0,P|87:92|57:127,1,85,10|0,0:0|3:0,0:0:0:0:
167,191,12704,5,2,3:2:0:0:
281,139,12860,2,0,P|303:85|311:44,1,85,2|8,0:0|0:0,0:0:0:0:
263,249,13171,2,0,P|273:290|291:329,1,85,2|0,3:2|0:0,0:0:0:0:
181,180,13481,1,0,0:0:0:0:
79,324,13637,2,0,P|120:311|157:290,1,85,10|0,0:0|0:0,0:0:0:0:
303,125,13948,6,0,P|263:84|155:99,1,170,2|8,3:2|0:0,0:0:0:0:
36,179,14414,2,0,P|51:130|58:85,1,85,2|0,3:2|0:0,0:0:0:0:
145,7,14725,1,0,0:0:0:0:
221,172,14880,2,0,P|276:200|305:218,1,85,10|0,0:0|0:0,0:0:0:0:
404,296,15191,5,2,3:2:0:0:
259,360,15347,2,0,P|244:307|232:265,1,85,2|8,0:0|0:0,0:0:0:0:
415,114,15658,2,0,P|403:154|391:195,1,85,2|0,3:2|0:0,0:0:0:0:
348,297,15968,1,0,3:0:0:0:
192,170,16124,2,0,P|231:161|278:168,1,85,10|0,0:0|0:0,0:0:0:0:
201,299,16435,6,0,B|142:279|142:279|108:292|108:292|77:271|28:274,1,170,2|8,3:2|0:0,0:0:0:0:
81,113,16901,2,0,L|101:209,1,85,2|0,3:2|0:0,0:0:0:0:
211,331,17212,1,2,0:0:0:0:
295,187,17367,1,10,0:0:0:0:
137,256,17523,1,2,0:0:0:0:
314,282,17678,6,0,P|364:274|398:256,1,85,2|0,3:2|0:0,0:0:0:0:
452,150,17989,1,10,0:0:0:0:
285,22,18145,2,0,B|292:80|292:80|278:106|278:106|296:194,1,170,2|2,3:2|0:0,0:0:0:0:
292,317,18611,1,8,0:0:0:0:
176,237,18766,1,0,0:0:0:0:
389,203,18922,6,0,P|435:149|405:56,1,170,2|8,3:2|0:0,0:0:0:0:
253,92,19388,2,0,P|316:121|350:128,1,85,2|0,3:2|0:0,0:0:0:0:
489,207,19699,1,2,0:0:0:0:
358,320,19854,2,0,L|348:236,1,85,10|2,0:0|0:0,0:0:0:0:
253,92,20165,5,2,0:0:0:0:
256,192,20243,12,0,21331,0:0:0:0:
263,237,21409,6,0,B|326:238|315:278|384:275,1,127.500004863739,2|8,3:2|0:0,0:0:0:0:
457,214,21875,1,2,3:2:0:0:
457,214,22342,2,0,P|431:167|441:91,1,127.500004863739,2|0,0:0|3:0,0:0:0:0:
371,32,22808,2,0,L|297:41,1,63.7500024318696,2|8,0:0|0:0,0:0:0:0:
211,102,23119,1,0,3:0:0:0:
310,161,23274,1,2,0:0:0:0:
310,161,23585,2,0,L|321:235,1,63.7500024318696,8|2,0:0|3:2,0:0:0:0:
331,332,23896,6,0,P|277:316|191:355,1,127.500004863739,0|8,3:0|0:0,0:0:0:0:
133,276,24362,1,2,3:2:0:0:
133,276,24829,2,0,L|60:285,1,63.7500024318696,2|0,0:0|3:0,0:0:0:0:
121,180,25139,1,0,3:2:0:0:
229,204,25295,2,0,P|247:235|250:272,1,63.7500024318696,2|8,0:0|0:0,0:0:0:0:
150,293,25606,1,0,3:0:0:0:
121,180,25761,2,0,L|136:107,1,63.7500024318696,2|0,0:0|0:0,0:0:0:0:
201,15,26072,2,0,L|213:77,1,63.7500024318696,8|2,0:0|3:2,0:0:0:0:
340,80,26383,6,0,P|380:109|471:96,1,127.500004863739,0|10,3:0|0:0,0:0:0:0:
483,192,26849,2,0,P|464:237|460:264,1,63.7500024318696,0|0,3:0|0:0,0:0:0:0:
328,324,27160,1,2,0:0:0:0:
426,363,27316,1,8,0:0:0:0:
366,204,27471,1,2,3:2:0:0:
277,244,27626,2,0,B|230:223|196:233|196:233|188:260|158:278,1,127.500004863739,0|10,3:0|0:0,0:0:0:0:
143,354,28093,1,0,3:0:0:0:
264,332,28248,2,0,L|334:323,1,63.7500024318696,2|0,0:0|0:0,0:0:0:0:
143,354,28559,2,0,L|73:345,1,63.7500024318696,10|0,0:0|3:0,0:0:0:0:
42,240,28870,6,0,B|39:241|7:213|7:213|-4:189|25:131,1,127.500004863739,2|8,3:2|0:0,0:0:0:0:
107,84,29336,2,0,P|163:102|225:62,1,127.500004863739,2|0,3:2|0:0,0:0:0:0:
152,19,29803,1,10,0:0:0:0:
152,19,29958,2,0,P|162:56|185:148,1,127.500004863739,0|2,3:0|0:0,0:0:0:0:
233,220,30424,2,0,P|197:231|163:228,1,63.7500024318696,8|0,0:0|3:0,0:0:0:0:
61,312,30735,2,0,P|105:302|168:358,1,127.500004863739,0|10,3:0|0:0,0:0:0:0:
293,280,31202,1,0,3:0:0:0:
293,280,31357,6,0,B|352:275|354:303|437:295,1,127.500004863739,2|8,3:2|0:0,0:0:0:0:
334,185,31823,1,2,3:2:0:0:
334,185,32290,2,0,B|316:145|316:145|295:128|295:128|271:71,1,127.500004863739,2|0,0:0|3:0,0:0:0:0:
192,25,32756,1,0,3:0:0:0:
86,121,32911,2,0,P|70:158|66:193,1,63.7500024318696,10|0,0:0|3:0,0:0:0:0:
156,208,33222,2,0,P|172:171|176:136,1,63.7500024318696,2|0,0:0|0:0,0:0:0:0:
155,56,33533,1,10,0:0:0:0:
267,150,33689,1,2,3:2:0:0:
267,150,33844,6,0,P|328:144|382:209,1,127.500004863739,0|8,3:0|0:0,0:0:0:0:
390,276,34310,1,2,3:2:0:0:
390,276,34621,1,2,0:0:0:0:
294,294,34777,2,0,L|314:365,1,63.7500024318696,2|0,0:0|3:0,0:0:0:0:
477,238,35088,2,0,P|489:167|460:90,1,127.500004863739,0|8,3:0|0:0,0:0:0:0:
375,31,35554,2,0,L|364:97,1,63.7500024318696,0|0,3:0|0:0,0:0:0:0:
296,173,35865,1,2,0:0:0:0:
182,90,36020,2,0,P|214:87|245:94,1,63.7500024318696,10|0,0:0|3:0,0:0:0:0:
364,247,36331,6,0,P|315:278|235:266,1,127.500004863739,2|8,3:2|0:0,0:0:0:0:
139,198,36797,2,0,L|155:353,1,127.500004863739,2|0,3:2|0:0,0:0:0:0:
236,184,37264,2,0,P|234:143|234:108,1,63.7500024318696,10|0,0:0|3:0,0:0:0:0:
338,52,37575,2,0,P|367:85|450:58,1,127.500004863739,0|8,3:0|0:0,0:0:0:0:
441,70,38041,1,0,3:0:0:0:
482,164,38196,2,0,P|474:212|462:242,1,63.7500024318696,2|0,0:0|0:0,0:0:0:0:
367,183,38507,2,0,P|375:135|387:105,1,63.7500024318696,10|0,0:0|3:0,0:0:0:0:
425,296,38818,6,0,B|366:270|366:270|294:316,1,127.500004863739,2|8,3:2|0:0,0:0:0:0:
220,313,39285,2,0,P|212:225|253:189,1,127.500004863739,2|0,3:2|3:0,0:0:0:0:
405,94,39751,5,10,0:0:0:0:
295,42,39906,1,0,3:0:0:0:
278,178,40062,5,8,0:0:0:0:
415,46,40217,1,2,3:2:0:0:
422,197,40373,5,8,0:0:0:0:
237,99,40528,1,0,3:0:0:0:
449,25,40683,5,8,0:0:0:0:
332,232,40839,1,8,0:0:0:0:
143,115,40994,5,10,0:0:0:0:
353,21,41150,1,10,0:0:0:0:
287,319,41305,6,0,P|252:269|164:271,1,144.500002756119,6|2,3:2|0:0,0:0:0:0:
22,182,41772,1,0,3:0:0:0:
47,337,41927,2,0,P|72:297|104:191,1,144.500002756119,8|0,0:0|3:0,0:0:0:0:
174,116,42393,2,0,P|214:134|231:159,1,72.2500013780594,2|0,0:0|0:0,0:0:0:0:
67,95,42704,2,0,P|27:77|7:50,1,72.2500013780594,2|0,0:0|3:0,0:0:0:0:
147,12,43015,1,0,0:0:0:0:
255,49,43171,2,0,B|323:31|318:88|394:70,1,144.500002756119,10|2,0:0|0:0,0:0:0:0:
483,26,43637,1,2,3:2:0:0:
397,187,43792,6,0,B|352:228|352:228|371:310,1,144.500002756119,2|2,3:2|0:0,0:0:0:0:
455,346,44259,1,0,3:0:0:0:
271,270,44414,1,10,0:0:0:0:
271,270,44569,2,0,P|214:252|150:298,1,144.500002756119,2|0,0:0|3:0,0:0:0:0:
25,224,45036,1,2,0:0:0:0:
150,299,45191,1,2,0:0:0:0:
45,377,45347,2,0,L|64:302,1,72.2500013780594,2|0,0:0|3:0,0:0:0:0:
128,164,45658,2,0,B|165:158|200:178|200:178|268:133,1,144.500002756119,10|2,0:0|0:0,0:0:0:0:
327,67,46124,1,2,0:0:0:0:
454,197,46279,6,0,P|408:220|313:231,1,144.500002756119,0|2,3:0|0:0,0:0:0:0:
191,176,46746,1,0,3:0:0:0:
199,331,46901,2,0,P|217:288|224:258,1,72.2500013780594,10|0,0:0|0:0,0:0:0:0:
90,77,47212,2,0,P|77:145|96:220,1,144.500002756119,2|2,3:2|0:0,0:0:0:0:
95,218,47834,1,0,3:0:0:0:
224,162,47989,1,2,0:0:0:0:
209,41,48145,2,0,P|167:26|88:80,1,144.500002756119,10|2,0:0|0:0,0:0:0:0:
32,158,48611,1,0,3:0:0:0:
29,319,48766,6,0,P|90:321|165:261,1,144.500002756119,6|2,3:2|0:0,0:0:0:0:
221,193,49233,1,0,3:0:0:0:
332,281,49388,2,0,P|279:303|254:321,1,72.2500013780594,10|0,0:0|0:0,0:0:0:0:
206,161,49699,1,2,3:2:0:0:
399,143,49854,1,12,0:0:0:0:
399,143,50010,2,0,P|437:99|415:12,1,144.500002756119,2|0,0:0|3:0,0:0:0:0:
266,17,50632,5,10,0:0:0:0:
183,201,50787,1,8,0:0:0:0:
183,201,50865,1,8,0:0:0:0:
183,201,50943,1,8,0:0:0:0:
390,60,51098,1,10,0:0:0:0:
276,296,51253,6,0,P|223:290|179:286,1,85,6|0,3:2|0:0,0:0:0:0:
74,122,51564,2,0,P|127:116|171:112,1,85,10|0,0:0|0:0,0:0:0:0:
417,88,51875,1,2,3:2:0:0:
162,201,52031,1,0,0:0:0:0:
291,17,52186,2,0,L|273:112,1,85,10|0,0:0|0:0,0:0:0:0:
129,337,52497,6,0,P|186:288|303:318,1,170,2|8,3:2|0:0,0:0:0:0:
403,181,52963,2,0,P|415:245|424:285,1,85,2|0,0:0|3:2,0:0:0:0:
281,75,53274,1,2,3:2:0:0:
504,160,53430,1,8,0:0:0:0:
237,259,53585,6,0,B|175:231|127:254|127:254|118:220|91:196,1,170,2|0,3:2|3:0,0:0:0:0:
46,57,54051,2,0,P|31:105|18:154,1,85,8|0,0:0|0:0,0:0:0:0:
174,148,54362,1,2,0:0:0:0:
14,217,54518,1,0,3:0:0:0:
172,63,54673,2,0,P|236:49|276:43,1,85,8|0,0:0|3:0,0:0:0:0:
464,130,54984,6,0,B|451:190|451:190|464:221|464:221|442:293,1,170,2|8,0:0|0:0,0:0:0:0:
242,359,55450,1,2,0:0:0:0:
296,195,55606,1,0,3:0:0:0:
442,292,55761,1,0,3:0:0:0:
175,215,55917,2,0,L|198:133,1,85,10|0,0:0|3:0,0:0:0:0:
37,258,56228,6,0,L|66:357,1,85,2|0,3:2|0:0,0:0:0:0:
277,273,56538,2,0,P|298:233|295:192,1,85,10|0,0:0|0:0,0:0:0:0:
186,34,56849,1,2,3:2:0:0:
396,161,57005,1,0,3:0:0:0:
175,215,57160,2,0,L|78:199,1,85,10|0,0:0|0:0,0:0:0:0:
310,117,57471,6,0,P|366:76|485:116,1,170,2|8,3:2|0:0,0:0:0:0:
343,309,57937,2,0,P|332:242|328:216,1,85,2|0,0:0|3:2,0:0:0:0:
222,273,58248,1,2,0:0:0:0:
409,163,58404,1,8,0:0:0:0:
188,58,58559,6,0,B|136:62|136:62|115:91|115:91|73:85|31:119,1,170,6|0,3:2|3:0,0:0:0:0:
78,275,59025,2,0,P|86:233|103:195,1,85,8|0,0:0|0:0,0:0:0:0:
262,167,59336,1,2,3:2:0:0:
115,88,59492,1,0,3:0:0:0:
341,61,59647,2,0,L|241:27,1,85,10|0,0:0|0:0,0:0:0:0:
103,194,59958,6,0,L|203:160,1,85,2|0,3:2|0:0,0:0:0:0:
427,92,60269,1,8,0:0:0:0:
258,237,60424,1,2,3:2:0:0:
277,46,60580,1,0,3:0:0:0:
404,231,60735,1,0,3:0:0:0:
360,30,60891,2,0,P|325:41|276:47,1,85,10|0,0:0|0:0,0:0:0:0:
109,27,61202,6,0,P|89:70|87:112,1,85,2|0,3:2|0:0,0:0:0:0:
293,246,61512,2,0,L|271:163,1,85,8|0,0:0|0:0,0:0:0:0:
172,238,61823,1,2,3:2:0:0:
385,151,61979,1,0,3:0:0:0:
177,47,62134,2,0,L|159:133,1,85,8|0,0:0|0:0,0:0:0:0:
311,349,62445,6,0,P|388:358|437:315,1,127.5,2|0,3:2|0:0,0:0:0:0:
452,303,62756,1,8,0:0:0:0:
385,113,62911,2,0,P|385:159|381:210,1,85,2|0,0:0|3:2,0:0:0:0:
227,229,63222,1,2,3:2:0:0:
385,113,63378,1,8,0:0:0:0:
214,65,63533,1,0,3:0:0:0:
398,276,63689,6,0,L|314:290,1,85,2|0,3:2|0:0,0:0:0:0:
121,207,64000,2,0,P|100:263|107:306,1,85,8|0,0:0|0:0,0:0:0:0:
285,153,64310,1,2,3:2:0:0:
102,288,64466,1,0,3:0:0:0:
246,370,64621,2,0,L|232:275,1,85,8|0,0:0|0:0,0:0:0:0:
133,47,64932,6,0,P|112:91|117:139,1,85,2|0,3:2|0:0,0:0:0:0:
356,249,65243,1,8,0:0:0:0:
133,307,65399,2,0,L|41:337,1,85,2|0,0:0|3:2,0:0:0:0:
193,152,65709,1,2,3:2:0:0:
330,327,65865,2,0,P|354:280|352:232,1,85,8|0,0:0|0:0,0:0:0:0:
272,29,66176,6,0,P|319:73|449:57,1,170,2|8,3:2|0:0,0:0:0:0:
478,197,66642,1,2,0:0:0:0:
330,327,66797,2,0,L|304:235,1,85,0|0,3:0|3:0,0:0:0:0:
193,55,67108,1,10,0:0:0:0:
43,231,67264,6,0,B|88:197|145:213|145:213|160:253|199:269,1,170,6|0,3:2|3:0,0:0:0:0:
330,327,67730,1,8,0:0:0:0:
225,186,67886,1,0,0:0:0:0:
432,111,68041,2,0,P|422:168|416:225,1,85,0|0,3:0|3:0,0:0:0:0:
306,352,68352,5,10,0:0:0:0:
183,260,68507,1,2,3:2:0:0:
418,194,68663,5,2,0:0:0:0:
207,300,68818,1,0,3:0:0:0:
299,158,68974,1,10,0:0:0:0:
406,307,69129,2,0,L|507:292,1,85,2|0,0:0|3:2,0:0:0:0:
169,169,69440,5,0,3:0:0:0:
413,42,69595,2,0,L|395:134,1,85,10|6,0:0|3:2,0:0:0:0:
216,341,69906,5,2,3:2:0:0:
472,154,70062,1,0,3:0:0:0:
152,85,70217,2,0,L|170:177,1,85,10|0,0:0|3:0,0:0:0:0:
383,384,70528,6,0,P|405:344|402:294,1,85,2|8,0:0|0:0,0:0:0:0:
380,270,70761,1,8,0:0:0:0:
341,253,70838,1,8,0:0:0:0:
298,253,70916,1,8,0:0:0:0:
260,270,70994,1,8,0:0:0:0:
230,300,71071,1,8,0:0:0:0:
215,340,71150,6,0,L|196:248,1,85,6|0,3:2|0:0,0:0:0:0:
40,135,71461,2,0,L|23:219,1,85,10|0,0:0|0:0,0:0:0:0:
278,196,71772,1,2,3:2:0:0:
132,87,71927,1,0,3:0:0:0:
76,310,72082,2,0,P|132:297|173:294,1,85,10|0,0:0|0:0,0:0:0:0:
418,225,72393,6,0,P|458:167|406:76,1,170,2|8,3:2|0:0,0:0:0:0:
241,41,72860,2,0,L|265:144,1,85,2|0,0:0|3:0,0:0:0:0:
401,261,73171,1,2,3:2:0:0:
155,165,73326,1,8,0:0:0:0:
184,364,73481,6,0,P|250:321|355:328,1,170,2|0,3:2|3:0,0:0:0:0:
442,197,73948,2,0,L|341:210,1,85,8|0,0:0|0:0,0:0:0:0:
166,230,74259,1,2,3:2:0:0:
332,102,74414,1,0,3:0:0:0:
187,37,74569,2,0,P|197:94|203:123,1,85,8|0,0:0|0:0,0:0:0:0:
326,297,74880,6,0,B|284:268|239:280|239:280|217:315|163:317,1,170,2|8,3:2|0:0,0:0:0:0:
59,227,75347,1,2,0:0:0:0:
287,202,75502,1,0,3:0:0:0:
202,120,75658,1,0,3:0:0:0:
80,333,75813,2,0,L|62:249,1,85,10|0,0:0|0:0,0:0:0:0:
62,65,76124,6,0,P|111:77|138:102,1,85,2|0,3:2|0:0,0:0:0:0:
309,218,76435,2,0,P|276:245|235:253,1,85,10|0,0:0|3:0,0:0:0:0:
74,201,76746,1,2,3:2:0:0:
209,352,76901,1,0,3:0:0:0:
243,133,77057,2,0,P|256:71|268:33,1,85,10|0,0:0|0:0,0:0:0:0:
425,172,77367,6,0,B|449:197|458:227|458:227|408:341,1,170,2|8,3:2|0:0,0:0:0:0:
246,208,77834,1,2,3:2:0:0:
328,381,77989,1,0,3:0:0:0:
143,283,78145,1,2,3:2:0:0:
354,118,78300,1,8,0:0:0:0:
113,38,78456,6,0,P|47:67|35:177,1,170,6|0,3:2|3:0,0:0:0:0:
152,244,78922,2,0,L|252:223,1,85,8|0,0:0|0:0,0:0:0:0:
405,91,79233,1,2,3:2:0:0:
215,134,79388,1,0,3:0:0:0:
355,306,79544,2,0,P|375:260|384:211,1,85,8|0,0:0|0:0,0:0:0:0:
402,64,79854,6,0,B|332:79|332:79|305:79|305:79|226:103,1,170,2|8,3:2|0:0,0:0:0:0:
66,169,80321,1,2,0:0:0:0:
176,23,80476,1,2,3:2:0:0:
250,184,80632,1,2,3:2:0:0:
37,152,80787,2,0,L|24:53,1,85,10|0,0:0|3:0,0:0:0:0:
154,212,81098,6,0,L|131:384,1,170,6|8,3:2|0:0,0:0:0:0:
36,282,81564,1,2,0:0:0:0:
250,184,81720,1,2,3:2:0:0:
225,372,81875,1,0,3:0:0:0:
79,168,82031,2,0,L|90:83,1,85,10|0,0:0|3:0,0:0:0:0:
311,42,82342,6,0,B|374:38|405:71|405:71|393:103|426:141,1,170,2|10,3:2|0:0,0:0:0:0:
269,260,82808,2,0,P|258:219|266:177,1,85,0|2,3:0|0:0,0:0:0:0:
488,84,83119,1,2,3:2:0:0:
439,259,83274,2,0,P|429:333|426:366,1,85,8|0,0:0|0:0,0:0:0:0:
152,238,83585,6,0,P|147:195|140:153,1,85,6|0,3:2|0:0,0:0:0:0:
311,42,83896,2,0,P|304:84|299:126,1,85,10|0,0:0|0:0,0:0:0:0:
342,308,84207,1,2,3:2:0:0:
119,242,84362,1,2,3:2:0:0:
335,208,84518,2,0,P|383:199|426:195,1,85,8|0,0:0|3:0,0:0:0:0:
169,356,84829,6,0,B|134:318|73:325|73:325|43:303|47:259,1,170,2|10,3:2|0:0,0:0:0:0:
156,140,85295,1,2,3:2:0:0:
310,246,85450,2,0,L|211:276,1,85,2|0,0:0|3:0,0:0:0:0:
109,37,85761,2,0,L|208:67,1,85,8|0,0:0|0:0,0:0:0:0:
376,176,86072,6,0,P|409:262|351:326,1,170,2|8,3:2|0:0,0:0:0:0:
217,343,86538,1,2,0:0:0:0:
232,158,86694,2,0,L|262:247,1,85,2|0,3:2|3:0,0:0:0:0:
138,256,87005,1,10,0:0:0:0:
314,108,87160,1,2,0:0:0:0:
133,25,87316,6,0,P|115:71|118:109,1,85,2|0,3:2|0:0,0:0:0:0:
232,158,87626,1,10,0:0:0:0:
117,105,87782,1,0,3:0:0:0:
206,317,87937,2,0,P|224:271|221:233,1,85,2|0,3:2|0:0,0:0:0:0:
38,167,88248,2,0,P|21:205|23:248,1,85,10|0,0:0|0:0,0:0:0:0:
206,317,88559,5,6,3:2:0:0:
362,168,88715,1,2,3:2:0:0:
470,313,88870,2,0,L|376:347,1,85,10|0,0:0|0:0,0:0:0:0:
149,178,89181,2,0,L|243:212,1,85,2|0,3:2|3:0,0:0:0:0:
478,232,89492,1,10,0:0:0:0:
271,288,89647,1,0,3:0:0:0:
436,62,89803,5,10,3:2:0:0:
374,265,89958,1,0,3:0:0:0:
182,79,90114,2,0,P|136:73|91:88,1,85,0|8,3:0|0:0,0:0:0:0:
188,292,90424,2,0,P|234:298|279:283,1,85,2|0,3:2|3:0,0:0:0:0:
409,156,90735,1,10,0:0:0:0:
135,222,90891,1,10,0:0:0:0:
135,222,90968,1,10,0:0:0:0:
135,222,91046,6,0,P|103:264|120:348,1,127.500004863739,6|8,3:2|0:0,0:0:0:0:
194,355,91512,2,0,P|249:348|331:344,1,127.500004863739,2|0,3:2|0:0,0:0:0:0:
400,302,91979,1,8,0:0:0:0:
400,302,92134,1,0,3:0:0:0:
318,213,92290,2,0,P|298:175|318:93,1,127.500004863739,0|10,3:0|0:0,0:0:0:0:
262,29,92756,2,0,L|191:43,1,63.7500024318696,0|0,3:0|0:0,0:0:0:0:
91,23,93067,1,2,0:0:0:0:
107,169,93222,2,0,P|129:132|132:104,1,63.7500024318696,8|0,0:0|3:0,0:0:0:0:
40,243,93533,6,0,P|86:268|148:343,1,127.500004863739,2|8,3:2|0:0,0:0:0:0:
218,346,94000,2,0,P|261:308|260:232,1,127.500004863739,2|2,3:2|0:0,0:0:0:0:
202,175,94466,1,8,0:0:0:0:
202,175,94621,1,0,3:0:0:0:
305,115,94777,2,0,L|377:120,1,63.7500024318696,0|2,3:0|0:0,0:0:0:0:
476,92,95088,1,10,0:0:0:0:
442,196,95243,2,0,B|431:248|431:248|441:269|441:269|426:327,1,127.500004863739,0|2,3:0|0:0,0:0:0:0:
344,355,95709,2,0,L|329:289,1,63.7500024318696,8|0,0:0|3:0,0:0:0:0:
305,115,96020,6,0,P|256:138|175:107,1,127.500004863739,2|8,3:2|0:0,0:0:0:0:
97,82,96487,2,0,B|73:135|117:141|97:215,1,127.500004863739,2|0,3:2|0:0,0:0:0:0:
71,290,96953,1,8,0:0:0:0:
71,290,97108,1,0,3:0:0:0:
161,340,97264,2,0,B|208:322|208:322|291:348,1,127.500004863739,0|10,3:0|0:0,0:0:0:0:
323,270,97730,2,0,L|199:232,1,127.500004863739,2|2,3:2|0:0,0:0:0:0:
185,148,98196,2,0,P|212:111|243:102,1,63.7500024318696,8|0,0:0|3:0,0:0:0:0:
383,151,98507,6,0,P|430:160|439:89,1,127.500004863739,2|8,3:2|0:0,0:0:0:0:
317,86,98974,2,0,P|297:138|320:211,1,127.500004863739,2|0,3:2|0:0,0:0:0:0:
397,267,99440,1,10,0:0:0:0:
309,354,99595,2,0,P|252:328|171:348,1,127.500004863739,0|2,3:0|0:0,0:0:0:0:
