osu file format v14

[General]
AudioFilename: audio.ogg
AudioLeadIn: 0
PreviewTime: 56017
Countdown: 0
SampleSet: None
StackLeniency: 0.5
Mode: 0
LetterboxInBreaks: 0
WidescreenStoryboard: 1

[Editor]
Bookmarks: 11667,19097,56249,87828,106404,143556,175135,210429,210893,211357,211822,212286,212751,213215,213679,214144,214608,215073,215537,216001,216466,216930,217395
DistanceSpacing: 1.3
BeatDivisor: 4
GridSize: 32
TimelineZoom: 0.8

[Metadata]
Title:Tonari no Totoro
TitleUnicode:となりのトトロ
Artist:Azumi Inoue
ArtistUnicode:井上あずみ
Creator:dopaminos
Version:Min
Source:となりのトトロ
Tags:japanese pop ost hayao miyazaki 宮崎 駿 tonari no ghilbi studio anime syarika magitska midorijeon My Neighbour Neighbor Totoro 井上杏美
BeatmapID:4469855
BeatmapSetID:2014951

[Difficulty]
HPDrainRate:2
CircleSize:3.6
OverallDifficulty:3
ApproachRate:3.7
SliderMultiplier:1.1
SliderTickRate:1

[Events]
//Background and Video events
0,0,"bg.jpg",0,0
//Break Periods
2,210629,223238
//Storyboard Layer 0 (Background)
//Storyboard Layer 1 (Fail)
//Storyboard Layer 2 (Pass)
//Storyboard Layer 3 (Foreground)
//Storyboard Layer 4 (Overlay)
//Storyboard Sound Samples

[TimingPoints]
522,464.396284829721,4,2,1,25,1,0
4237,-100,4,2,1,30,0,0
11667,-100,4,2,1,45,0,0
19097,-100,4,2,1,40,0,0
52534,-100,4,2,1,50,0,0
56249,-95.2380952380952,4,2,1,55,0,0
87828,-100,4,2,1,50,0,0
106404,-100,4,2,1,40,0,0
139840,-100,4,2,1,50,0,0
143556,-95.2380952380952,4,2,1,55,0,0
175135,-100,4,2,1,55,0,0
178850,-95.2380952380952,4,2,1,60,0,0
217859,-95.2380952380952,4,2,1,45,0,0
225289,-95.2380952380952,4,2,1,60,0,0
240150,-95.2380952380952,4,2,1,25,0,0

[Colours]
Combo1 : 117,116,150
Combo2 : 75,115,68
Combo3 : 77,112,138

[HitObjects]
96,73,522,6,0,P|151:81|209:74,1,110,2|0,3:2|0:0,0:0:0:0:
244,35,1218,1,2,3:2:0:0:
244,35,1450,1,2,0:0:0:0:
321,113,1915,2,0,P|351:106|381:103,1,55,0|2,0:0|0:0,0:0:0:0:
413,142,2379,2,0,P|409:196|420:250,1,110,2|0,3:2|0:0,0:0:0:0:
459,289,3076,1,2,0:0:0:0:
459,289,3308,1,2,3:2:0:0:
369,352,3772,1,0,0:0:0:0:
278,288,4237,6,0,B|224:301|239:324|183:343,1,110,2|2,3:2|0:0,0:0:0:0:
137,316,4933,1,2,3:2:0:0:
74,225,5398,1,2,0:0:0:0:
139,136,5862,2,0,P|135:87|146:23,1,110,2|2,0:0|0:0,0:0:0:0:
195,5,6559,2,0,P|224:14|253:13,1,55,0|2,0:0|0:0,0:0:0:0:
303,8,7023,1,2,3:2:0:0:
303,8,7255,1,2,0:0:0:0:
372,93,7720,5,0,3:2:0:0:
372,93,7952,2,0,P|366:129|360:208,1,110,2|2,3:2|0:0,0:0:0:0:
399,241,8648,1,2,3:2:0:0:
309,304,9113,1,2,0:0:0:0:
210,255,9577,2,0,P|171:261|90:254,1,110,2|0,0:0|3:2,0:0:0:0:
61,217,10274,2,0,P|54:190|48:163,1,55,0|2,0:0|0:0,0:0:0:0:
87,124,10738,1,2,3:2:0:0:
119,79,10970,1,8,2:1:0:0:
87,33,11203,1,8,0:3:0:0:
192,3,11667,6,0,P|220:8|247:11,1,55,6|0,1:2|0:0,0:0:0:0:
286,49,12131,1,8,1:2:0:0:
286,49,12364,2,0,P|347:29|392:33,1,110,2|0,0:0|0:0,0:0:0:0:
430,71,13060,1,8,1:1:0:0:
379,168,13525,2,0,P|378:195|382:222,1,55,2|2,1:2|0:0,0:0:0:0:
421,261,13989,1,10,1:2:0:0:
421,261,14221,2,0,P|372:274|327:323,1,110,2|2,0:0|0:0,0:0:0:0:
308,365,14918,1,8,1:1:0:0:
211,312,15382,6,0,P|208:288|211:256,1,55,2|0,1:2|0:0,0:0:0:0:
249,218,15847,1,10,1:2:0:0:
249,218,16079,2,0,P|267:160|252:109,1,110,2|0,0:0|0:0,0:0:0:0:
216,73,16775,1,8,1:1:0:0:
308,13,17240,2,0,P|335:13|365:21,1,55,2|0,1:2|0:0,0:0:0:0:
399,60,17704,2,0,P|426:60|456:68,1,55,10|0,1:2|0:0,0:0:0:0:
482,114,18169,2,0,P|477:141|472:171,1,55,2|8,1:2|0:3,0:0:0:0:
431,205,18633,1,4,1:3:0:0:
467,246,18865,1,4,0:3:0:0:
441,294,19097,5,0,1:2:0:0:
344,347,19562,1,10,1:2:0:0:
288,252,20026,1,2,1:2:0:0:
369,177,20491,1,2,1:2:0:0:
369,177,20723,2,0,P|362:117|365:59,1,110,2|0,0:0|0:0,0:0:0:0:
322,31,21419,1,8,1:2:0:0:
237,101,21884,2,0,L|183:86,1,55,2|2,1:2|0:0,0:0:0:0:
131,70,22348,1,0,1:2:0:0:
76,79,22580,1,2,0:0:0:0:
33,114,22813,5,2,1:2:0:0:
85,210,23277,1,10,1:2:0:0:
29,304,23741,1,2,1:2:0:0:
123,360,24206,1,2,1:2:0:0:
123,360,24438,2,0,B|186:342|160:322|223:307,1,110,2|0,0:0|0:0,0:0:0:0:
253,265,25135,1,8,1:2:0:0:
186,177,25599,2,0,P|177:150|175:117,1,55,2|2,1:2|0:0,0:0:0:0:
199,75,26063,2,0,P|224:63|252:60,1,55,0|2,1:2|0:0,0:0:0:0:
298,89,26528,5,6,1:2:0:0:
387,152,26992,1,8,1:2:0:0:
491,118,27456,2,0,P|500:180|507:236,1,110,2|2,1:2|1:2,0:0:0:0:
466,265,28153,1,2,0:0:0:0:
466,265,28385,1,0,1:2:0:0:
380,333,28850,1,10,1:2:0:0:
305,251,29314,2,0,P|247:262|177:247,1,110,2|2,1:2|1:2,0:0:0:0:
119,176,30243,6,0,P|110:115|99:62,1,110,6|8,1:2|1:2,0:0:0:0:
139,28,30939,1,2,0:0:0:0:
139,28,31172,2,0,P|168:30|201:36,1,55,2|2,1:2|0:0,0:0:0:0:
247,43,31636,1,0,1:2:0:0:
324,120,32100,6,0,P|319:176|328:230,1,110,2|8,1:2|1:2,0:0:0:0:
366,267,32797,1,2,0:0:0:0:
366,267,33029,2,0,P|364:294|359:321,1,55,2|8,1:2|0:3,0:0:0:0:
321,361,33494,1,4,1:3:0:0:
267,349,33726,1,4,0:3:0:0:
247,297,33958,5,0,1:2:0:0:
298,200,34422,1,10,1:2:0:0:
242,104,34887,1,2,1:2:0:0:
190,201,35351,1,2,1:2:0:0:
190,201,35583,2,0,P|139:201|63:190,1,110,2|0,0:0|0:0,0:0:0:0:
39,156,36280,1,10,1:2:0:0:
1,52,36744,1,2,1:2:0:0:
107,24,37209,2,0,P|132:23|167:26,1,55,2|2,1:2|0:0,0:0:0:0:
199,64,37673,6,0,P|250:43|308:44,1,110,2|10,1:2|1:2,0:0:0:0:
395,106,38602,1,2,1:2:0:0:
320,186,39066,1,2,1:2:0:0:
320,186,39299,2,0,B|307:251|335:242|323:297,1,110,2|0,0:0|0:0,0:0:0:0:
353,340,39995,1,8,1:2:0:0:
246,366,40460,2,0,P|216:360|187:357,1,55,2|2,1:2|0:0,0:0:0:0:
152,318,40924,2,0,P|159:287|161:259,1,55,2|2,1:2|0:0,0:0:0:0:
199,225,41388,6,0,P|185:163|181:107,1,110,2|10,1:2|1:2,0:0:0:0:
220,77,42085,1,2,0:0:0:0:
220,77,42317,1,2,1:2:0:0:
319,25,42782,1,2,1:2:0:0:
319,25,43014,2,0,P|382:31|442:25,1,110,2|0,0:0|0:0,0:0:0:0:
467,66,43710,1,8,1:2:0:0:
404,156,44175,2,0,P|412:192|415:214,1,55,0|2,1:2|0:0,0:0:0:0:
453,248,44639,2,0,P|445:284|442:306,1,55,2|2,1:2|0:0,0:0:0:0:
402,340,45104,5,2,1:2:0:0:
308,281,45568,1,10,1:2:0:0:
222,350,46032,2,0,P|191:341|162:338,1,55,2|2,1:2|0:0,0:0:0:0:
129,299,46497,1,2,1:2:0:0:
129,299,46729,2,0,P|104:246|62:210,1,110,2|0,0:0|0:0,0:0:0:0:
27,173,47426,1,8,1:2:0:0:
27,63,47890,2,0,P|56:54|90:50,1,55,2|8,1:2|0:3,0:0:0:0:
124,17,48354,1,4,1:3:0:0:
174,38,48587,1,4,0:3:0:0:
187,91,48819,5,2,1:2:0:0:
148,193,49283,1,10,1:2:0:0:
255,216,49748,2,0,B|317:228|302:252|355:268,1,110,2|2,1:2|1:2,0:0:0:0:
403,249,50444,1,2,0:0:0:0:
480,171,50908,1,2,0:0:0:0:
480,171,51141,1,10,1:2:0:0:
420,78,51605,2,0,P|394:72|365:68,1,55,2|2,1:2|0:0,0:0:0:0:
327,29,52069,2,0,P|298:32|272:39,1,55,2|2,1:2|0:0,0:0:0:0:
234,77,52534,5,8,0:3:0:0:
234,77,52766,1,4,0:3:0:0:
305,194,53230,1,8,0:3:0:0:
305,194,53462,1,4,0:3:0:0:
241,311,53927,1,8,0:3:0:0:
241,311,54159,1,4,0:3:0:0:
192,193,54624,1,10,2:1:0:0:
192,193,54856,2,0,P|133:202|76:192,1,110,10|2,2:1|0:0,0:0:0:0:
83,194,56249,6,0,P|79:125|87:63,1,115.49999647522,6|10,1:2|1:2,0:0:0:0:
124,38,56946,1,2,0:0:0:0:
234,70,57410,1,2,0:0:0:0:
290,59,57642,1,8,1:1:0:0:
346,49,57874,2,0,P|349:109|342:169,1,115.49999647522,2|2,0:0|0:0,0:0:0:0:
384,205,58571,2,0,P|386:235|391:268,1,57.7499982376099,8|2,1:2|0:0,0:0:0:0:
364,313,59035,1,2,1:2:0:0:
256,354,59500,1,8,1:1:0:0:
158,292,59964,6,0,P|151:240|157:176,1,115.49999647522,2|10,1:2|1:2,0:0:0:0:
115,136,60661,1,2,0:0:0:0:
153,27,61125,1,2,0:0:0:0:
207,44,61357,1,8,1:1:0:0:
260,25,61590,2,0,P|318:29|377:23,1,115.49999647522,2|0,0:0|0:0,0:0:0:0:
416,64,62286,1,8,1:2:0:0:
481,159,62751,2,0,P|480:187|482:216,1,57.7499982376099,2|2,1:2|0:0,0:0:0:0:
442,257,63215,2,0,P|413:255|384:256,1,57.7499982376099,8|2,1:1|0:0,0:0:0:0:
343,216,63679,5,2,1:2:0:0:
256,292,64144,1,10,1:2:0:0:
174,209,64608,2,0,P|175:178|180:147,1,57.7499982376099,2|0,1:2|0:0,0:0:0:0:
142,107,65073,1,8,1:1:0:0:
58,187,65537,1,2,1:2:0:0:
116,286,66001,1,8,1:2:0:0:
116,286,66234,2,0,P|180:298|230:317,1,115.49999647522,2|0,0:0|0:0,0:0:0:0:
267,357,66930,1,8,1:1:0:0:
373,311,67395,6,0,P|403:318|438:319,1,57.7499982376099,2|2,1:2|0:0,0:0:0:0:
470,278,67859,2,0,P|476:249|477:220,1,57.7499982376099,10|2,1:2|0:0,0:0:0:0:
436,180,68323,1,2,1:2:0:0:
477,71,68788,1,8,1:1:0:0:
477,71,69020,2,0,P|409:46|361:52,1,115.49999647522,2|0,0:0|0:0,0:0:0:0:
326,91,69717,1,8,1:2:0:0:
220,44,70181,2,0,P|187:47|156:46,1,57.7499982376099,8|0,1:3|0:0,0:0:0:0:
111,19,70645,1,4,1:3:0:0:
63,52,70878,1,4,0:3:0:0:
73,108,71110,5,6,1:2:0:0:
41,218,71574,1,10,1:2:0:0:
41,218,71806,1,2,0:0:0:0:
153,246,72271,1,2,0:0:0:0:
183,134,72735,2,0,P|240:139|301:134,1,115.49999647522,2|2,0:0|0:0,0:0:0:0:
338,93,73432,2,0,P|366:88|395:92,1,57.7499982376099,8|2,1:2|0:0,0:0:0:0:
435,133,73896,1,2,1:2:0:0:
397,242,74361,1,8,1:1:0:0:
453,342,74825,6,0,P|386:363|329:388,1,115.49999647522,2|10,1:2|1:2,0:0:0:0:
296,349,75521,1,2,0:0:0:0:
189,303,75986,1,2,0:0:0:0:
78,336,76450,2,0,P|62:271|56:217,1,115.49999647522,2|2,0:0|0:0,0:0:0:0:
88,174,77147,2,0,P|95:146|98:117,1,57.7499982376099,10|2,1:2|0:0,0:0:0:0:
65,70,77611,1,2,1:2:0:0:
95,20,77843,1,2,0:0:0:0:
152,24,78076,5,8,1:1:0:0:
256,72,78540,1,2,1:2:0:0:
360,24,79004,1,10,1:2:0:0:
441,106,79469,2,0,P|436:140|435:173,1,57.7499982376099,2|2,1:2|0:0,0:0:0:0:
471,208,79933,1,8,1:1:0:0:
496,259,80165,1,2,0:0:0:0:
464,307,80398,2,0,P|400:316|345:317,1,115.49999647522,2|8,1:2|1:2,0:0:0:0:
316,269,81094,5,2,0:0:0:0:
316,269,81326,1,2,1:2:0:0:
219,331,81791,1,8,1:1:0:0:
126,261,82255,5,6,1:2:0:0:
202,105,82952,1,6,1:2:0:0:
269,264,83648,1,8,0:3:0:0:
269,264,83881,2,0,P|323:244|411:251,1,115.49999647522,4|2,0:3|1:2,0:0:0:0:
431,270,84577,1,2,1:2:0:0:
472,230,84809,1,2,1:2:0:0:
442,180,85042,2,0,P|439:114|443:77,2,86.6249973564149,8|8|4,0:3|0:3|0:3,0:0:0:0:
472,230,85970,1,10,1:2:0:0:
256,313,86899,5,6,1:2:0:0:
147,274,87364,1,4,0:3:0:0:
40,230,87828,6,0,P|34:191|31:165,1,55,0|2,1:2|0:0,0:0:0:0:
70,136,88292,2,0,P|76:97|79:71,1,55,10|0,1:2|0:0,0:0:0:0:
39,41,88757,1,2,1:2:0:0:
145,12,89221,1,8,1:1:0:0:
145,12,89453,2,0,P|195:36|249:45,1,110,2|2,0:0|0:0,0:0:0:0:
267,97,90150,2,0,P|242:146|233:200,1,110,10|2,1:2|1:2,0:0:0:0:
266,244,90847,2,0,L|336:233,1,55,8|8,0:3|1:3,0:0:0:0:
368,261,91311,1,4,0:3:0:0:
412,228,91543,5,4,1:2:0:0:
464,130,92008,1,10,1:2:0:0:
403,38,92472,1,2,1:2:0:0:
351,134,92936,1,8,1:1:0:0:
351,134,93169,2,0,P|285:134|242:122,1,110,2|0,0:0|0:0,0:0:0:0:
203,84,93865,1,8,1:2:0:0:
108,26,94330,1,2,1:2:0:0:
26,99,94794,2,0,L|39:162,1,55,8|0,1:1|0:0,0:0:0:0:
51,206,95258,5,2,1:2:0:0:
2,304,95723,1,10,1:2:0:0:
79,381,96187,1,2,1:2:0:0:
187,360,96652,1,8,1:1:0:0:
187,360,96884,2,0,P|179:306|184:250,1,110,2|0,0:0|0:0,0:0:0:0:
221,212,97580,2,0,P|209:171|205:148,1,55,8|0,1:2|0:0,0:0:0:0:
167,119,98045,1,2,1:2:0:0:
256,55,98509,1,8,1:1:0:0:
343,122,98974,6,0,P|382:115|409:115,1,55,2|2,1:2|0:0,0:0:0:0:
436,75,99438,2,0,P|471:91|494:107,1,55,10|2,1:2|0:0,0:0:0:0:
511,147,99902,2,0,P|509:207|513:265,1,110,2|8,1:2|1:1,0:0:0:0:
434,334,100831,2,0,P|401:325|377:321,1,55,2|2,1:2|0:0,0:0:0:0:
341,282,101295,2,0,P|308:293|286:304,1,55,10|2,1:2|0:0,0:0:0:0:
250,341,101760,2,0,P|171:330|131:330,1,110,2|8,1:2|1:1,0:0:0:0:
37,367,102689,6,0,P|34:333|26:308,1,55,2|2,1:2|0:0,0:0:0:0:
14,270,103153,1,10,1:2:0:0:
14,270,103385,1,2,0:0:0:0:
14,270,103617,2,0,P|28:203|40:153,1,110,2|8,1:2|1:1,0:0:0:0:
59,54,104546,2,0,P|104:84|158:92,1,110,2|8,1:2|1:2,0:0:0:0:
257,43,105475,2,0,P|284:30|308:24,1,55,2|8,1:2|0:3,0:0:0:0:
351,58,105939,1,4,1:3:0:0:
381,104,106172,1,4,0:3:0:0:
351,150,106404,5,0,1:2:0:0:
396,250,106868,1,10,1:2:0:0:
351,350,107333,1,2,1:2:0:0:
299,258,107797,1,2,1:2:0:0:
299,258,108029,2,0,P|242:264|190:257,1,110,2|0,0:0|0:0,0:0:0:0:
142,284,108726,1,8,1:2:0:0:
65,204,109190,2,0,P|59:169|56:145,1,55,2|2,1:2|0:0,0:0:0:0:
14,113,109655,2,0,P|20:78|23:54,1,55,2|2,1:2|0:0,0:0:0:0:
61,20,110119,5,2,1:2:0:0:
163,59,110583,1,10,1:2:0:0:
265,17,111048,1,2,1:2:0:0:
345,91,111512,1,2,1:2:0:0:
345,91,111744,2,0,P|334:145|344:199,1,110,2|0,0:0|0:0,0:0:0:0:
383,237,112441,1,8,1:2:0:0:
339,337,112905,2,0,P|312:332|278:326,1,55,2|2,1:2|0:0,0:0:0:0:
243,291,113370,1,0,1:2:0:0:
188,296,113602,1,2,0:0:0:0:
174,349,113834,5,6,1:2:0:0:
67,377,114299,1,8,1:2:0:0:
29,273,114763,2,0,P|34:209|24:153,1,110,2|2,1:2|1:2,0:0:0:0:
6,118,115460,1,2,0:0:0:0:
6,118,115692,1,0,1:2:0:0:
87,44,116156,1,10,1:2:0:0:
161,125,116621,2,0,P|224:131|274:153,1,110,2|2,1:2|1:2,0:0:0:0:
337,232,117549,6,0,P|390:193|442:197,1,110,6|8,1:2|1:2,0:0:0:0:
471,232,118246,1,2,0:0:0:0:
471,232,118478,2,0,P|465:262|463:293,2,55,2|2|0,1:2|0:0|1:2,0:0:0:0:
509,128,119407,2,0,P|456:89|404:93,1,110,2|8,1:2|1:2,0:0:0:0:
364,79,120104,1,2,0:0:0:0:
364,79,120336,2,0,P|361:46|356:18,1,55,2|8,1:2|0:3,0:0:0:0:
306,4,120800,1,4,1:3:0:0:
252,15,121032,1,4,0:3:0:0:
246,69,121265,5,0,1:2:0:0:
168,146,121729,1,10,1:2:0:0:
87,71,122193,1,2,1:2:0:0:
11,151,122658,1,2,1:2:0:0:
11,151,122890,2,0,P|18:209|13:273,1,110,2|0,0:0|0:0,0:0:0:0:
54,299,123587,1,10,1:2:0:0:
147,356,124051,1,2,1:2:0:0:
237,293,124515,2,0,P|278:286|305:283,1,55,2|2,1:2|0:0,0:0:0:0:
330,323,124980,6,0,P|400:340|446:340,1,110,2|10,1:2|1:2,0:0:0:0:
505,254,125908,1,2,1:2:0:0:
451,157,126373,1,2,1:2:0:0:
451,157,126605,2,0,P|390:167|340:167,1,110,2|0,0:0|0:0,0:0:0:0:
302,128,127302,1,8,1:2:0:0:
224,50,127766,2,0,P|182:53|160:56,1,55,2|0,1:2|0:0,0:0:0:0:
130,93,128230,2,0,P|102:89|75:88,1,55,2|2,1:2|0:0,0:0:0:0:
36,127,128695,6,0,P|81:186|87:240,1,110,2|10,1:2|1:2,0:0:0:0:
27,311,129624,2,0,P|58:316|85:325,1,55,2|2,1:2|0:0,0:0:0:0:
119,361,130088,1,2,1:2:0:0:
119,361,130320,2,0,P|180:333|231:338,1,110,2|0,0:0|0:0,0:0:0:0:
270,361,131017,1,8,1:2:0:0:
354,290,131481,2,0,P|342:253|336:228,1,55,0|2,1:2|0:0,0:0:0:0:
377,198,131946,1,2,1:2:0:0:
377,198,132178,1,2,0:0:0:0:
377,198,132410,1,2,1:2:0:0:
442,109,132874,5,10,1:2:0:0:
367,27,133339,2,0,P|337:29|307:28,1,55,2|2,1:2|0:0,0:0:0:0:
273,67,133803,1,2,1:2:0:0:
273,67,134035,2,0,P|283:135|275:184,1,110,2|0,0:0|0:0,0:0:0:0:
238,214,134732,1,8,1:2:0:0:
144,156,135196,2,0,P|116:149|86:145,1,55,2|8,1:2|0:3,0:0:0:0:
34,143,135661,1,4,1:3:0:0:
4,189,135893,1,4,0:3:0:0:
31,236,136125,5,2,1:2:0:0:
110,312,136590,1,10,1:2:0:0:
191,238,137054,2,0,P|250:242|305:235,1,110,2|2,1:2|1:2,0:0:0:0:
339,275,137751,1,2,0:0:0:0:
429,337,138215,1,2,0:0:0:0:
429,337,138447,1,10,1:2:0:0:
475,237,138912,2,0,P|469:203|467:175,1,55,2|2,1:2|0:0,0:0:0:0:
485,130,139376,1,2,1:2:0:0:
409,49,139840,5,8,0:3:0:0:
409,49,140073,1,4,0:3:0:0:
320,112,140537,1,8,0:3:0:0:
320,112,140770,1,4,0:3:0:0:
253,31,141234,1,8,0:3:0:0:
253,31,141467,1,4,0:3:0:0:
161,89,141930,1,10,2:1:0:0:
207,119,142162,2,0,P|210:183|224:245,1,110,10|2,2:1|0:0,0:0:0:0:
396,376,143556,6,0,P|459:349|510:344,1,115.49999647522,6|10,1:2|1:2,0:0:0:0:
495,287,144252,1,2,0:0:0:0:
435,187,144717,1,2,0:0:0:0:
450,131,144949,1,8,1:1:0:0:
461,74,145181,2,0,P|393:79|336:70,1,115.49999647522,2|2,0:0|0:0,0:0:0:0:
307,29,145878,1,8,1:2:0:0:
192,12,146342,2,0,P|150:18|123:24,1,57.7499982376099,2|0,1:2|0:0,0:0:0:0:
91,58,146806,1,8,1:1:0:0:
65,110,147039,1,0,0:0:0:0:
104,151,147271,5,2,1:2:0:0:
44,251,147735,1,10,1:2:0:0:
44,251,147967,1,2,0:0:0:0:
148,301,148432,1,2,0:0:0:0:
203,199,148896,2,0,P|277:203|322:199,1,115.49999647522,2|0,0:0|0:0,0:0:0:0:
359,158,149593,1,8,1:2:0:0:
365,42,150057,2,0,P|397:33|424:27,1,57.7499982376099,2|2,1:2|0:0,0:0:0:0:
473,50,150521,2,0,P|482:82|488:109,1,57.7499982376099,8|2,1:1|0:0,0:0:0:0:
457,155,150986,5,2,1:2:0:0:
486,266,151450,1,10,1:2:0:0:
374,295,151915,2,0,P|315:307|259:332,1,115.49999647522,2|8,1:2|1:1,0:0:0:0:
163,273,152843,2,0,P|171:239|178:211,1,57.7499982376099,2|2,1:2|0:0,0:0:0:0:
217,175,153308,1,10,1:2:0:0:
217,175,153540,2,0,P|197:106|178:65,1,115.49999647522,2|0,0:0|0:0,0:0:0:0:
209,17,154237,2,0,P|243:8|273:3,1,57.7499982376099,8|2,1:1|0:0,0:0:0:0:
314,33,154701,5,2,1:2:0:0:
402,106,155165,1,10,1:2:0:0:
402,106,155398,2,0,P|394:165|403:224,1,115.49999647522,2|2,0:0|0:0,0:0:0:0:
360,260,156094,1,8,1:1:0:0:
360,260,156327,2,0,P|303:250|246:256,1,115.49999647522,2|0,0:0|0:0,0:0:0:0:
205,297,157023,1,8,1:2:0:0:
107,358,157487,2,0,L|36:344,1,57.7499982376099,8|0,1:3|0:0,0:0:0:0:
7,307,157952,1,4,1:3:0:0:
17,250,158184,1,4,0:3:0:0:
69,225,158416,5,6,1:2:0:0:
28,116,158881,1,10,1:2:0:0:
28,116,159113,2,0,P|39:74|46:52,1,57.7499982376099,2|0,0:0|1:2,0:0:0:0:
84,19,159577,1,2,0:0:0:0:
174,90,160042,2,0,B|239:113|207:138|271:163,1,115.49999647522,2|2,0:0|0:0,0:0:0:0:
303,200,160738,2,0,P|301:234|298:264,1,57.7499982376099,8|2,1:2|0:0,0:0:0:0:
339,298,161203,1,2,1:2:0:0:
422,377,161667,1,8,1:1:0:0:
496,289,162131,6,0,P|486:248|461:174,1,115.49999647522,2|10,1:2|1:2,0:0:0:0:
502,136,162828,1,2,0:0:0:0:
415,59,163292,1,2,0:0:0:0:
357,66,163525,1,8,1:1:0:0:
308,34,163757,2,0,P|244:18|185:26,1,115.49999647522,2|2,0:0|0:0,0:0:0:0:
154,63,164453,2,0,P|163:98|169:124,1,57.7499982376099,10|2,1:2|0:0,0:0:0:0:
208,160,164918,2,0,P|199:195|193:221,1,57.7499982376099,2|2,1:2|0:0,0:0:0:0:
152,256,165382,1,8,1:1:0:0:
166,370,165847,5,2,1:2:0:0:
50,375,166311,1,10,1:2:0:0:
30,261,166775,2,0,P|24:224|20:198,1,57.7499982376099,2|2,1:2|0:0,0:0:0:0:
61,162,167240,1,8,1:1:0:0:
61,162,167472,1,2,0:0:0:0:
61,162,167704,2,0,P|59:94|66:34,1,115.49999647522,2|8,1:2|1:2,0:0:0:0:
179,46,168633,2,0,P|184:103|181:161,1,115.49999647522,2|8,1:2|1:1,0:0:0:0:
222,202,169330,1,2,0:0:0:0:
222,202,169562,5,6,1:2:0:0:
217,375,170258,1,6,1:2:0:0:
390,379,170955,1,8,0:3:0:0:
390,379,171187,2,0,P|383:314|385:263,1,115.49999647522,4|2,0:3|1:2,0:0:0:0:
425,223,171884,2,0,P|425:185|422:160,1,57.7499982376099,2|2,1:2|1:2,0:0:0:0:
381,124,172348,2,0,P|418:101|439:64,2,86.6249973564149,8|8|4,0:3|0:3|0:3,0:0:0:0:
330,96,173277,5,10,1:2:0:0:
188,278,174206,1,6,1:2:0:0:
294,321,174670,1,0,0:0:0:0:
406,349,175135,6,0,P|412:294|409:235,1,110,2|8,1:2|1:2,0:0:0:0:
313,186,176063,1,2,1:2:0:0:
217,240,176528,1,8,1:1:0:0:
139,162,176992,2,0,P|141:107|159:55,1,110,6|8,1:2|1:2,0:0:0:0:
272,29,177921,1,8,1:3:0:0:
272,29,178153,1,8,0:3:0:0:
272,29,178385,1,4,1:3:0:0:
360,103,178850,6,0,P|416:114|471:131,1,115.49999647522,6|8,1:2|1:1,0:0:0:0:
492,185,179546,1,2,0:0:0:0:
394,247,180011,1,2,0:0:0:0:
345,277,180243,1,8,1:1:0:0:
304,235,180475,2,0,P|251:218|181:218,1,115.49999647522,2|2,0:0|0:0,0:0:0:0:
150,175,181172,2,0,P|146:146|151:118,1,57.7499982376099,8|2,1:1|0:0,0:0:0:0:
110,77,181636,1,2,1:2:0:0:
207,14,182100,1,8,1:1:0:0:
289,95,182565,6,0,P|344:112|400:123,1,115.49999647522,2|8,1:2|1:1,0:0:0:0:
441,83,183261,1,2,0:0:0:0:
490,187,183726,1,2,0:0:0:0:
455,233,183958,1,8,1:1:0:0:
496,272,184190,2,0,P|484:328|467:383,1,115.49999647522,2|2,0:0|0:0,0:0:0:0:
412,365,184887,1,8,1:1:0:0:
306,317,185351,2,0,P|277:320|249:314,1,57.7499982376099,2|2,1:2|0:0,0:0:0:0:
208,355,185816,2,0,P|179:349|151:352,1,57.7499982376099,8|2,1:1|0:0,0:0:0:0:
110,311,186280,5,2,1:2:0:0:
47,214,186744,1,8,1:1:0:0:
128,132,187209,2,0,P|155:141|183:145,1,57.7499982376099,2|0,1:2|0:0,0:0:0:0:
235,120,187673,1,8,1:1:0:0:
324,46,188138,1,2,1:2:0:0:
391,145,188602,1,8,1:1:0:0:
391,145,188834,2,0,P|396:201|391:258,1,115.49999647522,2|0,0:0|0:0,0:0:0:0:
350,300,189531,1,8,1:1:0:0:
247,353,189995,6,0,P|219:356|188:351,1,57.7499982376099,2|2,1:2|0:0,0:0:0:0:
148,310,190460,2,0,P|120:307|89:312,1,57.7499982376099,8|2,1:1|0:0,0:0:0:0:
50,352,190924,1,2,1:2:0:0:
4,251,191388,1,8,1:1:0:0:
4,251,191621,2,0,P|16:194|33:139,1,115.49999647522,2|8,0:0|0:3,0:0:0:0:
68,93,192317,1,8,1:1:0:0:
160,23,192782,2,0,P|206:34|227:35,1,57.7499982376099,8|0,1:3|0:0,0:0:0:0:
272,20,193246,1,4,1:3:0:0:
319,47,193478,1,4,0:3:0:0:
320,104,193710,5,12,1:2:0:0:
240,187,194175,1,8,1:1:0:0:
240,187,194407,2,0,P|238:243|243:301,1,115.49999647522,2|2,0:0|0:0,0:0:0:0:
284,343,195104,1,8,1:1:0:0:
284,343,195336,1,2,0:0:0:0:
372,268,195800,1,2,0:0:0:0:
372,268,196032,2,0,P|407:277|438:280,1,57.7499982376099,8|2,1:1|0:0,0:0:0:0:
468,237,196497,2,0,P|459:181|466:122,1,115.49999647522,2|8,1:2|1:1,0:0:0:0:
383,42,197426,6,0,P|327:60|271:71,1,115.49999647522,2|8,1:2|1:1,0:0:0:0:
233,114,198122,1,2,0:0:0:0:
130,50,198587,2,0,P|104:50|71:42,1,57.7499982376099,2|8,0:0|1:1,0:0:0:0:
32,83,199051,1,2,0:0:0:0:
96,184,199515,1,2,0:0:0:0:
96,184,199748,2,0,P|101:212|97:240,1,57.7499982376099,8|2,1:1|0:0,0:0:0:0:
54,278,200212,1,2,1:2:0:0:
48,335,200444,1,2,0:0:0:0:
99,360,200676,5,8,1:1:0:0:
203,309,201141,2,0,P|199:257|206:195,1,115.49999647522,2|8,1:2|1:1,0:0:0:0:
261,93,202069,2,0,P|295:96|322:104,1,57.7499982376099,2|2,1:2|0:0,0:0:0:0:
358,143,202534,2,0,P|355:177|347:204,1,57.7499982376099,8|2,1:1|0:0,0:0:0:0:
389,240,202998,2,0,P|439:212|494:194,1,115.49999647522,2|8,1:2|1:1,0:0:0:0:
511,141,203695,1,2,0:0:0:0:
511,141,203927,2,0,P|509:84|497:27,1,115.49999647522,2|8,1:2|1:1,0:0:0:0:
389,68,204856,5,6,1:2:0:0:
223,17,205552,1,6,1:2:0:0:
86,122,206249,1,8,0:3:0:0:
86,122,206481,2,0,P|99:180|86:237,1,115.49999647522,4|2,0:3|1:2,0:0:0:0:
128,274,207178,1,2,1:2:0:0:
240,299,207642,2,0,P|234:341|243:383,2,86.6249973564149,2|8|4,1:2|0:3|0:3,0:0:0:0:
280,258,208571,5,10,1:2:0:0:
385,210,209035,2,0,P|371:163|367:140,1,57.7499982376099,8|8,0:3|0:3,0:0:0:0:
314,136,209500,2,0,P|326:91|331:21,1,115.49999647522,8|4,0:3|0:3,0:0:0:0:
389,7,210196,1,4,0:3:0:0:
389,7,210429,1,2,1:2:0:0:
258,85,224593,5,8,0:3:0:0:
258,85,224825,1,4,0:3:0:0:
192,179,225289,6,0,P|206:230|234:305,1,115.49999647522,6|8,1:2|1:1,0:0:0:0:
268,329,225986,1,2,0:0:0:0:
378,362,226450,1,2,0:0:0:0:
433,347,226682,1,8,1:1:0:0:
451,292,226915,2,0,P|443:249|450:174,1,115.49999647522,2|2,0:0|0:0,0:0:0:0:
489,137,227611,6,0,P|481:106|477:74,1,57.7499982376099,8|2,1:1|0:0,0:0:0:0:
462,24,228076,1,2,1:2:0:0:
354,65,228540,1,8,1:1:0:0:
250,13,229004,6,0,P|200:38|134:38,1,115.49999647522,2|8,1:2|1:1,0:0:0:0:
87,19,229701,1,2,0:0:0:0:
9,104,230165,2,0,P|20:142|25:169,1,57.7499982376099,2|8,0:0|1:1,0:0:0:0:
64,200,230630,2,0,P|57:248|44:324,1,115.49999647522,2|2,0:0|0:0,0:0:0:0:
86,354,231326,1,8,1:1:0:0:
186,296,231791,2,0,P|214:289|242:287,1,57.7499982376099,2|8,1:2|0:3,0:0:0:0:
287,324,232255,1,4,1:3:0:0:
340,346,232487,1,4,0:3:0:0:
387,313,232720,5,2,1:2:0:0:
444,213,233184,1,8,1:1:0:0:
444,213,233416,1,2,0:0:0:0:
372,122,233881,2,0,P|365:86|362:61,1,57.7499982376099,2|8,0:0|1:1,0:0:0:0:
322,24,234345,2,0,B|258:42|280:71|225:95,1,115.49999647522,2|2,0:0|0:0,0:0:0:0:
177,72,235042,1,8,1:1:0:0:
77,130,235506,2,0,P|81:159|78:189,1,57.7499982376099,2|0,1:2|0:0,0:0:0:0:
119,228,235970,1,8,1:1:0:0:
72,333,236435,5,2,1:2:0:0:
181,372,236899,1,8,1:1:0:0:
181,372,237131,1,2,0:0:0:0:
271,299,237596,2,0,P|314:286|338:283,1,57.7499982376099,2|8,0:0|1:1,0:0:0:0:
367,324,238060,6,0,B|437:333|413:361|479:368,1,115.49999647522,2|2,0:0|0:0,0:0:0:0:
504,318,238757,2,0,P|511:290|513:257,1,57.7499982376099,8|2,1:1|0:0,0:0:0:0:
472,220,239221,2,0,P|465:192|463:159,1,57.7499982376099,2|8,1:2|0:3,0:0:0:0:
484,109,239686,1,4,1:3:0:0:
386,47,240150,5,6,1:2:0:0:
256,192,240382,12,2,247580,0:0:0:0:
