osu file format v14

[General]
AudioFilename: audio.mp3
AudioLeadIn: 0
PreviewTime: 51377
Countdown: 0
SampleSet: Soft
StackLeniency: 0.7
Mode: 0
LetterboxInBreaks: 0
WidescreenStoryboard: 0

[Editor]
DistanceSpacing: 1.6
BeatDivisor: 4
GridSize: 4
TimelineZoom: 1.9

[Metadata]
Title:Chuntaka! (TV Size)
TitleUnicode:ちゅんたか! (TV Size)
Artist:Azumaya Junta (CV: Ono Yuki), Saijo Takato (CV: Takahashi Hiroki)
ArtistUnicode:東谷准太(CV:小野友樹)・西條高人(CV:高橋広樹)
Creator:[Kurose Riku]
Version:Insane
Source:抱かれたい男1位に脅されています。
Tags:Dakaretai Otoko Ichii ni Odosarete Imasu. ed ending japanese anime bl yaoi boys love 櫻日梯子
BeatmapID:2115982
BeatmapSetID:1010876

[Difficulty]
HPDrainRate:7
CircleSize:4
OverallDifficulty:7.5
ApproachRate:8.6
SliderMultiplier:2.1
SliderTickRate:1

[Events]
//Background and Video events
0,0,"BG.png",0,0
Video,225,"gv.mp4"
//Break Periods
//Storyboard Layer 0 (Background)
//Storyboard Layer 1 (Fail)
//Storyboard Layer 2 (Pass)
//Storyboard Layer 3 (Foreground)
//Storyboard Layer 4 (Overlay)
//Storyboard Sound Samples

[TimingPoints]
163,428.571428571429,4,2,0,40,1,0
1663,-100,4,2,1,40,0,0
3377,-125,4,2,1,40,0,0
3805,-100,4,2,1,40,0,0
5091,-125,4,2,1,40,0,0
5520,-100,4,2,1,40,0,0
6805,-125,4,2,1,40,0,0
7234,-100,4,2,1,40,0,0
13663,-125,4,2,0,40,0,0
14734,-100,4,2,0,40,0,0
15377,-125,4,2,0,40,0,0
15805,-100,4,2,0,40,0,0
17091,-111.111111111111,4,2,0,40,0,0
17305,-100,4,2,0,40,0,0
19020,-100,4,2,1,40,0,0
23734,-133.333333333333,4,2,1,40,0,0
23841,-125,4,2,1,40,0,0
24377,-100,4,2,0,40,0,0
25663,-125,4,2,0,40,0,0
27377,-100,4,2,0,40,0,0
27591,-125,4,2,0,40,0,0
28663,-100,4,2,1,40,0,0
34448,-200,4,2,1,30,0,0
41091,-133.333333333333,4,2,1,40,0,0
41520,-100,4,2,1,40,0,0
42805,-133.333333333333,4,2,1,40,0,0
43234,-100,4,2,1,40,0,0
46234,-125,4,2,1,40,0,0
49448,-100,4,2,1,40,0,0
50948,-83.3333333333333,4,2,1,40,0,0
51377,-100,4,2,1,60,0,1
71734,-83.3333333333333,4,2,1,60,0,1
71841,-100,4,2,1,60,0,1
71948,-133.333333333333,4,2,1,60,0,1
72377,-100,4,2,1,60,0,1
73448,-83.3333333333333,4,2,1,60,0,1
73555,-100,4,2,1,60,0,1
73663,-133.333333333333,4,2,1,60,0,1
74091,-100,4,2,1,60,0,1
75163,-83.3333333333333,4,2,1,60,0,1
75270,-100,4,2,1,60,0,1
75377,-133.333333333333,4,2,1,60,0,1
75805,-100,4,2,1,60,0,1
79877,-125,4,2,1,60,0,1
80091,-100,4,2,1,60,0,1
82234,-100,4,2,1,40,0,0
83948,-125,4,2,1,40,0,0
84377,-100,4,2,1,40,0,0

[Colours]
Combo1 : 255,221,117
Combo2 : 255,149,202
Combo3 : 197,137,137
Combo4 : 135,155,252

[HitObjects]
173,25,163,5,8,0:0:0:0:
246,99,377,2,0,L|351:89,1,105,0|2,0:0|0:0,0:0:0:0:
453,111,805,1,8,0:0:0:0:
453,111,1020,1,8,0:0:0:0:
375,182,1234,2,0,P|390:234|364:294,1,105,0|2,0:0|0:0,0:0:0:0:
281,329,1663,5,8,0:0:0:0:
281,329,1770,1,8,0:0:0:0:
281,329,1877,2,0,L|175:319,1,105,8|2,0:0|0:0,0:0:0:0:
108,239,2305,1,8,0:0:0:0:
108,239,2520,1,8,0:0:0:0:
185,168,2734,2,0,L|113:163,1,52.5,2|0,0:0|0:0,0:0:0:0:
41,107,2948,2,0,L|93:102,1,52.5,8|0,0:0|0:0,0:0:0:0:
219,146,3163,1,12,0:0:0:0:
8,36,3377,6,0,L|195:19,1,168,6|2,0:0|0:0,0:0:0:0:
342,117,4020,2,0,L|236:107,1,105,8|0,0:0|0:0,0:0:0:0:
305,28,4448,2,0,L|410:18,1,105,2|0,0:0|0:0,0:0:0:0:
347,161,4877,1,8,0:0:0:0:
177,61,5091,6,0,L|357:44,1,168,6|0,0:0|0:0,0:0:0:0:
425,155,5734,1,2,0:0:0:0:
264,270,5948,1,2,0:0:0:0:
264,270,6163,1,2,0:0:0:0:
331,151,6377,1,8,0:0:0:0:
379,299,6591,1,8,0:0:0:0:
183,222,6805,6,0,L|200:50,1,168,4|2,0:0|0:0,0:0:0:0:
335,136,7448,1,8,0:0:0:0:
183,222,7663,1,0,0:0:0:0:
193,26,7877,1,0,0:0:0:0:
337,110,8091,1,0,0:0:0:0:
142,132,8305,1,8,0:0:0:0:
183,321,8520,5,6,0:0:0:0:
183,321,8627,1,2,0:0:0:0:
183,321,8734,2,0,P|198:271|183:222,1,105,2|0,0:0|0:0,0:0:0:0:
37,155,9163,2,0,P|21:204|36:254,2,105,2|8|0,0:0|0:0|0:0,0:0:0:0:
120,20,9805,1,2,0:0:0:0:
105,204,10020,1,8,0:0:0:0:
5,82,10234,1,6,0:0:0:0:
188,184,10448,6,0,L|292:174,1,105,2|0,0:0|0:0,0:0:0:0:
186,57,10877,1,8,0:0:0:0:
191,267,11091,2,0,P|108:209|136:114,1,210,2|0,0:0|0:0,0:0:0:0:
251,11,11734,1,8,0:0:0:0:
354,129,11948,6,0,L|354:243,1,105,2|8,0:0|0:0,0:0:0:0:
468,111,12377,1,2,0:0:0:0:
335,257,12591,2,0,L|217:257,1,105,8|2,0:0|0:0,0:0:0:0:
352,51,13020,1,8,0:0:0:0:
436,183,13234,1,2,0:0:0:0:
280,183,13448,1,2,0:0:0:0:
151,51,13663,6,0,L|323:51,1,168,4|0,0:0|0:0,0:0:0:0:
414,100,14305,2,0,P|444:164|390:252,1,168,2|0,0:0|0:0,0:0:0:0:
313,301,14948,2,0,L|202:301,1,105,0|2,0:0|0:0,0:0:0:0:
89,207,15377,6,0,L|278:205,1,168
328,128,16020,1,2,0:0:0:0:
346,231,16234,2,0,P|327:284|350:343,1,105
436,289,16663,2,0,P|448:238|429:190,1,105,0|2,0:0|0:0,0:0:0:0:
268,187,17091,6,0,P|303:223|347:230,1,94.499997116089,4|0,0:0|0:0,0:0:0:0:
314,75,17520,2,0,P|261:76|220:107,1,105,0|2,0:0|0:0,0:0:0:0:
251,262,17948,2,0,P|303:260|344:229,1,105
411,112,18377,1,0,0:0:0:0:
467,197,18591,1,2,0:0:0:0:
512,68,18805,1,0,0:0:0:0:
308,117,19020,6,0,L|204:107,1,105,8|2,0:0|0:0,0:0:0:0:
314,274,19448,1,8,0:0:0:0:
405,133,19663,1,2,0:0:0:0:
290,240,19877,2,0,L|186:230,1,105,8|2,0:0|0:0,0:0:0:0:
270,363,20305,1,2,0:0:0:0:
443,244,20520,6,0,L|220:222,1,210,4|0,0:0|0:0,0:0:0:0:
119,114,21163,2,0,L|223:104,1,105,8|2,0:0|0:0,0:0:0:0:
358,22,21591,2,0,L|253:12,1,105,8|0,0:0|0:0,0:0:0:0:
333,148,22020,1,8,0:0:0:0:
458,53,22234,1,2,0:0:0:0:
304,14,22448,6,0,L|313:118,1,105,8|2,0:0|0:0,0:0:0:0:
417,236,22877,2,0,L|426:131,1,105,8|2,0:0|0:0,0:0:0:0:
288,209,23305,1,8,0:0:0:0:
408,310,23520,1,2,0:0:0:0:
408,310,23627,1,2,0:0:0:0:
408,310,23734,2,0,L|356:305,1,39.3750015020371,2|0,0:0|0:0,0:0:0:0:
303,350,23948,6,0,B|115:332,1,168,4|0,0:0|0:0,0:0:0:0:
50,274,24591,1,2,0:0:0:0:
133,209,24805,1,0,0:0:0:0:
34,174,25020,1,0,0:0:0:0:
202,160,25234,2,0,P|217:213|191:271,1,105,0|2,0:0|0:0,0:0:0:0:
66,97,25663,6,0,L|240:83,1,168
334,73,26305,1,2,0:0:0:0:
437,1,26520,2,0,P|379:62|421:151,1,168
465,212,27163,1,2,0:0:0:0:
326,332,27377,6,0,L|217:322,1,105,4|0,0:0|0:0,0:0:0:0:
131,368,27805,1,0,0:0:0:0:
50,253,28020,2,0,L|228:237,1,168,2|0,0:0|0:0,0:0:0:0:
375,133,28663,2,0,P|390:186|364:244,1,105
201,193,29091,6,0,L|305:181,1,105,2|8,0:0|0:0,0:0:0:0:
478,160,29520,1,2,0:0:0:0:
397,295,29734,1,8,0:0:0:0:
370,106,29948,1,2,0:0:0:0:
273,231,30163,2,0,L|377:221,1,105,8|2,0:0|0:0,0:0:0:0:
256,98,30591,1,2,0:0:0:0:
205,271,30805,6,0,L|417:291,1,210,4|0,0:0|0:0,0:0:0:0:
390,134,31448,2,0,L|250:148,1,105,8|0,0:0|0:0,0:0:0:0:
398,253,31877,2,0,L|502:242,1,105,2|0,0:0|0:0,0:0:0:0:
390,134,32305,1,8,0:0:0:0:
382,344,32520,1,2,0:0:0:0:
273,231,32734,6,0,L|160:221,1,105,8|2,0:0|0:0,0:0:0:0:
40,129,33163,2,0,L|155:116,1,105,8|2,0:0|0:0,0:0:0:0:
90,265,33591,1,8,0:0:0:0:
16,113,33805,1,2,0:0:0:0:
16,113,33913,1,2,0:0:0:0:
16,113,34020,1,2,0:0:0:0:
158,24,34234,1,0,0:0:0:0:
245,156,34448,6,0,L|297:151,1,52.5,4|0,0:0|0:0,0:0:0:0:
401,233,34877,2,0,L|349:229,1,52.5,0|8,0:0|0:0,0:0:0:0:
262,268,35305,1,2,0:0:0:0:
376,149,35520,1,0,0:0:0:0:
376,149,35627,1,0,0:0:0:0:
376,149,35734,1,8,0:0:0:0:
438,265,35948,1,2,0:0:0:0:
303,354,36163,6,0,L|250:349,1,52.5,2|0,0:0|0:0,0:0:0:0:
146,276,36591,2,0,L|198:271,1,52.5,0|2,0:0|0:0,0:0:0:0:
111,360,37020,1,0,0:0:0:0:
65,211,37234,2,0,L|133:204,1,52.5,2|8,0:0|0:0,0:0:0:0:
19,295,37663,1,0,0:0:0:0:
17,136,37877,6,0,L|69:131,1,52.5,2|0,0:0|0:0,0:0:0:0:
169,211,38305,2,0,L|116:206,1,52.5,0|2,0:0|0:0,0:0:0:0:
160,122,38734,1,2,0:0:0:0:
238,268,38948,1,0,0:0:0:0:
238,268,39055,1,0,0:0:0:0:
238,268,39163,1,8,0:0:0:0:
317,163,39377,1,2,0:0:0:0:
159,101,39591,6,0,L|163:161,1,52.5,2|0,0:0|0:0,0:0:0:0:
257,67,40020,2,0,L|262:4,1,52.5,0|2,0:0|0:0,0:0:0:0:
158,86,40448,1,0,0:0:0:0:
317,163,40663,2,0,L|321:107,1,52.5,2|8,0:0|0:0,0:0:0:0:
479,193,41091,6,0,P|506:264|463:332,1,157.500006008148,4|0,0:0|0:0,0:0:0:0:
325,246,41734,2,0,L|429:256,1,105,0|2,0:0|0:0,0:0:0:0:
339,346,42163,1,2,0:0:0:0:
248,258,42377,1,0,0:0:0:0:
248,258,42484,1,0,0:0:0:0:
248,258,42591,2,0,L|189:252,1,52.5,8|0,0:0|0:0,0:0:0:0:
143,180,42805,6,0,P|106:257|155:333,1,157.500006008148,2|0,0:0|0:0,0:0:0:0:
246,375,43448,2,0,L|350:365,1,105,0|2,0:0|0:0,0:0:0:0:
475,353,43877,1,2,0:0:0:0:
372,279,44091,1,2,0:0:0:0:
498,182,44305,1,8,0:0:0:0:
482,306,44520,1,2,0:0:0:0:
325,160,44734,6,0,L|198:147,1,105,8|2,0:0|0:0,0:0:0:0:
69,31,45163,1,8,0:0:0:0:
116,181,45377,1,2,0:0:0:0:
221,14,45591,1,8,0:0:0:0:
69,129,45805,2,0,L|69:254,1,105,2|2,0:0|0:0,0:0:0:0:
234,263,46234,6,0,P|311:296|396:255,1,168,4|2,0:0|0:0,0:0:0:0:
482,141,46877,1,8,0:0:0:0:
339,61,47091,2,0,B|232:35|232:35|147:57,1,168,4|2,0:0|0:0,0:0:0:0:
31,113,47734,1,8,0:0:0:0:
169,209,47948,6,0,P|204:285|160:354,1,168,4|2,0:0|0:0,0:0:0:0:
31,210,48591,1,8,0:0:0:0:
160,101,48805,2,0,L|340:116,1,168,4|2,0:0|0:0,0:0:0:0:
223,234,49448,1,8,0:0:0:0:
223,234,49555,1,8,0:0:0:0:
223,234,49663,1,2,0:0:0:0:
353,83,49877,5,8,0:0:0:0:
359,240,50091,1,2,0:0:0:0:
507,105,50305,1,8,0:0:0:0:
493,261,50520,2,0,L|378:250,1,105,2|8,0:0|0:0,0:0:0:0:
209,337,50948,2,0,P|225:267|194:198,1,125.999996154785,8|2,0:0|0:0,0:0:0:0:
242,9,51377,6,0,P|204:52|302:115,1,210,6|0,0:0|0:0,0:0:0:0:
453,162,52020,2,0,P|462:209|431:266,1,105,8|2,0:0|0:0,0:0:0:0:
284,328,52448,2,0,P|275:281|306:224,1,105,0|2,0:0|0:0,0:0:0:0:
404,100,52877,1,8,0:0:0:0:
195,31,53091,6,0,L|204:144,1,105,0|2,0:0|0:0,0:0:0:0:
217,303,53520,2,0,P|167:288|118:305,1,105,0|8,0:0|0:0,0:0:0:0:
344,358,53948,2,0,P|393:372|442:355,1,105,2|0,0:0|0:0,0:0:0:0:
307,184,54377,2,0,L|303:126,1,52.5,2|0,0:0|0:0,0:0:0:0:
386,234,54591,2,0,L|391:286,1,52.5,8|0,0:0|0:0,0:0:0:0:
433,161,54805,6,0,P|487:180|511:66,1,210,4|0,0:0|0:0,0:0:0:0:
354,191,55448,2,0,L|248:181,1,105,8|2,0:0|0:0,0:0:0:0:
189,24,55877,2,0,L|295:34,1,105,0|2,0:0|0:0,0:0:0:0:
136,157,56305,1,8,0:0:0:0:
11,45,56520,6,0,P|62:40|106:67,1,105,0|2,0:0|0:0,0:0:0:0:
237,173,56948,2,0,P|288:177|332:150,1,105,0|8,0:0|0:0,0:0:0:0:
117,196,57377,2,0,L|128:321,1,105,2|0,0:0|0:0,0:0:0:0:
328,201,57805,2,0,L|332:143,1,52.5,8|0,0:0|0:0,0:0:0:0:
249,251,58020,2,0,L|244:303,1,52.5,8|0,0:0|0:0,0:0:0:0:
388,333,58234,6,0,P|442:352|466:238,1,210,4|2,0:0|0:0,0:0:0:0:
334,117,58877,1,8,0:0:0:0:
214,235,59091,1,2,0:0:0:0:
72,143,59305,2,0,P|58:93|75:44,1,105,2|0,0:0|0:0,0:0:0:0:
131,236,59734,1,8,0:0:0:0:
291,184,59948,6,0,P|303:129|271:80,1,105,2|0,0:0|0:0,0:0:0:0:
121,34,60377,2,0,P|119:85|152:125,1,105,2|8,0:0|0:0,0:0:0:0:
370,82,60805,2,0,P|350:29|296:5,1,105,2|0,0:0|0:0,0:0:0:0:
204,189,61234,1,2,0:0:0:0:
396,103,61448,2,0,L|448:98,1,52.5,8|0,0:0|0:0,0:0:0:0:
331,157,61663,6,0,P|284:228|385:267,1,210,4|2,0:0|0:0,0:0:0:0:
271,32,62305,2,0,L|323:27,1,52.5,8|0,0:0|0:0,0:0:0:0:
447,81,62520,2,0,L|227:60,1,210,6|2,0:0|0:0,0:0:0:0:
71,152,63163,5,8,0:0:0:0:
236,264,63377,2,0,P|287:272|323:308,1,105,2|8,0:0|0:0,0:0:0:0:
101,298,63805,2,0,P|49:289|13:253,1,105,2|8,0:0|0:0,0:0:0:0:
173,133,64234,1,2,0:0:0:0:
173,133,64341,1,2,0:0:0:0:
173,133,64448,1,8,0:0:0:0:
331,254,64663,2,0,P|322:305|286:341,1,105,2|8,0:0|0:0,0:0:0:0:
76,183,65091,6,0,P|158:161|109:65,1,210,4|2,0:0|0:0,0:0:0:0:
152,269,65734,2,0,P|201:282|250:264,1,105,8|2,0:0|0:0,0:0:0:0:
447,226,66163,2,0,L|339:216,1,105,0|2,0:0|0:0,0:0:0:0:
480,122,66591,1,8,0:0:0:0:
259,112,66805,6,0,L|383:101,1,105,0|2,0:0|0:0,0:0:0:0:
228,249,67234,2,0,L|123:239,1,105,0|8,0:0|0:0,0:0:0:0:
50,54,67663,2,0,L|154:44,1,105,2|0,0:0|0:0,0:0:0:0:
28,238,68091,2,0,L|22:171,1,52.5,2|0,0:0|0:0,0:0:0:0:
104,269,68305,2,0,L|110:199,1,52.5,8|0,0:0|0:0,0:0:0:0:
99,32,68520,6,0,L|311:13,1,210,4|0,0:0|0:0,0:0:0:0:
446,155,69163,2,0,P|462:207|439:262,1,105,8|2,0:0|0:0,0:0:0:0:
264,252,69591,2,0,P|297:213|348:203,1,105,0|2,0:0|0:0,0:0:0:0:
512,317,70020,1,8,0:0:0:0:
297,367,70234,6,0,L|174:356,1,105,0|2,0:0|0:0,0:0:0:0:
61,207,70663,2,0,L|185:196,1,105,0|8,0:0|0:0,0:0:0:0:
355,136,71091,2,0,P|371:195|349:246,1,105,2|0,0:0|0:0,0:0:0:0:
162,339,71520,2,0,L|155:270,1,52.5,2|0,0:0|0:0,0:0:0:0:
68,257,71734,2,0,L|75:175,1,62.9999980773926,8|0,0:0|0:0,0:0:0:0:
111,15,71948,6,0,L|111:195,1,157.500006008148,4|2,0:0|0:0,0:0:0:0:
262,99,72591,1,8,0:0:0:0:
35,52,72805,1,2,0:0:0:0:
185,198,73020,1,2,0:0:0:0:
185,198,73127,1,2,0:0:0:0:
185,198,73234,1,2,0:0:0:0:
273,27,73448,2,0,L|345:33,1,62.9999980773926,8|0,0:0|0:0,0:0:0:0:
512,73,73663,6,0,L|346:73,1,157.500006008148,4|0,0:0|0:0,0:0:0:0:
256,209,74305,1,8,0:0:0:0:
462,159,74520,1,2,0:0:0:0:
273,27,74734,1,2,0:0:0:0:
273,27,74841,1,2,0:0:0:0:
273,27,74948,1,2,0:0:0:0:
151,173,75163,2,0,L|234:180,1,62.9999980773926,8|0,0:0|0:0,0:0:0:0:
390,218,75377,6,0,L|199:218,1,157.500006008148,4|2,0:0|0:0,0:0:0:0:
161,370,76020,2,0,L|279:361,1,105,8|2,0:0|0:0,0:0:0:0:
380,185,76448,2,0,L|328:174,1,52.5,2|0,0:0|0:0,0:0:0:0:
393,258,76663,2,0,L|471:242,1,52.5,2|0,0:0|0:0,0:0:0:0:
510,291,76877,1,8,0:0:0:0:
374,93,77091,6,0,L|263:83,1,105,6|0,0:0|0:0,0:0:0:0:
74,126,77520,2,0,L|22:115,1,52.5,8|0,0:0|0:0,0:0:0:0:
87,199,77734,2,0,L|165:183,1,52.5,8|0,0:0|0:0,0:0:0:0:
204,232,77948,1,2,0:0:0:0:
389,331,78163,2,0,L|337:320,1,52.5,8|0,0:0|0:0,0:0:0:0:
403,256,78377,1,2,0:0:0:0:
251,368,78591,1,2,0:0:0:0:
328,142,78805,6,4,L|223:133,1,105,6|0,0:0|0:0,0:0:0:0:
81,269,79234,1,2,0:0:0:0:
240,295,79448,1,8,0:0:0:0:
177,150,79663,2,0,L|124:154,1,52.5,2|2,0:0|0:0,0:0:0:0:
280,173,79877,2,0,L|184:182,1,84,2|2,0:0|0:0,0:0:0:0:
406,217,80305,2,0,L|463:212,1,52.5,8|0,0:0|0:0,0:0:0:0:
273,198,80520,6,0,L|436:186,1,157.5,12|0,0:0|0:0,0:0:0:0:
461,294,80948,2,0,L|408:289,1,52.5
458,212,81163,1,8,0:0:0:0:
307,317,81377,1,2,0:0:0:0:
307,317,81484,1,2,0:0:0:0:
307,317,81591,1,8,0:0:0:0:
358,120,81805,1,2,0:0:0:0:
395,281,82020,1,8,0:0:0:0:
195,217,82234,6,0,L|64:205,1,105,6|0,0:0|0:0,0:0:0:0:
202,334,82663,1,2,0:0:0:0:
302,173,82877,2,0,P|356:189|414:157,1,105,8|2,0:0|0:0,0:0:0:0:
305,46,83305,1,2,0:0:0:0:
345,268,83520,1,0,0:0:0:0:
466,110,83734,1,8,0:0:0:0:
301,142,83948,6,0,L|136:114,1,168,6|0,0:0|0:0,0:0:0:0:
44,243,84591,1,8,0:0:0:0:
27,48,84805,1,2,0:0:0:0:
143,155,85020,1,0,0:0:0:0:
247,37,85234,2,0,L|354:26,1,105,2|8,0:0|0:0,0:0:0:0:
267,160,85663,1,2,0:0:0:0:
142,47,85877,5,2,0:0:0:0:
250,174,86091,1,8,0:0:0:0:
122,284,86305,1,2,0:0:0:0:
55,132,86520,2,0,L|173:132,1,105,2|8,0:0|0:0,0:0:0:0:
321,177,86948,2,0,P|332:227|314:275,1,105,2|8,0:0|0:0,0:0:0:0:
179,378,87377,5,2,0:0:0:0:
179,378,87484,1,2,0:0:0:0:
179,378,87591,1,8,0:0:0:0:
64,263,87805,1,2,0:0:0:0:
179,148,88020,1,8,0:0:0:0:
64,32,88234,1,12,0:0:0:0:
