osu file format v14

[General]
AudioFilename: audio.mp3
AudioLeadIn: 0
PreviewTime: 51377
Countdown: 0
SampleSet: Soft
StackLeniency: 0.7
Mode: 0
LetterboxInBreaks: 0
WidescreenStoryboard: 0

[Editor]
DistanceSpacing: 1.2
BeatDivisor: 4
GridSize: 4
TimelineZoom: 1.9

[Metadata]
Title:Chuntaka! (TV Size)
TitleUnicode:ちゅんたか! (TV Size)
Artist:Azumaya Junta (CV: Ono Yuki), Saijo Takato (CV: Takahashi Hiroki)
ArtistUnicode:東谷准太(CV:小野友樹)・西條高人(CV:高橋広樹)
Creator:[Kurose Riku]
Version:Hard
Source:抱かれたい男1位に脅されています。
Tags:Dakaretai Otoko Ichii ni Odosarete Imasu. ed ending japanese anime bl yaoi boys love 櫻日梯子
BeatmapID:2116859
BeatmapSetID:1010876

[Difficulty]
HPDrainRate:5
CircleSize:3.5
OverallDifficulty:6
ApproachRate:7
SliderMultiplier:1.6
SliderTickRate:1

[Events]
//Background and Video events
0,0,"BG.png",0,0
Video,225,"gv.mp4"
//Break Periods
//Storyboard Layer 0 (Background)
//Storyboard Layer 1 (Fail)
//Storyboard Layer 2 (Pass)
//Storyboard Layer 3 (Foreground)
//Storyboard Layer 4 (Overlay)
//Storyboard Sound Samples

[TimingPoints]
163,428.571428571429,4,2,0,40,1,0
1663,-100,4,2,1,40,0,0
13663,-125,4,2,0,40,0,0
18805,-100,4,2,1,40,0,0
23948,-125,4,2,0,40,0,0
28877,-100,4,2,1,40,0,0
34448,-100,4,2,1,30,0,0
41091,-100,4,2,1,40,0,0
51377,-100,4,2,1,60,0,1
82234,-100,4,2,1,40,0,0

[Colours]
Combo1 : 255,221,117
Combo2 : 255,149,202
Combo3 : 197,137,137
Combo4 : 135,155,252

[HitObjects]
67,239,163,6,0,L|155:235,1,80,8|0,0:0|0:0,0:0:0:0:
221,295,591,1,2,0:0:0:0:
221,295,805,2,0,P|197:217|235:149,1,160,8|0,0:0|0:0,0:0:0:0:
325,176,1448,1,2,0:0:0:0:
379,96,1663,6,0,L|380:45,2,40,2|2|8,0:0|0:0|0:0,0:0:0:0:
464,139,2091,1,2,0:0:0:0:
464,139,2305,2,0,L|464:226,1,80,8|8,0:0|0:0,0:0:0:0:
473,314,2734,2,0,P|434:303|380:329,1,80,2|8,0:0|0:0,0:0:0:0:
310,355,3163,1,8,0:0:0:0:
231,255,3377,6,0,P|144:277|77:228,1,160,6|2,0:0|0:0,0:0:0:0:
43,157,4020,1,8,0:0:0:0:
80,345,4448,1,2,0:0:0:0:
165,172,4877,1,8,0:0:0:0:
292,158,5091,6,0,P|379:129|392:60,1,160,4|2,0:0|0:0,0:0:0:0:
307,29,5734,1,2,0:0:0:0:
307,29,5948,2,0,L|494:51,1,160,2|8,0:0|0:0,0:0:0:0:
510,132,6591,1,8,0:0:0:0:
450,246,6805,6,0,P|367:234|307:305,1,160,4|2,0:0|0:0,0:0:0:0:
246,213,7448,1,8,0:0:0:0:
183,285,7663,1,2,0:0:0:0:
183,285,7877,1,2,0:0:0:0:
102,337,8091,2,0,L|22:329,1,80,2|8,0:0|0:0,0:0:0:0:
2,203,8520,6,0,L|17:23,1,160,12|2,0:0|0:0,0:0:0:0:
112,36,9163,1,8,0:0:0:0:
112,36,9377,2,0,P|199:15|265:65,1,160,2|2,0:0|0:0,0:0:0:0:
285,142,10020,2,0,L|390:132,1,80,8|4,0:0|0:0,0:0:0:0:
391,215,10448,6,0,L|489:206,1,80,2|0,0:0|0:0,0:0:0:0:
500,116,10877,1,8,0:0:0:0:
500,116,11091,2,0,P|465:46|391:21,1,160,2|0,0:0|0:0,0:0:0:0:
304,62,11734,1,8,0:0:0:0:
304,62,11948,6,0,P|219:90|149:46,1,160,2|2,0:0|0:0,0:0:0:0:
76,12,12591,1,8,0:0:0:0:
76,12,12805,1,2,0:0:0:0:
26,94,13020,2,0,L|33:181,1,80,8|2,0:0|0:0,0:0:0:0:
42,269,13448,1,2,0:0:0:0:
169,286,13663,6,0,P|229:258|302:281,1,128,4|0,0:0|0:0,0:0:0:0:
380,293,14305,2,0,L|367:153,1,128,2|0,0:0|0:0,0:0:0:0:
445,107,14948,2,0,L|451:183,1,64,0|2,0:0|0:0,0:0:0:0:
483,260,15377,6,0,P|511:320|488:393,1,128,0|0,0:0|0:0,0:0:0:0:
414,330,16020,1,2,0:0:0:0:
319,345,16234,2,0,L|325:266,1,64,0|0,0:0|0:0,0:0:0:0:
232,311,16663,2,0,L|239:224,1,64,0|2,0:0|0:0,0:0:0:0:
264,122,17091,6,0,P|236:64|176:65,1,128,4|0,0:0|0:0,0:0:0:0:
116,137,17734,1,2,0:0:0:0:
116,137,17948,2,0,L|122:278,1,128,0|0,0:0|0:0,0:0:0:0:
69,345,18591,1,2,0:0:0:0:
3,277,18805,1,0,0:0:0:0:
41,154,19020,6,0,P|28:111|-1:85,2,80,8|2|8,0:0|0:0|0:0,0:0:0:0:
112,220,19663,1,2,0:0:0:0:
112,220,19877,2,0,L|216:210,1,80,8|2,0:0|0:0,0:0:0:0:
287,200,20305,1,2,0:0:0:0:
393,128,20520,6,0,P|422:203|365:285,1,160,4|0,0:0|0:0,0:0:0:0:
301,312,21163,1,8,0:0:0:0:
301,312,21377,1,8,0:0:0:0:
250,230,21591,2,0,P|179:196|107:225,1,160,2|8,0:0|0:0,0:0:0:0:
17,258,22234,1,2,0:0:0:0:
17,258,22448,6,0,L|16:153,1,80,8|2,0:0|0:0,0:0:0:0:
19,82,22877,1,8,0:0:0:0:
19,82,23091,2,2,L|106:74,1,80,0|8,0:0|0:0,0:0:0:0:
194,64,23520,1,2,0:0:0:0:
194,64,23627,1,2,0:0:0:0:
194,64,23734,1,8,0:0:0:0:
146,183,23948,6,0,P|119:253|144:317,1,128,4|0,0:0|0:0,0:0:0:0:
214,250,24591,2,0,L|292:243,1,64,2|0,0:0|0:0,0:0:0:0:
357,298,25020,1,0,0:0:0:0:
390,208,25234,2,0,L|390:127,1,64,0|2,0:0|0:0,0:0:0:0:
238,76,25663,6,0,P|305:47|339:102,1,128
286,162,26305,1,2,0:0:0:0:
202,208,26520,2,0,P|139:166|135:100,1,128,0|0,0:0|0:0,0:0:0:0:
145,22,27163,1,2,0:0:0:0:
265,65,27377,6,0,L|403:52,1,128,6|0,0:0|0:0,0:0:0:0:
468,112,28020,1,2,0:0:0:0:
259,311,28663,2,0,L|173:304,1,64
103,278,29091,6,0,P|180:254|202:178,1,160,2|2,0:0|0:0,0:0:0:0:
164,96,29734,1,8,0:0:0:0:
234,30,29948,1,2,0:0:0:0:
234,30,30163,1,8,0:0:0:0:
299,100,30377,2,0,L|381:92,1,80,2|2,0:0|0:0,0:0:0:0:
432,210,30805,6,0,P|447:296|382:350,1,160,4|0,0:0|0:0,0:0:0:0:
291,274,31448,2,0,L|370:266,1,80,8|0,0:0|0:0,0:0:0:0:
310,190,31877,2,0,L|200:201,1,80,2|0,0:0|0:0,0:0:0:0:
156,260,32305,1,8,0:0:0:0:
93,187,32520,1,2,0:0:0:0:
164,123,32734,6,0,L|243:115,1,80,8|2,0:0|0:0,0:0:0:0:
183,39,33163,2,0,L|73:50,1,80,8|2,0:0|0:0,0:0:0:0:
7,59,33591,1,8,0:0:0:0:
57,140,33805,1,2,0:0:0:0:
57,140,33913,1,2,0:0:0:0:
57,140,34020,1,2,0:0:0:0:
159,216,34234,5,2,0:0:0:0:
159,216,34448,2,0,L|265:206,1,80,6|0,0:0|0:0,0:0:0:0:
316,265,34877,2,0,P|334:223|331:187,1,80,0|2,0:0|0:0,0:0:0:0:
281,107,35305,1,2,0:0:0:0:
281,107,35520,1,2,0:0:0:0:
199,156,35734,2,0,L|98:147,1,80,8|0,0:0|0:0,0:0:0:0:
94,56,36163,6,0,P|131:30|167:26,1,80,2|0,0:0|0:0,0:0:0:0:
249,71,36591,2,0,P|291:89|327:86,1,80,0|2,0:0|0:0,0:0:0:0:
414,52,37020,1,2,0:0:0:0:
414,52,37234,1,2,0:0:0:0:
474,126,37448,2,0,L|466:209,1,80,8|0,0:0|0:0,0:0:0:0:
384,255,37877,6,0,L|391:171,1,80,2|0,0:0|0:0,0:0:0:0:
318,112,38305,2,0,L|310:200,1,80,0|2,0:0|0:0,0:0:0:0:
251,266,38734,1,2,0:0:0:0:
251,266,38948,1,2,0:0:0:0:
168,216,39163,2,0,P|126:226|87:211,1,80,8|0,0:0|0:0,0:0:0:0:
22,148,39591,6,0,L|13:48,1,80,2|0,0:0|0:0,0:0:0:0:
91,9,40020,2,0,L|98:89,1,80,0|2,0:0|0:0,0:0:0:0:
183,139,40448,1,2,0:0:0:0:
183,139,40663,2,0,P|220:150|258:140,1,80,2|8,0:0|0:0,0:0:0:0:
367,72,41091,6,0,P|394:145|367:218,1,160,6|0,0:0|0:0,0:0:0:0:
290,276,41734,2,0,L|208:268,1,80,8|2,0:0|0:0,0:0:0:0:
114,259,42163,1,2,0:0:0:0:
63,177,42377,2,0,L|18:177,2,40,0|0|8,0:0|0:0|0:0,0:0:0:0:
189,153,42805,6,0,P|158:227|188:298,1,160,6|0,0:0|0:0,0:0:0:0:
257,362,43448,2,0,L|337:354,1,80,8|2,0:0|0:0,0:0:0:0:
389,274,43877,1,2,0:0:0:0:
389,273,44091,2,0,L|305:265,1,80,2|8,0:0|0:0,0:0:0:0:
234,161,44520,5,2,0:0:0:0:
234,161,44734,2,0,L|225:67,1,80,8|2,0:0|0:0,0:0:0:0:
143,32,45163,2,0,L|150:114,1,80,8|2,0:0|0:0,0:0:0:0:
77,174,45591,1,8,0:0:0:0:
77,174,45805,2,0,P|64:216|74:253,1,80,2|2,0:0|0:0,0:0:0:0:
163,341,46234,6,0,L|324:326,1,160,4|2,0:0|0:0,0:0:0:0:
417,311,46877,1,2,0:0:0:0:
349,200,47091,2,0,P|331:115|386:54,1,160,8|2,0:0|0:0,0:0:0:0:
458,17,47734,1,8,0:0:0:0:
409,137,47948,6,0,L|227:121,1,160,6|2,0:0|0:0,0:0:0:0:
162,161,48591,1,8,0:0:0:0:
72,68,48805,2,0,P|115:132|95:207,1,160,4|2,0:0|0:0,0:0:0:0:
39,286,49448,1,8,0:0:0:0:
167,307,49663,6,0,P|235:270|307:298,1,160,4|0,0:0|0:0,0:0:0:0:
387,353,50305,1,8,0:0:0:0:
461,268,50520,2,0,L|368:260,1,80,2|8,0:0|0:0,0:0:0:0:
301,172,50948,2,0,L|397:163,1,80,2|8,0:0|0:0,0:0:0:0:
469,71,51377,6,0,L|301:56,1,160,4|2,0:0|0:0,0:0:0:0:
217,28,52020,2,0,P|174:36|130:24,1,80,8|2,0:0|0:0,0:0:0:0:
64,89,52448,2,0,P|72:132|59:175,1,80,2|2,0:0|0:0,0:0:0:0:
29,257,52877,1,8,0:0:0:0:
101,323,53091,6,0,L|202:314,1,80,2|2,0:0|0:0,0:0:0:0:
263,364,53520,2,0,P|305:355|349:367,1,80,2|8,0:0|0:0,0:0:0:0:
425,317,53948,2,0,P|467:326|511:314,2,80,2|0|2,0:0|0:0|0:0,0:0:0:0:
345,263,54591,1,8,0:0:0:0:
433,132,54805,6,0,P|445:59|381:-1,1,160,4|0,0:0|0:0,0:0:0:0:
308,54,55448,2,0,L|228:46,1,80,8|0,0:0|0:0,0:0:0:0:
179,129,55877,2,0,L|99:135,1,80,2|2,0:0|0:0,0:0:0:0:
3,144,56305,1,8,0:0:0:0:
46,229,56520,6,0,P|35:274|64:328,1,80,2|2,0:0|0:0,0:0:0:0:
122,360,56948,2,0,P|167:371|221:342,1,80,2|8,0:0|0:0,0:0:0:0:
262,290,57377,2,0,L|341:282,1,80,2|2,0:0|0:0,0:0:0:0:
437,269,57805,1,8,0:0:0:0:
437,269,58020,1,8,0:0:0:0:
470,113,58234,6,0,P|392:83|314:119,1,160,4|2,0:0|0:0,0:0:0:0:
233,141,58877,2,0,L|133:131,1,80,8|2,0:0|0:0,0:0:0:0:
79,71,59305,2,0,P|110:142|62:228,1,160,2|8,0:0|0:0,0:0:0:0:
33,298,59948,6,0,L|133:306,1,80,2|2,0:0|0:0,0:0:0:0:
186,366,60377,2,0,L|266:358,1,80,2|8,0:0|0:0,0:0:0:0:
314,275,60805,1,2,0:0:0:0:
314,275,61020,2,0,L|402:282,1,80,2|2,0:0|0:0,0:0:0:0:
489,294,61448,1,8,0:0:0:0:
489,133,61663,6,0,P|417:81|331:113,1,160,4|2,0:0|0:0,0:0:0:0:
261,124,62305,1,8,0:0:0:0:
112,183,62520,6,0,P|126:259|78:321,1,160,6|2,0:0|0:0,0:0:0:0:
32,236,63163,1,8,0:0:0:0:
43,76,63377,6,0,P|96:19|174:21,1,160,6|2,0:0|0:0,0:0:0:0:
254,75,64020,1,8,0:0:0:0:
330,17,64234,2,0,L|399:10,2,40,2|2|8,0:0|0:0|0:0,0:0:0:0:
373,103,64663,2,0,L|478:93,1,80,2|2,0:0|0:0,0:0:0:0:
427,254,65091,6,0,P|357:287|284:260,1,160,4|2,0:0|0:0,0:0:0:0:
201,209,65734,2,0,P|162:217|123:207,1,80,8|2,0:0|0:0,0:0:0:0:
125,109,66163,2,0,P|162:99|201:109,1,80,2|2,0:0|0:0,0:0:0:0:
284,156,66591,1,8,0:0:0:0:
368,111,66805,6,0,L|461:102,1,80,2|2,0:0|0:0,0:0:0:0:
497,20,67234,2,0,L|417:12,1,80,2|8,0:0|0:0,0:0:0:0:
323,35,67663,2,0,P|283:42|235:22,2,80,2|2|2,0:0|0:0|0:0,0:0:0:0:
402,88,68305,1,8,0:0:0:0:
283,199,68520,6,0,P|314:280|260:345,1,160,4|0,0:0|0:0,0:0:0:0:
152,257,69163,2,0,L|231:264,1,80,8|2,0:0|0:0,0:0:0:0:
187,177,69591,2,0,L|74:167,1,80,2|2,0:0|0:0,0:0:0:0:
25,221,70020,1,8,0:0:0:0:
24,113,70234,6,0,P|26:73|46:38,1,80,2|2,0:0|0:0,0:0:0:0:
140,21,70663,2,0,P|140:59|120:94,1,80,2|8,0:0|0:0,0:0:0:0:
78,181,71091,2,0,P|93:220|126:242,1,80,2|2,0:0|0:0,0:0:0:0:
208,285,71520,1,8,0:0:0:0:
208,285,71734,1,8,0:0:0:0:
285,146,71948,6,0,P|363:168|395:258,1,160,4|2,0:0|0:0,0:0:0:0:
425,326,72591,1,8,0:0:0:0:
495,260,72805,2,0,L|506:86,1,160,2|2,0:0|0:0,0:0:0:0:
510,4,73448,1,8,0:0:0:0:
366,73,73663,6,0,P|293:110|209:66,1,160,6|0,0:0|0:0,0:0:0:0:
149,24,74305,1,8,0:0:0:0:
69,77,74520,2,0,P|34:146|62:218,1,160,2|2,0:0|0:0,0:0:0:0:
120,295,75163,1,8,0:0:0:0:
275,333,75377,6,0,L|440:318,1,160,6|2,0:0|0:0,0:0:0:0:
492,242,76020,2,0,P|508:206|504:166,1,80,8|2,0:0|0:0,0:0:0:0:
417,123,76448,2,0,P|414:77|438:39,1,80,2|2,0:0|0:0,0:0:0:0:
512,0,76877,1,8,0:0:0:0:
352,9,77091,6,0,L|188:9,1,160,6|8,0:0|0:0,0:0:0:0:
121,74,77734,2,0,P|109:115|124:161,1,80,8|2,0:0|0:0,0:0:0:0:
125,246,78163,2,0,P|168:237|222:265,1,80,8|2,0:0|0:0,0:0:0:0:
285,295,78591,1,2,0:0:0:0:
424,215,78805,6,0,L|409:44,1,160,4|2,0:0|0:0,0:0:0:0:
318,85,79448,1,8,0:0:0:0:
239,30,79663,1,2,0:0:0:0:
170,97,79877,2,0,B|130:104|130:104|74:87,1,80,2|0,0:0|0:0,0:0:0:0:
3,56,80305,1,8,0:0:0:0:
51,214,80520,6,0,P|123:184|194:215,1,160,4|0,0:0|0:0,0:0:0:0:
260,286,81163,1,8,0:0:0:0:
329,219,81377,2,0,L|502:203,1,160,2|2,0:0|0:0,0:0:0:0:
442,359,82020,1,8,0:0:0:0:
370,296,82234,1,4,0:0:0:0:
256,192,82341,12,0,84377,0:0:0:0:
78,66,85877,6,0,L|180:57,1,80,2|0,0:0|0:0,0:0:0:0:
227,124,86305,1,8,0:0:0:0:
292,54,86520,2,0,P|394:52|422:99,1,160,2|2,0:0|0:0,0:0:0:0:
438,187,87163,1,8,0:0:0:0:
352,230,87377,6,0,L|289:224,2,40,2|2|8,0:0|0:0|0:0,0:0:0:0:
425,292,87805,2,0,P|436:332|412:381,1,80,2|2,0:0|0:0,0:0:0:0:
271,323,88234,1,12,0:0:0:0:
