osu file format v14

[General]
AudioFilename: audio.mp3
AudioLeadIn: 0
PreviewTime: 49340
Countdown: 0
SampleSet: Soft
StackLeniency: 0.7
Mode: 2
LetterboxInBreaks: 0
WidescreenStoryboard: 1

[Editor]
Bookmarks: 12723,24017,35311,49429,72017,83311,94605,105899,120017,142605,165193,190605,192017,193429,216017,227311
DistanceSpacing: 1.1
BeatDivisor: 6
GridSize: 32
TimelineZoom: 2.899999

[Metadata]
Title:Jinrui Mina Senpai! (Mtell & Ange;art Hardcore Bootleg)
TitleUnicode:人類みなセンパイ!(Mtell & Ange;art Hardcore Bootleg)
Artist:Azuma Lim
ArtistUnicode:アズマリム
Creator:Spectator
Version:Hex's Platter
Source:
Tags:-hex- hex amulet-pp amulet japanese pop jpop j-pop electronic drum and bass dnb hardcore まふまふ mafumafu 田中秀和 monaca tanaka 畑 亜貴 hata aki hidekazu vtuber
BeatmapID:2983002
BeatmapSetID:1374612

[Difficulty]
HPDrainRate:4
CircleSize:3
OverallDifficulty:8
ApproachRate:8
SliderMultiplier:1.7
SliderTickRate:1

[Events]
//Background and Video events
0,0,"azumalim.jpg",0,0
//Break Periods
2,180913,185610
//Storyboard Layer 0 (Background)
//Storyboard Layer 1 (Fail)
//Storyboard Layer 2 (Pass)
//Storyboard Layer 3 (Foreground)
//Storyboard Layer 4 (Overlay)
//Storyboard Sound Samples

[TimingPoints]
1419,352.941176470588,4,2,1,70,1,0
6536,-100,4,2,4,70,0,0
6625,-100,4,2,1,70,0,0
7066,-100,4,2,4,70,0,0
7948,-100,4,2,45,70,0,0
8036,-100,4,2,4,70,0,0
8654,-100,4,2,4,70,0,0
8742,-100,4,2,4,70,0,0
9360,-100,4,2,4,70,0,0
9448,-100,4,2,4,70,0,0
12713,-100,4,2,1,70,0,0
35301,-100,4,2,3,70,0,0
40419,-100,4,2,4,70,0,0
48007,-100,4,2,1,70,0,0
48360,-83.3333333333333,4,2,1,70,0,0
48889,-100,4,2,1,70,0,0
49066,-100,4,3,20,70,0,0
49418,-90.9090909090909,4,2,2,70,0,1
55066,-90.9090909090909,4,2,1,70,0,1
55154,-90.9090909090909,4,2,2,70,0,1
59301,-90.9090909090909,4,2,1,70,0,1
60713,-90.9090909090909,4,2,2,70,0,1
70595,-90.9090909090909,4,2,1,70,0,1
71654,-90.9090909090909,4,2,2,70,0,1
71742,-90.9090909090909,4,3,20,70,0,1
72007,-100,4,2,2,70,0,0
77301,-100,4,2,1,70,0,0
77654,-100,4,2,2,70,0,0
81889,-100,4,2,1,70,0,0
105889,-100,4,2,3,70,0,0
111536,-100,4,2,4,70,0,0
118948,-83.3333333333333,4,2,4,70,0,0
119478,-100,4,2,4,70,0,0
119654,-100,4,3,20,70,0,0
120007,-90.9090909090909,4,2,2,70,0,1
125654,-90.9090909090909,4,2,1,70,0,1
125742,-90.9090909090909,4,2,2,70,0,1
129889,-90.9090909090909,4,2,1,70,0,1
131301,-90.9090909090909,4,2,2,70,0,1
141183,-90.9090909090909,4,2,1,70,0,1
142595,-100,4,2,6,70,0,0
146830,-100,4,2,1,70,0,0
147183,-100,4,2,6,70,0,0
148242,-100,4,2,4,70,0,0
149301,-100,4,2,1,70,0,0
149654,-100,4,2,4,70,0,0
151066,-100,4,2,1,70,0,0
152478,-100,4,2,4,70,0,0
156536,-100,4,2,1,70,0,0
156713,-100,4,2,4,70,0,0
159007,-100,4,2,1,70,0,0
159536,-100,4,2,2,70,0,0
163683,-100,4,2,1,70,0,0
165183,-100,4,2,2,70,0,0
177889,-100,4,2,1,70,0,0
190595,-100,4,2,2,70,0,0
193066,-100,4,2,10,70,0,0
193154,-100,4,2,2,70,0,0
193419,-100,4,2,1,70,0,0
193595,-100,4,2,2,70,0,0
194478,-100,4,2,10,70,0,0
194830,-90.9090909090909,4,2,2,70,0,1
203301,-90.9090909090909,4,2,1,70,0,1
204360,-90.9090909090909,4,2,20,70,0,1
204713,-90.9090909090909,4,2,2,70,0,1
214595,-90.9090909090909,4,2,1,70,0,1
215654,-90.9090909090909,4,2,20,70,0,0
216007,-83.3333333333333,4,2,2,70,0,1
227301,-100,4,2,4,70,0,0
232419,-100,4,2,1,70,0,0
232948,-100,4,2,4,70,0,0
233830,-100,4,2,45,70,0,0
233919,-100,4,2,4,70,0,0
234536,-100,4,2,4,70,0,0
234625,-100,4,2,4,70,0,0
238242,-100,4,2,1,70,0,0
238595,-100,4,2,4,70,0,0

[Colours]
Combo1 : 247,125,129
Combo2 : 117,205,242
Combo3 : 192,192,192

[HitObjects]
213,281,1419,6,0,L|202:92,1,170,4|2,0:2|0:0,0:0:0:0:
375,274,2124,2,0,L|387:104,1,170,0|2,3:0|0:0,0:0:0:0:
194,335,2830,6,0,L|186:245,1,85,0|0,3:0|0:0,0:0:0:0:
271,220,3183,2,0,L|282:103,1,85,2|0,0:0|0:0,0:0:0:0:
106,261,3536,1,0,3:0:0:0:
88,180,3712,1,0,0:0:0:0:
133,110,3888,1,2,0:0:0:0:
214,95,4065,1,0,0:0:0:0:
390,26,4242,5,0,3:0:0:0:
389,116,4418,1,0,0:0:0:0:
474,113,4595,1,2,0:0:0:0:
389,116,4771,1,0,0:0:0:0:
217,108,4948,2,0,L|113:110,1,85,0|0,3:0|0:0,0:0:0:0:
217,186,5301,2,0,L|217:285,1,85,2|0,0:0|0:0,0:0:0:0:
388,339,5654,6,0,L|244:338,2,127.5,8|8|8,0:0|0:0|0:0,0:0:0:0:
217,224,6360,2,0,L|114:222,1,85,0|8,3:0|0:0,0:0:0:0:
224,135,6713,1,8,0:0:0:0:
266,134,6801,1,8,0:0:0:0:
308,133,6889,1,8,0:0:0:0:
56,326,7066,6,0,P|15:259|75:179,1,170,4|0,0:0|3:0,0:0:0:0:
142,178,7595,1,8,0:0:0:0:
312,177,7771,2,0,L|166:176,2,127.5,0|0|8,3:0|0:0|0:0,0:0:0:0:
483,180,8477,5,0,3:0:0:0:
488,264,8653,1,8,0:0:0:0:
404,310,8830,2,0,L|287:308,1,85,0|8,3:0|0:0,0:0:0:0:
490,352,9183,2,0,L|492:176,1,170,0|0,3:0|3:0,0:0:0:0:
407,177,9712,1,8,0:0:0:0:
149,341,9889,6,0,L|38:339,1,85,0|8,3:0|0:0,0:0:0:0:
150,254,10242,2,0,L|258:257,1,85,0|8,3:0|0:0,0:0:0:0:
405,249,10595,2,0,L|408:137,1,85,0|8,3:0|0:0,0:0:0:0:
321,92,10948,2,0,L|418:93,1,85,0|8,3:0|0:0,0:0:0:0:
143,296,11301,6,0,L|2:292,2,127.5,0|0|0,3:0|3:0|3:0,0:0:0:0:
390,285,12007,1,0,3:0:0:0:
109,223,12713,6,0,P|99:148|186:83,1,170,4|8,0:0|0:0,0:0:0:0:
334,76,13418,2,0,L|337:186,1,85,0|0,3:0|0:0,0:0:0:0:
251,165,13771,2,0,L|237:255,1,85,8|0,0:0|0:0,0:0:0:0:
407,302,14124,6,0,L|513:300,1,85,0|0,3:0|0:0,0:0:0:0:
407,302,14477,2,0,L|509:302,1,85,8|0,2:0|0:0,0:0:0:0:
323,215,14830,2,0,L|134:216,1,170,0|8,3:0|0:0,0:0:0:0:
239,137,15360,1,0,2:0:0:0:
408,126,15536,6,0,P|390:68|293:7,1,170,0|8,3:0|0:0,0:0:0:0:
131,22,16242,2,0,L|255:24,1,85,0|0,3:0|0:0,0:0:0:0:
301,92,16595,2,0,L|185:93,1,85,8|0,0:0|0:0,0:0:0:0:
45,222,16948,6,0,L|142:228,1,85,0|0,3:0|0:0,0:0:0:0:
45,222,17301,2,0,L|156:227,1,85,8|0,0:0|3:0,0:0:0:0:
301,224,17654,2,0,P|354:187|275:128,1,170,0|8,0:0|0:0,0:0:0:0:
217,122,18183,1,0,3:0:0:0:
464,125,18360,6,0,P|469:182|358:221,1,170,4|8,0:0|0:0,0:0:0:0:
211,232,19066,2,0,L|199:134,1,85,0|0,3:0|0:0,0:0:0:0:
287,88,19418,2,0,L|389:83,1,85,8|0,0:0|0:0,0:0:0:0:
202,329,19771,5,0,3:0:0:0:
184,248,19947,1,0,0:0:0:0:
234,184,20123,1,8,0:0:0:0:
317,183,20300,1,0,0:0:0:0:
489,190,20477,2,0,L|500:-5,1,170,0|8,3:0|0:0,0:0:0:0:
412,18,21007,1,0,0:0:0:0:
242,29,21183,6,0,L|138:29,1,85,0|0,3:0|0:0,0:0:0:0:
242,29,21536,2,0,L|138:28,1,85,8|0,0:0|0:0,0:0:0:0:
328,112,21889,1,0,3:0:0:0:
414,142,22065,1,0,0:0:0:0:
415,221,22241,1,8,0:0:0:0:
331,249,22418,1,0,0:0:0:0:
162,356,22595,5,0,3:0:0:0:
76,354,22771,1,0,0:0:0:0:
162,356,22948,1,8,2:0:0:0:
76,354,23124,1,0,3:0:0:0:
332,356,23301,5,2,0:0:0:0:
487,355,23654,1,0,0:0:0:0:
62,187,24007,6,0,P|62:129|176:85,1,170,4|8,0:0|0:0,0:0:0:0:
316,87,24713,2,0,L|215:88,1,85,0|0,3:0|0:0,0:0:0:0:
147,173,25066,2,0,L|241:174,1,85,8|0,0:0|0:0,0:0:0:0:
403,347,25418,6,0,L|412:252,1,85,0|0,3:0|0:0,0:0:0:0:
325,243,25771,2,0,L|318:142,1,85,8|0,0:0|0:0,0:0:0:0:
489,169,26124,2,0,P|487:109|412:27,1,170,0|8,3:0|0:0,0:0:0:0:
332,32,26654,1,0,0:0:0:0:
164,162,26830,6,0,L|351:163,1,170,0|8,3:0|0:0,0:0:0:0:
163,340,27536,2,0,L|66:339,1,85,0|0,3:0|0:0,0:0:0:0:
163,340,27889,2,0,L|62:340,1,85,8|0,0:0|0:0,0:0:0:0:
250,339,28242,5,0,3:0:0:0:
259,256,28418,1,0,0:0:0:0:
214,185,28594,1,8,0:0:0:0:
135,159,28771,1,8,2:0:0:0:
308,62,28948,2,0,L|420:61,2,85,0|0|8,3:0|0:0|0:0,0:0:0:0:
220,54,29477,1,8,0:0:0:0:
468,59,29654,5,4,0:0:0:0:
400,108,29830,2,0,L|311:147,2,85,0|8|0,0:0|0:0|0:0,0:0:0:0:
236,292,30360,2,0,P|185:263|248:191,1,170,0|8,3:0|0:0,0:0:0:0:
320,200,30889,1,0,0:0:0:0:
490,212,31066,5,0,3:0:0:0:
490,212,31242,1,0,0:0:0:0:
413,209,31418,1,8,0:0:0:0:
490,212,31595,1,0,0:0:0:0:
328,347,31771,2,0,L|134:343,1,170,0|8,3:0|0:0,0:0:0:0:
235,281,32301,1,0,0:0:0:0:
72,183,32477,6,0,L|169:183,1,85,0|0,3:0|0:0,0:0:0:0:
72,183,32830,2,0,L|180:183,1,85,8|0,0:0|0:0,0:0:0:0:
328,183,33183,2,0,L|437:183,1,85,0|0,3:0|0:0,0:0:0:0:
328,183,33536,2,0,L|328:286,1,85,8|0,0:0|0:0,0:0:0:0:
160,361,33889,5,0,3:0:0:0:
226,308,34065,1,0,0:0:0:0:
304,269,34241,1,8,0:0:0:0:
386,244,34418,1,0,3:0:0:0:
142,60,34595,5,2,0:0:0:0:
6,62,34948,1,2,0:0:0:0:
433,66,35301,5,4,0:2:0:0:
510,69,35477,2,0,L|513:132,2,42.5,0|0|8,0:0|0:0|0:0,0:0:0:0:
433,66,35830,1,0,0:0:0:0:
263,71,36007,1,0,0:0:0:0:
222,76,36095,1,0,0:0:0:0:
201,111,36183,1,0,3:0:0:0:
216,149,36271,1,0,0:0:0:0:
256,160,36359,1,8,0:0:0:0:
341,158,36536,1,0,0:0:0:0:
171,322,36713,5,0,3:0:0:0:
163,280,36801,1,0,0:0:0:0:
177,241,36889,1,0,0:0:0:0:
209,214,36977,1,0,0:0:0:0:
251,206,37065,1,8,0:0:0:0:
420,214,37242,1,0,0:0:0:0:
423,171,37330,1,0,0:0:0:0:
427,129,37418,1,0,0:0:0:0:
342,119,37595,1,0,3:0:0:0:
256,117,37771,2,0,L|372:117,1,85,8|0,0:0|0:0,0:0:0:0:
170,32,38124,5,0,3:0:0:0:
127,31,38212,1,0,0:0:0:0:
85,31,38300,1,0,0:0:0:0:
42,31,38388,1,0,0:0:0:0:
0,31,38476,1,8,0:0:0:0:
86,102,38654,1,0,0:0:0:0:
255,96,38830,2,0,L|332:96,2,42.5,0|0|0,0:0|0:0|3:0,0:0:0:0:
170,96,39183,2,0,L|63:97,1,85,8|0,0:0|0:0,0:0:0:0:
349,290,39536,6,0,L|501:289,2,127.5,0|0|0,3:0|3:0|3:0,0:0:0:0:
94,304,40242,2,0,L|86:208,1,85,0|8,3:0|0:0,0:0:0:0:
135,198,40507,1,8,0:0:0:0:
183,195,40595,1,8,0:0:0:0:
98,76,40771,1,8,0:0:0:0:
341,31,40948,6,0,L|451:28,1,85,4|8,3:2|0:0,0:0:0:0:
341,31,41301,2,0,L|339:147,1,85,0|8,3:0|0:0,0:0:0:0:
492,305,41654,2,0,P|510:232|424:162,1,170,0|0,3:0|3:0,0:0:0:0:
366,162,42183,1,8,0:0:0:0:
114,298,42360,6,0,L|11:265,2,85,0|8|0,3:0|0:0|3:0,0:0:0:0:
285,298,42889,2,0,P|334:258|275:185,1,170,8|8,0:0|0:0,0:0:0:0:
202,181,43418,1,0,3:0:0:0:
116,181,43595,1,0,3:0:0:0:
366,352,43771,5,0,3:0:0:0:
441,320,43947,1,8,0:0:0:0:
455,240,44123,1,8,0:0:0:0:
369,232,44301,1,8,0:0:0:0:
293,200,44477,1,8,0:0:0:0:
279,120,44653,1,8,0:0:0:0:
453,40,44830,2,0,L|360:39,1,85,8|8,0:0|0:0,0:0:0:0:
107,332,45183,5,0,3:0:0:0:
135,254,45359,1,8,0:0:0:0:
212,226,45535,1,8,0:0:0:0:
298,226,45713,1,8,0:0:0:0:
219,198,45889,1,8,0:0:0:0:
182,124,46065,1,8,0:0:0:0:
20,45,46242,2,0,L|139:46,1,85,8|8,0:0|0:0,0:0:0:0:
350,44,46595,6,0,P|405:61|473:105,2,127.5,8|8|8,0:0|0:0|0:0,0:0:0:0:
178,243,47301,2,0,L|42:239,2,127.5,8|8|8,0:0|0:0|0:0,0:0:0:0:
440,158,48007,5,8,0:0:0:0:
59,292,49418,6,0,P|129:238|255:268,1,187.000005706787,4|8,0:2|0:0,0:0:0:0:
313,259,49948,1,0,0:0:0:0:
227,266,50124,2,0,L|214:162,1,93.5000028533936,0|0,3:0|0:0,0:0:0:0:
398,89,50477,1,8,0:0:0:0:
236,23,50830,6,0,L|131:24,1,93.5000028533936,0|0,3:0|0:0,0:0:0:0:
227,90,51183,2,0,L|329:87,1,93.5000028533936,8|0,0:0|0:0,0:0:0:0:
146,153,51536,1,0,3:0:0:0:
61,165,51712,1,0,0:0:0:0:
59,251,51888,1,8,0:0:0:0:
143,261,52065,1,0,0:0:0:0:
396,261,52242,6,0,P|444:227|373:136,1,187.000005706787,0|8,3:0|0:0,0:0:0:0:
306,48,52771,1,0,0:0:0:0:
391,122,52948,2,0,L|281:122,1,93.5000028533936,0|0,3:0|0:0,0:0:0:0:
114,116,53301,1,8,0:0:0:0:
275,338,53654,5,0,3:0:0:0:
250,248,53830,1,0,0:0:0:0:
187,181,54006,1,8,0:0:0:0:
99,151,54183,1,0,0:0:0:0:
273,54,54360,2,0,L|382:52,1,93.5000028533936,0|0,3:0|0:0,0:0:0:0:
282,119,54713,2,0,L|151:121,1,93.5000028533936,8|0,0:0|3:0,0:0:0:0:
471,327,55066,6,0,P|487:278|447:147,1,187.000005706787,4|8,0:0|0:0,0:0:0:0:
368,149,55595,1,0,0:0:0:0:
285,151,55771,2,0,L|268:48,1,93.5000028533936,0|0,3:0|0:0,0:0:0:0:
441,94,56124,2,0,L|448:-4,1,93.5000028533936,8|0,0:0|0:0,0:0:0:0:
188,246,56477,6,0,L|40:170,2,140.25000428009,0|0|0,3:0|0:0|0:0,0:0:0:0:
363,348,57183,2,0,L|473:339,2,93.5000028533936,0|0|8,3:0|0:0|0:0,0:0:0:0:
277,347,57713,1,0,0:0:0:0:
23,225,57889,6,0,L|18:119,1,93.5000028533936,8|0,2:0|0:0,0:0:0:0:
103,96,58242,2,0,L|235:91,1,93.5000028533936,8|0,0:0|0:0,0:0:0:0:
369,86,58595,2,0,L|373:212,1,93.5000028533936,8|0,2:0|0:0,0:0:0:0:
198,275,58948,2,0,L|97:272,1,93.5000028533936,8|0,0:0|0:0,0:0:0:0:
371,198,59301,6,0,L|520:197,2,140.25000428009,4|4|4,0:0|0:0|0:0,0:0:0:0:
106,199,60007,2,0,L|0:197,1,93.5000028533936,4|8,0:0|0:0,0:0:0:0:
106,113,60360,1,8,0:0:0:0:
59,113,60448,1,8,0:0:0:0:
12,113,60536,1,8,0:0:0:0:
305,213,60713,6,0,L|508:212,1,187.000005706787,4|8,0:2|0:0,0:0:0:0:
406,312,61242,1,0,0:0:0:0:
321,315,61418,2,0,L|312:214,1,93.5000028533936,0|0,3:0|0:0,0:0:0:0:
491,145,61771,1,8,0:0:0:0:
327,50,62124,6,0,L|199:48,1,93.5000028533936,0|0,3:0|0:0,0:0:0:0:
320,127,62477,2,0,L|330:224,1,93.5000028533936,8|0,0:0|0:0,0:0:0:0:
157,338,62830,1,0,3:0:0:0:
213,264,63006,1,0,0:0:0:0:
292,215,63182,1,8,0:0:0:0:
383,197,63359,1,0,0:0:0:0:
103,168,63536,6,0,P|53:152|53:28,1,187.000005706787,0|8,3:0|0:0,0:0:0:0:
130,25,64066,1,0,0:0:0:0:
46,28,64242,1,0,3:0:0:0:
218,166,64418,2,0,L|45:169,1,140.25000428009,8|8,0:0|0:0,0:0:0:0:
419,313,64948,6,0,L|516:364,2,93.5000028533936,4|0|8,3:2|0:0|0:0,0:0:0:0:
336,311,65477,1,0,0:0:0:0:
164,307,65654,2,0,L|151:205,1,93.5000028533936,0|0,3:0|0:0,0:0:0:0:
326,181,66007,2,0,L|331:79,1,93.5000028533936,8|0,0:0|0:0,0:0:0:0:
57,148,66360,6,0,P|84:88|208:38,1,187.000005706787,0|8,3:0|0:0,0:0:0:0:
275,33,66889,1,0,0:0:0:0:
360,34,67066,2,0,L|261:34,1,93.5000028533936,0|0,3:0|0:0,0:0:0:0:
94,30,67418,2,0,L|88:147,1,93.5000028533936,8|0,0:0|0:0,0:0:0:0:
367,150,67771,6,0,P|421:158|500:236,2,140.25000428009,0|0|0,3:0|0:0|0:0,0:0:0:0:
194,153,68477,2,0,P|182:93|304:52,1,187.000005706787,0|8,3:0|0:0,0:0:0:0:
352,32,69007,1,0,0:0:0:0:
93,49,69183,6,0,L|-12:49,1,93.5000028533936,8|0,2:0|0:0,0:0:0:0:
93,49,69536,2,0,L|-15:47,1,93.5000028533936,8|0,0:0|0:0,0:0:0:0:
173,181,69889,2,0,L|292:181,1,93.5000028533936,8|0,2:2|0:0,0:0:0:0:
93,312,70242,2,0,L|80:210,1,93.5000028533936,8|0,0:0|2:0,0:0:0:0:
340,121,70595,6,0,L|508:146,2,140.25000428009,4|4|4,0:0|0:0|0:0,0:0:0:0:
94,118,71301,1,4,0:0:0:0:
9,125,71477,2,0,L|-2:179,2,46.7500014266968,8|0|8,0:0|0:0|0:0,0:0:0:0:
94,118,71830,1,0,3:0:0:0:
338,332,72007,6,0,L|458:331,1,85,4|0,0:0|0:0,0:0:0:0:
338,250,72360,2,0,L|273:251,2,42.5,8|0|0,0:0|0:0|0:0,0:0:0:0:
509,136,72713,2,0,L|376:136,2,127.5,0|2|2,3:0|0:0|0:0,0:0:0:0:
338,308,73418,5,0,3:0:0:0:
338,308,73595,1,0,0:0:0:0:
416,307,73771,1,8,0:0:0:0:
338,308,73948,1,0,0:0:0:0:
168,294,74124,2,0,L|76:292,1,85,0|0,3:0|0:0,0:0:0:0:
173,203,74477,2,0,L|278:203,1,85,8|0,0:0|0:0,0:0:0:0:
12,95,74830,6,0,L|3:4,1,85,0|0,3:0|0:0,0:0:0:0:
89,17,75183,1,8,0:0:0:0:
131,17,75271,1,0,0:0:0:0:
174,17,75359,1,0,0:0:0:0:
3,164,75536,2,0,L|153:196,2,127.5,0|2|2,3:0|0:0|0:0,0:0:0:0:
264,279,76242,6,0,L|419:279,2,127.5,0|8|8,3:0|0:0|0:0,0:0:0:0:
92,278,76948,2,0,L|204:276,1,85,8|0,0:0|0:0,0:0:0:0:
92,278,77301,1,8,2:0:0:0:
89,235,77389,1,8,2:0:0:0:
86,193,77477,1,8,2:0:0:0:
335,170,77654,6,0,L|426:169,1,85,4|0,0:2|0:0,0:0:0:0:
334,268,78007,1,8,0:0:0:0:
291,268,78095,1,0,0:0:0:0:
249,268,78183,1,0,0:0:0:0:
419,134,78360,2,0,P|494:138|541:184,2,127.5,0|2|2,3:0|0:0|0:0,0:0:0:0:
248,220,79066,6,0,L|50:205,1,170,0|8,3:0|0:0,0:0:0:0:
164,132,79595,1,0,0:0:0:0:
168,89,79683,1,0,0:0:0:0:
172,47,79771,1,0,3:0:0:0:
87,39,79948,1,0,0:0:0:0:
259,35,80124,2,0,L|371:34,1,85,8|0,0:0|0:0,0:0:0:0:
96,140,80477,6,0,L|-4:141,1,85,0|0,3:0|0:0,0:0:0:0:
96,140,80830,2,0,L|97:248,1,85,8|0,0:0|0:0,0:0:0:0:
268,349,81183,2,0,L|387:348,1,85,8|0,2:0|0:0,0:0:0:0:
268,349,81536,2,0,L|147:347,1,85,8|0,0:0|3:0,0:0:0:0:
439,277,81889,6,0,L|306:195,2,127.5,4|4|4,0:0|0:0|0:0,0:0:0:0:
166,246,82595,1,4,0:0:0:0:
433,236,83301,6,0,P|425:164|349:94,1,170,4|8,0:0|0:0,0:0:0:0:
205,34,84007,2,0,L|109:35,1,85,0|0,3:0|0:0,0:0:0:0:
205,34,84360,2,0,L|299:32,1,85,8|0,0:0|0:0,0:0:0:0:
120,165,84713,6,0,L|21:163,1,85,0|0,3:0|0:0,0:0:0:0:
120,165,85066,2,0,L|17:162,1,85,8|0,0:0|3:0,0:0:0:0:
205,329,85418,2,0,L|217:151,1,170,0|8,3:0|0:0,0:0:0:0:
131,150,85948,1,0,0:0:0:0:
301,154,86124,6,0,L|506:156,1,170,0|8,3:0|0:0,0:0:0:0:
300,326,86830,2,0,L|201:326,1,85,0|0,3:0|0:0,0:0:0:0:
130,247,87183,2,0,L|240:248,1,85,8|0,0:0|0:0,0:0:0:0:
385,250,87536,6,0,L|486:256,1,85,0|0,3:0|0:0,0:0:0:0:
385,250,87889,2,0,L|482:256,1,85,8|0,0:0|3:0,0:0:0:0:
299,343,88242,2,0,L|121:336,1,170,0|8,3:0|0:0,0:0:0:0:
215,269,88771,1,8,0:0:0:0:
478,270,88948,6,0,P|487:220|377:144,1,170,4|8,0:0|2:0,0:0:0:0:
236,37,89654,2,0,L|330:40,1,85,0|0,3:0|0:0,0:0:0:0:
236,37,90007,2,0,L|141:40,1,85,8|0,0:0|0:0,0:0:0:0:
322,120,90360,5,0,3:0:0:0:
397,154,90536,1,0,0:0:0:0:
435,229,90712,1,8,0:0:0:0:
418,310,90889,1,0,0:0:0:0:
246,317,91066,2,0,P|198:266|264:207,1,170,0|8,3:0|0:0,0:0:0:0:
343,205,91595,1,0,0:0:0:0:
170,200,91771,6,0,L|47:199,1,85,0|0,3:0|0:0,0:0:0:0:
170,200,92124,2,0,L|64:203,1,85,8|0,0:0|0:0,0:0:0:0:
255,340,92477,1,0,3:0:0:0:
230,259,92653,1,0,0:0:0:0:
171,198,92829,1,8,0:0:0:0:
92,170,93006,1,0,0:0:0:0:
350,87,93183,6,0,L|409:88,2,56.6666666666667,0|0|0,3:0|3:0|3:0,0:0:0:0:
293,172,93536,2,0,L|388:172,1,85,0|0,3:0|0:0,0:0:0:0:
136,336,93889,5,2,2:0:0:0:
0,334,94242,1,0,0:0:0:0:
458,266,94595,6,0,P|496:240|431:151,1,170,4|8,0:0|0:0,0:0:0:0:
280,369,95301,2,0,L|176:365,1,85,0|0,3:0|0:0,0:0:0:0:
281,303,95654,2,0,L|288:194,1,85,8|0,0:0|0:0,0:0:0:0:
116,177,96007,6,0,L|19:177,1,85,0|0,3:0|0:0,0:0:0:0:
116,177,96360,2,0,L|206:177,1,85,8|0,0:0|0:0,0:0:0:0:
31,325,96713,2,0,P|31:271|132:221,1,170,0|8,3:0|0:0,0:0:0:0:
200,216,97242,1,0,3:0:0:0:
378,74,97418,6,0,L|183:74,1,170,0|8,3:0|0:0,0:0:0:0:
380,266,98124,2,0,L|278:262,1,85,0|0,3:0|0:0,0:0:0:0:
380,171,98477,2,0,L|480:172,1,85,8|0,0:0|0:0,0:0:0:0:
299,168,98830,5,0,3:0:0:0:
315,87,99006,1,0,0:0:0:0:
377,31,99182,1,8,0:0:0:0:
461,26,99359,1,8,0:0:0:0:
292,34,99536,2,0,L|180:31,2,85,0|0|8,3:0|0:0|0:0,0:0:0:0:
377,31,100066,1,8,0:0:0:0:
125,202,100242,5,4,0:0:0:0:
41,203,100418,2,0,L|149:239,2,85,0|8|0,0:0|0:0|0:0,0:0:0:0:
213,344,100948,2,0,P|262:312|207:233,1,170,0|0,3:0|0:0,0:0:0:0:
130,235,101477,1,2,0:0:0:0:
301,243,101654,5,0,3:0:0:0:
383,228,101830,1,0,0:0:0:0:
447,174,102006,1,8,0:0:0:0:
475,95,102183,1,0,0:0:0:0:
304,143,102360,2,0,P|295:80|401:32,1,170,0|8,3:0|0:0,0:0:0:0:
459,28,102889,1,0,0:0:0:0:
288,30,103066,6,0,L|174:31,1,85,0|0,3:0|0:0,0:0:0:0:
288,30,103418,2,0,L|190:31,1,85,8|0,0:0|0:0,0:0:0:0:
32,29,103771,1,0,3:0:0:0:
20,110,103947,1,0,0:0:0:0:
73,173,104123,1,8,0:0:0:0:
156,175,104300,1,0,0:0:0:0:
327,310,104477,6,0,L|423:312,1,85,0|0,3:0|0:0,0:0:0:0:
495,234,104830,2,0,L|381:236,1,85,8|8,0:0|0:0,0:0:0:0:
162,225,105183,1,0,3:0:0:0:
15,225,105536,1,2,0:0:0:0:
442,284,105889,6,0,L|539:285,1,85,4|8,0:0|0:0,0:0:0:0:
442,284,106242,2,0,L|334:284,1,85,0|8,3:0|0:0,0:0:0:0:
187,275,106595,2,0,P|163:207|269:163,1,170,0|0,3:0|3:0,0:0:0:0:
316,149,107124,1,8,0:0:0:0:
145,140,107301,6,0,L|43:142,2,85,0|8|0,3:0|0:0|3:0,0:0:0:0:
314,134,107830,2,0,P|369:95|293:42,1,170,8|8,0:0|0:0,0:0:0:0:
227,33,108360,2,0,L|324:32,1,85,0|8,3:0|0:0,0:0:0:0:
141,125,108713,5,0,3:0:0:0:
303,341,109066,2,0,L|401:340,1,85,0|8,3:0|0:0,0:0:0:0:
217,266,109418,1,0,3:0:0:0:
140,234,109594,1,8,0:0:0:0:
144,154,109770,1,0,3:0:0:0:
223,132,109947,1,8,2:0:0:0:
470,39,110124,6,0,L|353:113,2,127.5,4|4|4,0:0|0:0|0:0,0:0:0:0:
227,314,110830,2,0,L|116:312,1,85,4|8,0:0|0:0,0:0:0:0:
189,240,111095,1,8,0:0:0:0:
237,240,111183,1,8,0:0:0:0:
322,116,111360,1,8,0:0:0:0:
78,202,111536,6,0,L|69:104,1,85,4|8,0:2|0:0,0:0:0:0:
156,67,111889,2,0,L|263:69,1,85,0|8,3:0|0:0,0:0:0:0:
71,33,112242,2,0,P|21:64|80:155,1,170,0|0,3:0|3:0,0:0:0:0:
140,152,112771,1,8,0:0:0:0:
391,152,112948,6,0,L|497:152,2,85,0|8|0,3:0|0:0|3:0,0:0:0:0:
221,314,113477,2,0,L|409:313,1,170,8|8,0:0|0:0,0:0:0:0:
478,227,114007,2,0,L|371:228,1,85,0|8,3:0|0:0,0:0:0:0:
144,276,114360,5,4,0:0:0:0:
69,244,114536,1,8,0:0:0:0:
55,164,114712,1,8,0:0:0:0:
140,157,114889,1,8,0:0:0:0:
125,77,115065,1,8,0:0:0:0:
50,45,115241,1,8,0:0:0:0:
212,24,115418,2,0,L|111:22,1,85,8|8,0:0|2:0,0:0:0:0:
379,288,115771,5,4,0:0:0:0:
454,256,115947,1,8,0:0:0:0:
468,176,116123,1,8,0:0:0:0:
383,169,116300,1,8,0:0:0:0:
398,89,116476,1,8,0:0:0:0:
473,57,116654,1,8,0:0:0:0:
309,37,116830,2,0,L|410:35,1,85,8|8,0:0|0:0,0:0:0:0:
139,194,117183,6,0,L|-10:191,2,127.5,8|8|8,0:0|0:0|0:0,0:0:0:0:
310,194,117889,2,0,L|468:193,2,127.5,8|8|8,0:0|0:0|0:0,0:0:0:0:
54,31,118595,5,0,1:0:0:0:
460,271,120007,6,0,L|255:258,1,187.000005706787,4|8,0:0|0:0,0:0:0:0:
359,185,120536,1,0,0:0:0:0:
442,95,120713,2,0,L|326:92,1,93.5000028533936,0|0,3:0|0:0,0:0:0:0:
168,85,121066,1,8,0:0:0:0:
16,274,121418,6,0,L|145:272,1,93.5000028533936,0|0,3:0|0:0,0:0:0:0:
193,335,121771,2,0,L|83:334,1,93.5000028533936,8|0,0:0|0:0,0:0:0:0:
274,330,122124,1,0,3:0:0:0:
260,238,122300,1,0,0:0:0:0:
198,170,122476,1,8,0:0:0:0:
109,148,122653,1,0,0:0:0:0:
377,126,122830,6,0,P|436:86|353:17,1,187.000005706787,0|8,3:0|0:0,0:0:0:0:
295,18,123360,1,0,0:0:0:0:
211,17,123536,2,0,L|321:15,1,93.5000028533936,0|0,3:0|0:0,0:0:0:0:
487,18,123889,1,8,0:0:0:0:
323,205,124242,6,0,L|430:205,1,93.5000028533936,0|0,3:0|0:0,0:0:0:0:
331,128,124595,2,0,L|222:127,1,93.5000028533936,8|0,0:0|0:0,0:0:0:0:
412,122,124948,2,0,L|519:122,1,93.5000028533936,0|0,3:0|0:0,0:0:0:0:
412,122,125301,2,0,L|412:251,1,93.5000028533936,8|0,0:0|2:0,0:0:0:0:
146,287,125654,6,0,P|83:248|164:196,1,187.000005706787,4|8,2:2|0:0,0:0:0:0:
230,186,126183,1,0,0:0:0:0:
314,182,126360,2,0,L|326:83,1,93.5000028533936,0|0,3:0|0:0,0:0:0:0:
153,32,126713,2,0,L|56:31,1,93.5000028533936,8|0,0:0|0:0,0:0:0:0:
313,153,127066,6,0,L|453:230,2,140.25000428009,0|0|0,3:0|0:0|0:0,0:0:0:0:
141,161,127771,2,0,L|37:201,2,93.5000028533936,0|0|8,3:0|0:0|0:0,0:0:0:0:
226,157,128301,1,0,0:0:0:0:
482,268,128477,6,0,L|486:159,1,93.5000028533936,8|0,2:0|0:0,0:0:0:0:
401,125,128830,2,0,L|506:124,1,93.5000028533936,8|0,0:0|0:0,0:0:0:0:
321,228,129183,2,0,L|317:121,1,93.5000028533936,8|0,2:0|0:0,0:0:0:0:
486,34,129536,2,0,L|387:34,1,93.5000028533936,8|0,0:0|2:0,0:0:0:0:
133,35,129889,6,0,L|-45:33,2,140.25000428009,4|4|4,0:0|0:0|0:0,0:0:0:0:
399,30,130595,2,0,L|403:145,1,93.5000028533936,4|8,0:0|0:0,0:0:0:0:
318,180,130948,1,8,0:0:0:0:
364,179,131036,1,8,0:0:0:0:
411,179,131124,1,8,0:0:0:0:
137,318,131301,6,0,P|79:287|163:237,1,187.000005706787,4|8,0:0|0:0,0:0:0:0:
231,221,131830,1,0,0:0:0:0:
316,146,132007,2,0,L|212:145,1,93.5000028533936,0|0,3:0|0:0,0:0:0:0:
396,33,132360,1,8,0:0:0:0:
238,153,132713,6,0,L|137:150,1,93.5000028533936,0|0,3:0|0:0,0:0:0:0:
229,235,133066,2,0,L|334:235,1,93.5000028533936,8|0,0:0|0:0,0:0:0:0:
499,258,133418,1,0,3:0:0:0:
479,167,133594,1,0,0:0:0:0:
422,94,133770,1,8,0:0:0:0:
339,53,133947,1,0,0:0:0:0:
60,57,134124,6,0,P|77:134|188:177,1,187.000005706787,0|8,3:0|0:0,0:0:0:0:
253,180,134654,1,0,0:0:0:0:
167,195,134830,1,0,3:0:0:0:
341,310,135007,2,0,L|495:258,1,140.25000428009,8|8,0:0|0:0,0:0:0:0:
98,350,135536,6,0,L|17:294,2,93.5000028533936,4|0|8,3:2|0:0|0:0,0:0:0:0:
182,351,136066,1,0,0:0:0:0:
350,352,136242,2,0,L|357:229,1,93.5000028533936,0|0,3:0|0:0,0:0:0:0:
182,217,136595,2,0,L|74:212,1,93.5000028533936,8|0,0:0|0:0,0:0:0:0:
399,205,136948,6,0,P|455:176|376:120,1,187.000005706787,0|8,3:0|0:0,0:0:0:0:
304,111,137477,1,0,0:0:0:0:
218,116,137654,2,0,L|214:14,1,93.5000028533936,0|0,3:0|0:0,0:0:0:0:
389,22,138007,2,0,L|495:19,1,93.5000028533936,8|0,0:0|0:0,0:0:0:0:
219,213,138360,6,0,L|72:282,2,140.25000428009,0|0|0,3:0|0:0|0:0,0:0:0:0:
393,211,139066,2,0,P|450:172|383:103,1,187.000005706787,0|8,3:0|0:0,0:0:0:0:
303,107,139595,1,0,0:0:0:0:
43,109,139771,6,0,L|33:230,1,93.5000028533936,8|0,2:0|0:0,0:0:0:0:
121,195,140124,2,0,L|111:314,1,93.5000028533936,8|0,0:0|0:0,0:0:0:0:
281,358,140477,2,0,L|169:359,1,93.5000028533936,8|0,2:0|0:0,0:0:0:0:
19,281,140830,2,0,L|126:279,1,93.5000028533936,8|0,0:0|2:0,0:0:0:0:
375,194,141183,6,0,L|508:270,2,140.25000428009,4|4|4,0:0|0:0|0:0,0:0:0:0:
125,65,141889,1,4,0:0:0:0:
27,63,142066,2,0,L|86:162,2,93.5000028533936,2|2|2,0:0|0:0|0:0,0:0:0:0:
274,49,142595,6,0,P|403:97|445:220,1,255,4|4,0:0|0:0,0:0:0:0:
273,317,143301,2,0,P|212:289|272:134,1,255,8|4,0:0|0:0,0:0:0:0:
423,16,144007,6,0,L|444:287,1,255
364,246,144712,1,8,0:0:0:0:
325,173,144888,1,0,0:0:0:0:
350,95,145065,1,0,0:0:0:0:
424,58,145241,1,0,0:0:0:0:
174,31,145418,6,0,P|80:59|18:217,1,255,4|4,0:0|0:0,0:0:0:0:
186,330,146124,2,0,P|193:273|23:180,1,255,8|4,0:0|0:0,0:0:0:0:
298,37,146830,6,0,P|411:56|468:88,2,170,0|4|8,0:0|0:0|0:0,0:0:0:0:
469,196,147889,1,2,0:0:0:0:
38,207,148242,6,0,L|31:7,1,170,8|8,0:0|0:0,0:0:0:0:
339,164,148948,2,0,L|350:359,1,170,8|8,0:0|0:0,0:0:0:0:
40,357,149654,6,0,L|25:157,1,170,8|0,0:0|0:0,0:0:0:0:
112,161,150183,1,8,0:0:0:0:
284,37,150360,2,0,L|87:36,1,170,0|8,0:0|0:0,0:0:0:0:
419,342,151066,5,8,0:0:0:0:
376,342,151154,1,8,0:0:0:0:
334,342,151242,1,8,0:0:0:0:
420,265,151418,2,0,L|476:265,2,42.5,8|8|8,0:0|0:0|0:0,0:0:0:0:
250,253,151771,1,8,0:0:0:0:
241,211,151859,1,8,0:0:0:0:
247,169,151947,1,8,0:0:0:0:
266,131,152035,1,8,0:0:0:0:
296,102,152123,1,8,0:0:0:0:
334,84,152212,1,8,0:0:0:0:
376,79,152300,1,8,0:0:0:0:
129,54,152477,6,0,L|-29:52,2,127.5,0|8|8,3:0|0:0|0:0,0:0:0:0:
377,47,153183,1,8,3:0:0:0:
509,51,153536,1,0,3:0:0:0:
68,238,153889,6,0,P|5:255|-23:326,2,127.5,4|0|0,0:0|3:0|3:0,0:0:0:0:
240,243,154595,2,0,L|390:292,2,127.5,0|0|0,3:0|3:0|3:0,0:0:0:0:
71,76,155301,6,0,L|233:73,2,127.5,0|0|0,3:0|3:0|3:0,0:0:0:0:
241,200,156007,2,0,L|402:201,1,127.5,0|0,3:0|3:0,0:0:0:0:
241,104,156536,1,8,3:2:0:0:
487,276,156713,6,0,L|353:348,2,127.5,4|0|0,3:2|3:0|3:0,0:0:0:0:
320,179,157418,2,0,L|177:203,2,127.5,0|0|0,3:0|3:0|3:0,0:0:0:0:
70,303,158124,6,0,L|222:363,2,127.5,0|0|0,3:0|3:0|3:0,0:0:0:0:
241,170,158830,2,0,P|278:134|235:73,1,127.5,0|8,3:0|2:0,0:0:0:0:
194,77,159183,1,8,0:0:0:0:
109,79,159360,1,8,0:0:0:0:
370,253,159536,6,0,P|429:245|517:202,1,127.5,4|0,0:0|2:2,0:0:0:0:
444,160,159889,1,8,3:2:0:0:
359,162,160066,1,0,2:0:0:0:
190,161,160242,2,0,P|220:222|307:251,1,127.5,0|0,3:0|2:2,0:0:0:0:
314,250,160595,1,8,3:2:0:0:
400,249,160771,1,0,2:0:0:0:
145,361,160948,6,0,P|101:315|164:275,1,127.5,0|0,3:0|2:2,0:0:0:0:
182,268,161301,1,8,3:2:0:0:
267,266,161477,1,0,2:0:0:0:
180,167,161654,2,0,P|211:120|294:85,1,127.5,0|0,3:0|2:2,0:0:0:0:
315,85,162007,1,8,0:2:0:0:
228,26,162183,1,0,2:0:0:0:
471,52,162360,6,0,L|476:166,1,85,8|8,0:0|0:0,0:0:0:0:
389,200,162713,2,0,L|475:199,1,85,8|8,0:0|0:0,0:0:0:0:
303,343,163066,2,0,L|192:340,1,85,8|8,0:0|0:0,0:0:0:0:
387,257,163418,2,0,L|399:156,1,85,8|8,0:0|0:0,0:0:0:0:
140,216,163771,6,0,L|62:218,2,42.5,8|8|8,0:0|0:0|0:0,0:0:0:0:
234,213,164124,1,8,0:0:0:0:
236,170,164212,1,8,0:0:0:0:
238,128,164300,1,8,0:0:0:0:
68,46,164477,2,0,L|181:44,1,85,0|0,3:0|3:0,0:0:0:0:
404,45,164830,2,0,L|408:162,1,85,4|0,0:2|0:0,0:0:0:0:
125,208,165183,6,0,L|19:202,2,85,4|0|8,0:0|0:0|0:0,0:0:0:0:
296,115,165889,2,0,L|188:114,1,85,0|0,3:0|0:0,0:0:0:0:
40,117,166242,2,0,L|36:228,1,85,8|0,0:0|0:0,0:0:0:0:
281,294,166595,6,0,L|396:293,2,85,0|0|8,3:0|0:0|0:0,0:0:0:0:
113,197,167301,2,0,L|224:194,1,85,0|0,3:0|0:0,0:0:0:0:
371,203,167654,2,0,L|378:106,1,85,8|0,0:0|0:0,0:0:0:0:
127,56,168007,6,0,P|71:75|0:131,2,127.5,0|0|0,3:0|0:0|0:0,0:0:0:0:
299,205,168713,2,0,L|151:208,1,127.5,0|0,3:0|0:0,0:0:0:0:
47,225,169242,1,0,0:0:0:0:
295,229,169418,6,0,L|475:225,1,170,0|8,3:0|0:0,0:0:0:0:
378,152,169948,1,0,0:0:0:0:
210,150,170124,2,0,L|201:40,1,85,0|0,3:0|0:0,0:0:0:0:
376,40,170477,2,0,L|489:38,1,85,8|0,0:0|0:0,0:0:0:0:
207,181,170830,6,0,L|96:180,2,85,4|0|8,0:0|0:0|0:0,0:0:0:0:
378,368,171536,2,0,L|381:277,1,85,0|0,3:0|0:0,0:0:0:0:
207,237,171889,2,0,L|105:235,1,85,8|0,0:0|0:0,0:0:0:0:
371,149,172242,6,0,L|475:147,2,85,0|0|8,3:0|0:0|0:0,0:0:0:0:
200,154,172771,2,0,L|190:64,1,85,2|0,0:0|3:0,0:0:0:0:
361,28,173124,2,0,L|457:29,2,85,0|8|2,0:0|0:0|0:0,0:0:0:0:
117,199,173654,6,0,L|-6:255,2,127.5,4|0|0,0:0|0:0|0:0,0:0:0:0:
202,215,174360,2,0,L|304:304,2,127.5,0|0|0,3:0|0:0|0:0,0:0:0:0:
374,141,175066,6,0,L|223:81,2,127.5,0|0|0,3:0|0:0|0:0,0:0:0:0:
120,264,175771,2,0,L|258:186,2,127.5,0|0|0,3:0|0:0|0:0,0:0:0:0:
368,209,176477,6,0,L|369:114,1,85,8|8,0:0|0:0,0:0:0:0:
284,66,176830,2,0,L|375:62,1,85,8|8,0:0|0:0,0:0:0:0:
198,186,177183,2,0,L|181:304,1,85,8|8,0:0|0:0,0:0:0:0:
359,341,177536,2,0,L|455:337,1,85,8|8,0:0|0:0,0:0:0:0:
170,348,177889,5,8,0:0:0:0:
307,163,178242,1,0,0:0:0:0:
171,161,178595,1,0,0:0:0:0:
341,160,178948,1,0,0:0:0:0:
68,25,179301,5,8,0:0:0:0:
68,25,179654,1,0,0:0:0:0:
348,24,180007,1,0,0:0:0:0:
348,24,180360,1,0,0:0:0:0:
67,147,180713,5,0,0:0:0:0:
392,184,186360,5,2,0:0:0:0:
222,318,186713,2,0,L|319:322,1,85
392,248,187066,2,0,L|218:243,1,170,2|0,0:0|0:0,0:0:0:0:
53,61,187771,6,0,L|212:53,2,127.5,2|2|2,0:0|0:0|0:0,0:0:0:0:
137,142,188477,2,0,L|234:142,2,85,2|0|0,0:0|0:0|0:0,0:0:0:0:
426,361,189183,6,0,L|428:268,1,85,2|0,0:0|0:0,0:0:0:0:
341,232,189536,2,0,L|448:232,1,85,2|0,0:0|0:0,0:0:0:0:
254,224,189889,1,2,0:0:0:0:
286,146,190065,1,0,0:0:0:0:
352,94,190241,1,2,0:0:0:0:
435,79,190418,1,2,0:0:0:0:
184,47,190595,6,0,L|30:45,2,127.5,8|8|8,0:0|0:0|0:0,0:0:0:0:
355,159,191301,1,8,0:0:0:0:
492,158,191654,1,2,0:0:0:0:
66,323,192007,6,0,L|209:382,2,127.5,8|8|8,0:0|0:0|0:0,0:0:0:0:
323,176,192713,1,8,0:0:0:0:
476,175,193066,1,8,0:0:0:0:
55,326,193418,5,4,0:0:0:0:
181,164,194301,5,0,3:0:0:0:
427,164,194477,1,8,0:0:0:0:
286,338,194830,6,0,L|181:337,1,93.5000028533936,4|0,0:0|0:0,0:0:0:0:
278,256,195183,2,0,L|389:254,1,93.5000028533936,8|0,0:0|0:0,0:0:0:0:
202,257,195536,1,0,3:0:0:0:
233,170,195712,1,0,0:0:0:0:
304,111,195888,1,8,0:0:0:0:
395,96,196065,1,0,0:0:0:0:
132,41,196242,6,0,P|82:57|149:128,1,187.000005706787,0|8,3:0|0:0,0:0:0:0:
223,134,196771,1,0,0:0:0:0:
139,224,196948,2,0,L|263:225,1,93.5000028533936,0|0,3:0|0:0,0:0:0:0:
485,218,197301,1,8,0:0:0:0:
344,346,197654,6,0,L|449:349,1,93.5000028533936,0|0,3:0|0:0,0:0:0:0:
353,260,198007,2,0,L|256:259,1,93.5000028533936,8|0,0:0|0:0,0:0:0:0:
434,260,198360,2,0,L|430:149,1,93.5000028533936,0|0,3:0|0:0,0:0:0:0:
346,117,198713,2,0,L|477:116,1,93.5000028533936,8|0,0:0|0:0,0:0:0:0:
186,39,199066,6,0,L|-11:35,1,187.000005706787,0|8,3:0|0:0,0:0:0:0:
83,113,199595,1,0,0:0:0:0:
168,109,199771,2,0,L|174:213,1,93.5000028533936,0|0,3:0|0:0,0:0:0:0:
5,343,200124,2,0,L|115:364,1,93.5000028533936,8|0,0:0|0:0,0:0:0:0:
353,285,200477,6,0,L|507:214,2,140.25000428009,0|0|0,3:0|0:0|0:0,0:0:0:0:
184,271,201183,2,0,L|174:162,1,93.5000028533936,0|0,3:0|0:0,0:0:0:0:
260,122,201536,1,8,0:0:0:0:
176,122,201713,1,0,0:0:0:0:
429,244,201889,6,0,L|436:139,1,93.5000028533936,8|0,2:0|0:0,0:0:0:0:
351,83,202242,2,0,L|252:84,1,93.5000028533936,8|0,0:0|0:0,0:0:0:0:
89,288,202595,2,0,L|84:177,1,93.5000028533936,8|0,2:0|0:0,0:0:0:0:
254,119,202948,2,0,L|160:119,1,93.5000028533936,8|0,0:0|0:0,0:0:0:0:
418,220,203301,6,0,L|279:306,2,140.25000428009,4|4|4,0:0|0:0|0:0,0:0:0:0:
167,94,204007,2,0,L|52:93,1,93.5000028533936,0|8,0:0|0:0,0:0:0:0:
169,156,204359,1,0,3:0:0:0:
122,155,204448,1,0,3:0:0:0:
75,152,204536,1,0,3:0:0:0:
355,285,204713,6,0,P|426:259|380:161,1,187.000005706787,4|8,0:2|0:0,0:0:0:0:
319,120,205242,1,0,0:0:0:0:
402,49,205418,2,0,L|491:105,1,93.5000028533936,0|0,3:0|0:0,0:0:0:0:
214,46,205771,1,8,0:0:0:0:
50,234,206124,6,0,L|173:231,1,93.5000028533936,0|0,3:0|0:0,0:0:0:0:
50,234,206477,2,0,L|162:231,1,93.5000028533936,8|0,0:0|0:0,0:0:0:0:
312,225,206830,1,0,3:0:0:0:
281,137,207006,1,0,0:0:0:0:
209,79,207182,1,8,0:0:0:0:
118,67,207359,1,0,0:0:0:0:
375,42,207536,6,0,P|465:68|496:176,1,187.000005706787,0|8,3:0|0:0,0:0:0:0:
415,161,208066,1,0,0:0:0:0:
499,157,208242,1,0,3:0:0:0:
336,292,208418,2,0,L|476:294,1,140.25000428009,8|8,0:0|0:0,0:0:0:0:
106,215,208948,6,0,L|-8:211,2,93.5000028533936,4|0|8,3:2|0:0|0:0,0:0:0:0:
192,212,209477,1,0,0:0:0:0:
361,359,209654,2,0,L|252:326,1,93.5000028533936,0|0,3:0|0:0,0:0:0:0:
104,271,210007,2,0,L|220:245,1,93.5000028533936,8|0,0:0|0:0,0:0:0:0:
472,263,210360,6,0,P|474:199|353:115,1,187.000005706787,0|8,3:0|0:0,0:0:0:0:
306,120,210889,1,0,0:0:0:0:
390,120,211066,2,0,L|400:233,1,93.5000028533936,0|0,3:0|0:0,0:0:0:0:
229,353,211418,2,0,L|341:348,1,93.5000028533936,8|0,0:0|0:0,0:0:0:0:
70,161,211771,6,0,L|217:249,2,140.25000428009,0|0|0,3:0|0:0|0:0,0:0:0:0:
241,105,212477,2,0,L|441:102,1,187.000005706787,0|8,3:0|0:0,0:0:0:0:
343,188,213007,1,0,0:0:0:0:
75,293,213183,6,0,L|177:340,1,93.5000028533936,8|0,2:0|0:0,0:0:0:0:
75,293,213536,2,0,L|171:337,1,93.5000028533936,8|0,0:0|0:0,0:0:0:0:
328,331,213889,2,0,L|323:211,1,93.5000028533936,8|0,0:0|0:0,0:0:0:0:
155,165,214242,2,0,L|265:160,1,93.5000028533936,8|0,0:0|0:0,0:0:0:0:
496,56,214595,6,0,L|373:132,2,140.25000428009,4|4|4,0:0|0:0|0:0,0:0:0:0:
254,352,215301,1,4,0:0:0:0:
170,347,215477,1,2,2:0:0:0:
189,304,215565,1,0,0:0:0:0:
223,273,215653,1,0,3:0:0:0:
308,236,215830,1,0,3:0:0:0:
54,25,216007,6,0,L|54:150,1,101.999996887207,4|0,0:0|0:0,0:0:0:0:
54,127,216271,2,0,L|183:126,1,101.999996887207,2|0,0:0|0:0,0:0:0:0:
155,126,216536,1,2,0:0:0:0:
318,154,216713,2,0,L|203:154,1,101.999996887207,2|0,3:2|0:0,0:0:0:0:
216,154,216977,2,0,L|324:154,1,101.999996887207,2|0,0:0|0:0,0:0:0:0:
318,154,217242,1,2,0:0:0:0:
481,312,217418,6,0,L|364:312,1,101.999996887207,0|0,3:0|0:0,0:0:0:0:
379,312,217683,2,0,L|379:192,1,101.999996887207,2|0,0:0|0:0,0:0:0:0:
379,210,217948,1,2,0:0:0:0:
216,239,218124,2,0,L|95:238,1,101.999996887207,0|0,3:0|0:0,0:0:0:0:
280,154,218477,2,0,L|287:29,1,101.999996887207,8|0,0:0|0:0,0:0:0:0:
30,26,218830,6,0,L|27:142,1,101.999996887207,2|0,3:2|0:0,0:0:0:0:
70,111,219095,2,0,L|70:223,1,101.999996887207,2|0,0:0|0:0,0:0:0:0:
26,212,219360,1,2,0:0:0:0:
190,271,219536,2,0,L|333:268,1,101.999996887207,2|0,3:2|0:0,0:0:0:0:
291,268,219801,2,0,L|172:272,1,101.999996887207,2|0,0:0|0:0,0:0:0:0:
189,271,220066,1,2,0:0:0:0:
352,216,220242,6,0,L|353:98,1,101.999996887207,2|0,3:2|0:0,0:0:0:0:
352,114,220507,2,0,L|216:112,1,101.999996887207,2|0,0:0|0:0,0:0:0:0:
250,112,220771,1,2,0:0:0:0:
413,51,220948,2,0,L|290:53,1,101.999996887207,0|0,3:0|0:0,0:0:0:0:
147,46,221301,2,0,L|136:173,1,101.999996887207,8|0,0:0|0:0,0:0:0:0:
439,198,221654,6,0,L|441:329,1,101.999996887207,0|0,3:0|0:0,0:0:0:0:
440,299,221918,2,0,L|313:300,1,101.999996887207,2|0,0:0|0:0,0:0:0:0:
338,299,222183,1,2,0:0:0:0:
174,114,222360,2,0,L|287:118,1,101.999996887207,2|0,3:2|0:0,0:0:0:0:
318,116,222624,2,0,L|317:233,1,101.999996887207,2|0,0:0|0:0,0:0:0:0:
274,217,222889,1,2,0:0:0:0:
110,244,223066,6,0,L|243:247,1,101.999996887207,2|0,3:2|0:0,0:0:0:0:
211,246,223330,2,0,L|102:245,1,101.999996887207,2|0,0:0|0:0,0:0:0:0:
109,245,223595,1,2,0:0:0:0:
271,339,223771,2,0,P|273:272|153:198,1,203.999993774414,0|8,3:0|0:0,0:0:0:0:
83,194,224301,1,2,0:0:0:0:
346,39,224477,5,8,0:0:0:0:
433,61,224653,1,8,0:0:0:0:
474,142,224829,1,8,0:0:0:0:
440,226,225006,1,8,0:0:0:0:
354,256,225182,1,8,0:0:0:0:
186,258,225360,2,0,L|63:255,2,101.999996887207,8|8|8,0:0|0:0|0:0,0:0:0:0:
458,284,225889,6,0,L|333:386,2,152.999995330811,8|8|8,0:0|0:0|0:0,0:0:0:0:
194,211,226595,1,8,0:0:0:0:
402,343,227301,6,0,L|220:337,1,170,4|8,0:0|0:0,0:0:0:0:
62,80,228007,2,0,L|251:69,1,170,0|8,3:0|0:0,0:0:0:0:
403,350,228713,6,0,L|304:353,1,85,0|0,3:0|0:0,0:0:0:0:
403,350,229066,2,0,L|305:353,1,85,8|0,0:0|0:0,0:0:0:0:
149,351,229418,1,0,3:0:0:0:
166,268,229594,1,0,0:0:0:0:
224,207,229770,1,8,0:0:0:0:
305,186,229947,1,0,0:0:0:0:
133,125,230124,6,0,L|127:243,1,85,0|0,3:0|0:0,0:0:0:0:
214,209,230477,2,0,L|110:208,1,85,8|0,0:0|0:0,0:0:0:0:
300,208,230830,2,0,L|411:206,1,85,0|0,3:0|0:0,0:0:0:0:
300,208,231183,2,0,L|297:99,1,85,8|0,0:0|0:0,0:0:0:0:
126,76,231536,6,0,L|266:75,2,127.5,8|8|8,0:0|0:0|0:0,0:0:0:0:
299,255,232242,2,0,L|401:255,1,85,8|8,0:0|0:0,0:0:0:0:
299,335,232595,1,8,0:0:0:0:
256,335,232683,1,8,0:0:0:0:
214,335,232771,1,8,0:0:0:0:
459,288,232948,6,0,P|477:229|439:128,1,170,4|0,0:2|3:0,0:0:0:0:
357,132,233477,1,8,0:0:0:0:
185,56,233654,2,0,L|325:54,2,127.5,0|0|8,3:0|0:0|0:0,0:0:0:0:
16,121,234360,5,0,3:0:0:0:
9,205,234536,1,8,0:0:0:0:
94,211,234713,2,0,L|-22:212,1,85,0|8,3:0|0:0,0:0:0:0:
182,315,235066,2,0,P|230:275|156:202,1,170,0|0,3:0|3:0,0:0:0:0:
95,201,235595,1,8,0:0:0:0:
338,117,235771,6,0,L|460:116,1,85,0|8,3:0|0:0,0:0:0:0:
338,117,236124,2,0,L|229:119,1,85,0|8,3:0|0:0,0:0:0:0:
82,357,236477,2,0,L|77:242,1,85,0|8,3:0|0:0,0:0:0:0:
164,206,236830,2,0,L|79:206,1,85,0|8,3:0|0:0,0:0:0:0:
338,117,237183,6,0,L|487:171,2,127.5,8|8|8,0:0|0:0|0:0,0:0:0:0:
95,50,237889,1,2,0:0:0:0:
10,54,238066,1,0,0:0:0:0:
5,95,238154,1,0,0:0:0:0:
18,135,238242,1,2,0:0:0:0:
47,166,238330,1,0,0:0:0:0:
86,181,238418,1,2,0:0:0:0:
360,299,238595,6,0,L|204:290,2,127.5,4|4|4,0:0|0:0|0:0,0:0:0:0:
78,361,239301,1,4,0:0:0:0:
