osu file format v14

[General]
AudioFilename: audio.ogg
AudioLeadIn: 0
PreviewTime: 48329
Countdown: 0
SampleSet: Soft
StackLeniency: 0.7
Mode: 3
LetterboxInBreaks: 0
SpecialStyle: 0
WidescreenStoryboard: 0

[Editor]
DistanceSpacing: 0.5
BeatDivisor: 4
GridSize: 4
TimelineZoom: 1.6

[Metadata]
Title:Jinrui Mina Senpai! (Mtell & Ange;art Hardcore Bootleg)
TitleUnicode:人類みなセンパイ!(Mtell & Ange;art Hardcore Bootleg)
Artist:Azuma Lim
ArtistUnicode:アズマリム
Creator:Murumoo
Version:Senpai!!
Source:
Tags:japanese pop jpop j-pop electronic drum and bass dnb hardcore まふまふ mafumafu 田中秀和 monaca tanaka 畑 亜貴 hata aki hidekazu vtuber
BeatmapID:2823278
BeatmapSetID:1364735

[Difficulty]
HPDrainRate:8
CircleSize:4
OverallDifficulty:8
ApproachRate:5
SliderMultiplier:1.4
SliderTickRate:1

[Events]
//Background and Video events
0,0,"bgg_1.jpg",0,0
//Break Periods
//Storyboard Layer 0 (Background)
//Storyboard Layer 1 (Fail)
//Storyboard Layer 2 (Pass)
//Storyboard Layer 3 (Foreground)
//Storyboard Layer 4 (Overlay)
//Storyboard Sound Samples

[TimingPoints]
1388,352.941176470588,4,2,1,30,1,0

[HitObjects]
64,192,1388,5,0,0:0:0:60:drum.wav
192,192,1388,1,0,0:0:0:50:finish.wav
320,192,1388,1,0,0:0:0:0:
448,192,1388,1,0,0:0:0:0:
192,192,1564,1,0,0:0:0:0:
64,192,1740,1,0,0:0:0:0:
320,192,1740,1,0,0:0:0:0:
320,192,1917,1,0,0:0:0:0:
64,192,2093,1,0,0:0:0:60:drum.wav
192,192,2093,1,0,0:0:0:0:
448,192,2093,1,0,0:0:0:0:
64,192,2270,1,0,0:0:0:0:
192,192,2446,1,0,0:0:0:0:
448,192,2446,1,0,0:0:0:0:
192,192,2623,1,0,0:0:0:0:
64,192,2799,1,0,0:0:0:60:drum.wav
320,192,2799,1,0,0:0:0:0:
448,192,2799,1,0,0:0:0:0:
192,192,2976,1,0,0:0:0:0:
320,192,2976,1,0,0:0:0:0:
64,192,3152,1,0,0:0:0:0:
448,192,3152,1,0,0:0:0:0:
192,192,3329,1,0,0:0:0:0:
320,192,3329,1,0,0:0:0:0:
64,192,3505,1,0,0:0:0:60:drum.wav
192,192,3505,1,0,0:0:0:0:
448,192,3505,1,0,0:0:0:0:
64,192,3682,1,0,0:0:0:0:
320,192,3682,1,0,0:0:0:0:
192,192,3858,1,0,0:0:0:0:
320,192,3858,1,0,0:0:0:0:
192,192,4035,1,0,0:0:0:0:
448,192,4035,1,0,0:0:0:0:
64,192,4211,1,0,0:0:0:60:drum.wav
320,192,4211,1,0,0:0:0:0:
448,192,4211,1,0,0:0:0:0:
192,192,4387,1,0,0:0:0:0:
320,192,4387,1,0,0:0:0:0:
192,192,4564,1,0,0:0:0:0:
448,192,4564,1,0,0:0:0:0:
64,192,4740,1,0,0:0:0:0:
320,192,4740,1,0,0:0:0:0:
64,192,4917,1,0,0:0:0:60:drum.wav
192,192,4917,1,0,0:0:0:0:
448,192,4917,1,0,0:0:0:0:
320,192,5093,1,0,0:0:0:0:
448,192,5093,1,0,0:0:0:0:
192,192,5270,1,0,0:0:0:0:
320,192,5270,1,0,0:0:0:0:
64,192,5446,1,0,0:0:0:0:
192,192,5446,1,0,0:0:0:0:
64,192,5623,1,0,0:0:0:60:drum.wav
320,192,5623,1,0,0:0:0:0:
448,192,5623,1,0,0:0:0:0:
64,192,5887,1,0,0:0:0:60:drum.wav
192,192,5887,1,0,0:0:0:0:
448,192,5887,1,0,0:0:0:0:
64,192,6152,1,0,0:0:0:60:drum.wav
320,192,6152,1,0,0:0:0:0:
448,192,6152,1,0,0:0:0:0:
64,192,6329,1,0,0:0:0:60:drum.wav
192,192,6329,1,0,0:0:0:50:finish.wav
448,192,6329,1,0,0:0:0:0:
320,192,6417,1,0,0:0:0:0:
64,192,6505,1,0,0:0:0:50:snare.wav
192,192,6505,1,0,0:0:0:0:
320,192,6682,1,0,0:0:0:50:snare.wav
448,192,6682,1,0,0:0:0:0:
64,192,6770,1,0,0:0:0:50:snare.wav
192,192,6770,1,0,0:0:0:0:
320,192,6858,1,0,0:0:0:50:snare.wav
448,192,6858,1,0,0:0:0:0:
192,192,6946,1,0,0:0:0:50:snare.wav
64,192,7035,1,0,0:0:0:60:drum.wav
320,192,7035,1,0,0:0:0:50:finish.wav
448,192,7035,1,0,0:0:0:0:
192,192,7211,1,0,0:0:0:50:snare.wav
320,192,7211,1,0,0:0:0:0:
64,192,7387,1,0,0:0:0:60:drum.wav
192,192,7387,1,0,0:0:0:0:
448,192,7387,1,0,0:0:0:0:
320,192,7476,1,0,0:0:0:0:
192,192,7564,1,0,0:0:0:50:snare.wav
448,192,7564,1,0,0:0:0:0:
64,192,7740,1,0,0:0:0:60:drum.wav
320,192,7740,1,0,0:0:0:0:
448,192,7740,1,0,0:0:0:0:
192,192,7917,1,0,0:0:0:50:snare.wav
320,192,7917,1,0,0:0:0:0:
64,192,8005,1,0,0:0:0:0:
192,192,8093,1,0,0:0:0:60:drum.wav
320,192,8093,1,0,0:0:0:0:
448,192,8093,1,0,0:0:0:0:
64,192,8270,1,0,0:0:0:50:snare.wav
448,192,8270,1,0,0:0:0:0:
64,192,8446,1,0,0:0:0:60:drum.wav
192,192,8446,1,0,0:0:0:0:
320,192,8446,1,0,0:0:0:0:
192,192,8623,1,0,0:0:0:50:snare.wav
448,192,8623,1,0,0:0:0:0:
320,192,8711,1,0,0:0:0:0:
64,192,8799,1,0,0:0:0:60:drum.wav
192,192,8799,1,0,0:0:0:0:
448,192,8799,1,0,0:0:0:0:
64,192,8976,1,0,0:0:0:50:snare.wav
192,192,9035,1,0,0:0:0:0:
320,192,9093,1,0,0:0:0:0:
64,192,9152,1,0,0:0:0:60:drum.wav
448,192,9152,1,0,0:0:0:0:
192,192,9240,1,0,0:0:0:0:
64,192,9329,1,0,0:0:0:50:snare.wav
320,192,9329,1,0,0:0:0:0:
192,192,9417,1,0,0:0:0:0:
64,192,9505,1,0,0:0:0:60:drum.wav
320,192,9505,1,0,0:0:0:0:
448,192,9505,1,0,0:0:0:0:
320,192,9682,1,0,0:0:0:50:snare.wav
448,192,9682,1,0,0:0:0:0:
192,192,9770,1,0,0:0:0:50:snare.wav
64,192,9858,1,0,0:0:0:60:drum.wav
320,192,9858,1,0,0:0:0:50:finish.wav
448,192,9858,1,0,0:0:0:0:
64,192,10035,1,0,0:0:0:50:snare.wav
192,192,10035,1,0,0:0:0:0:
192,192,10211,1,0,0:0:0:60:drum.wav
320,192,10211,1,0,0:0:0:0:
448,192,10211,1,0,0:0:0:0:
64,192,10387,1,0,0:0:0:50:snare.wav
448,192,10387,1,0,0:0:0:0:
64,192,10564,1,0,0:0:0:60:drum.wav
192,192,10564,1,0,0:0:0:50:finish.wav
320,192,10564,1,0,0:0:0:0:
192,192,10740,1,0,0:0:0:50:snare.wav
448,192,10740,1,0,0:0:0:0:
64,192,10917,1,0,0:0:0:60:drum.wav
320,192,10917,1,0,0:0:0:0:
448,192,10917,1,0,0:0:0:0:
192,192,11093,1,0,0:0:0:50:snare.wav
320,192,11093,1,0,0:0:0:0:
64,192,11270,1,0,0:0:0:60:drum.wav
192,192,11270,1,0,0:0:0:0:
448,192,11270,1,0,0:0:0:0:
64,192,11535,1,0,0:0:0:60:drum.wav
320,192,11535,1,0,0:0:0:0:
448,192,11535,1,0,0:0:0:0:
192,192,11799,1,0,0:0:0:60:drum.wav
320,192,11799,1,0,0:0:0:0:
448,192,11799,1,0,0:0:0:0:
64,192,11976,1,0,0:0:0:60:drum.wav
192,192,11976,1,0,0:0:0:0:
320,192,11976,1,0,0:0:0:0:
64,192,12152,1,0,0:0:0:0:
320,192,12329,1,0,0:0:0:0:
448,192,12329,1,0,0:0:0:0:
64,192,12505,1,0,0:0:0:0:
64,192,12682,1,0,0:0:0:60:drum.wav
192,192,12682,1,0,0:0:0:50:finish.wav
320,192,12682,1,0,0:0:0:0:
448,192,12682,1,0,0:0:0:0:
320,192,12858,1,0,0:0:0:0:
192,192,12946,1,0,0:0:0:0:
64,192,13035,1,0,0:0:0:50:snare.wav
320,192,13035,1,0,0:0:0:0:
448,192,13035,1,0,0:0:0:0:
64,192,13211,1,0,0:0:0:0:
192,192,13211,1,0,0:0:0:0:
320,192,13299,1,0,0:0:0:0:
192,192,13387,1,0,0:0:0:60:drum.wav
448,192,13387,1,0,0:0:0:0:
64,192,13564,1,0,0:0:0:0:
448,192,13564,1,0,0:0:0:0:
64,192,13740,1,0,0:0:0:50:snare.wav
192,192,13740,1,0,0:0:0:0:
320,192,13740,1,0,0:0:0:0:
320,192,13917,1,0,0:0:0:0:
448,192,13917,1,0,0:0:0:0:
64,192,14093,1,0,0:0:0:60:drum.wav
192,192,14093,1,0,0:0:0:0:
448,192,14093,1,0,0:0:0:0:
192,192,14270,1,0,0:0:0:0:
320,192,14270,1,0,0:0:0:0:
64,192,14446,1,0,0:0:0:50:snare.wav
320,192,14446,1,0,0:0:0:0:
448,192,14446,1,0,0:0:0:0:
192,192,14623,1,0,0:0:0:0:
320,192,14623,1,0,0:0:0:0:
64,192,14799,1,0,0:0:0:60:drum.wav
192,192,14799,1,0,0:0:0:0:
448,192,14799,1,0,0:0:0:0:
320,192,14976,1,0,0:0:0:0:
448,192,15064,1,0,0:0:0:0:
64,192,15152,1,0,0:0:0:50:snare.wav
192,192,15152,1,0,0:0:0:0:
64,192,15329,1,0,0:0:0:0:
320,192,15329,1,0,0:0:0:0:
192,192,15417,1,0,0:0:0:0:
320,192,15505,1,0,0:0:0:60:drum.wav
448,192,15505,1,0,0:0:0:0:
192,192,15682,1,0,0:0:0:0:
320,192,15770,1,0,0:0:0:0:
64,192,15858,1,0,0:0:0:50:snare.wav
192,192,15858,1,0,0:0:0:0:
448,192,15858,1,0,0:0:0:0:
320,192,16035,1,0,0:0:0:0:
448,192,16035,1,0,0:0:0:0:
192,192,16123,1,0,0:0:0:0:
64,192,16211,1,0,0:0:0:60:drum.wav
320,192,16211,1,0,0:0:0:0:
64,192,16387,1,0,0:0:0:0:
448,192,16387,1,0,0:0:0:0:
192,192,16564,1,0,0:0:0:50:snare.wav
320,192,16564,1,0,0:0:0:0:
448,192,16564,1,0,0:0:0:0:
64,192,16740,1,0,0:0:0:0:
192,192,16740,1,0,0:0:0:0:
64,192,16917,1,0,0:0:0:60:drum.wav
320,192,16917,1,0,0:0:0:0:
448,192,16917,1,0,0:0:0:0:
192,192,17093,1,0,0:0:0:0:
320,192,17093,1,0,0:0:0:0:
64,192,17270,1,0,0:0:0:50:snare.wav
192,192,17270,1,0,0:0:0:0:
448,192,17270,1,0,0:0:0:0:
192,192,17446,1,0,0:0:0:0:
320,192,17446,1,0,0:0:0:0:
64,192,17623,1,0,0:0:0:60:drum.wav
320,192,17623,1,0,0:0:0:0:
448,192,17623,1,0,0:0:0:0:
192,192,17799,1,0,0:0:0:50:snare.wav
64,192,17976,1,0,0:0:0:50:snare.wav
320,192,17976,1,0,0:0:0:0:
448,192,17976,1,0,0:0:0:0:
192,192,18152,1,0,0:0:0:50:snare.wav
448,192,18152,1,0,0:0:0:0:
320,192,18240,1,0,0:0:0:0:
64,192,18329,1,0,0:0:0:60:drum.wav
192,192,18329,1,0,0:0:0:0:
448,192,18329,1,0,0:0:0:0:
320,192,18505,1,0,0:0:0:0:
64,192,18593,1,0,0:0:0:0:
192,192,18682,1,0,0:0:0:50:snare.wav
320,192,18682,1,0,0:0:0:0:
448,192,18682,1,0,0:0:0:0:
64,192,18858,1,0,0:0:0:0:
448,192,18858,1,0,0:0:0:0:
192,192,18946,1,0,0:0:0:0:
64,192,19035,1,0,0:0:0:60:drum.wav
320,192,19035,1,0,0:0:0:0:
192,192,19211,1,0,0:0:0:0:
448,192,19211,1,0,0:0:0:0:
64,192,19387,1,0,0:0:0:50:snare.wav
192,192,19387,1,0,0:0:0:0:
320,192,19387,1,0,0:0:0:0:
320,192,19564,1,0,0:0:0:0:
448,192,19564,1,0,0:0:0:0:
64,192,19740,1,0,0:0:0:60:drum.wav
192,192,19740,1,0,0:0:0:0:
448,192,19740,1,0,0:0:0:0:
64,192,19917,1,0,0:0:0:0:
320,192,19917,1,0,0:0:0:0:
64,192,20093,1,0,0:0:0:50:snare.wav
320,192,20093,1,0,0:0:0:0:
448,192,20093,1,0,0:0:0:0:
192,192,20270,1,0,0:0:0:0:
448,192,20270,1,0,0:0:0:0:
64,192,20446,1,0,0:0:0:60:drum.wav
192,192,20446,1,0,0:0:0:0:
448,192,20446,1,0,0:0:0:0:
64,192,20623,1,0,0:0:0:0:
320,192,20711,1,0,0:0:0:0:
64,192,20799,1,0,0:0:0:50:snare.wav
192,192,20799,1,0,0:0:0:0:
448,192,20799,1,0,0:0:0:0:
320,192,20976,1,0,0:0:0:0:
448,192,20976,1,0,0:0:0:0:
64,192,21064,1,0,0:0:0:0:
192,192,21152,1,0,0:0:0:60:drum.wav
448,192,21152,1,0,0:0:0:0:
64,192,21329,1,0,0:0:0:0:
320,192,21329,1,0,0:0:0:0:
192,192,21417,1,0,0:0:0:0:
64,192,21505,1,0,0:0:0:50:snare.wav
320,192,21505,1,0,0:0:0:0:
448,192,21505,1,0,0:0:0:0:
192,192,21682,1,0,0:0:0:0:
448,192,21682,1,0,0:0:0:0:
64,192,21858,1,0,0:0:0:60:drum.wav
320,192,21858,1,0,0:0:0:0:
64,192,22035,1,0,0:0:0:0:
192,192,22035,1,0,0:0:0:0:
64,192,22211,1,0,0:0:0:50:snare.wav
320,192,22211,1,0,0:0:0:0:
448,192,22211,1,0,0:0:0:0:
192,192,22387,1,0,0:0:0:0:
448,192,22387,1,0,0:0:0:0:
64,192,22564,1,0,0:0:0:60:drum.wav
320,192,22564,1,0,0:0:0:0:
192,192,22740,1,0,0:0:0:0:
320,192,22740,1,0,0:0:0:0:
64,192,22917,1,0,0:0:0:50:snare.wav
192,192,22917,1,0,0:0:0:0:
448,192,22917,1,0,0:0:0:0:
320,192,23005,1,0,0:0:0:0:
64,192,23093,1,0,0:0:0:0:
192,192,23182,1,0,0:0:0:0:
320,192,23270,1,0,0:0:0:50:snare.wav
448,192,23270,128,0,23887:0:0:0:0:
64,192,23623,128,0,23887:0:0:0:0:
192,192,23623,128,0,23887:0:0:0:0:
64,192,23976,1,0,0:0:0:60:drum.wav
192,192,23976,1,0,0:0:0:50:finish.wav
320,192,23976,1,0,0:0:0:0:
448,192,23976,1,0,0:0:0:0:
192,192,24152,1,0,0:0:0:0:
320,192,24240,1,0,0:0:0:0:
64,192,24329,1,0,0:0:0:50:snare.wav
192,192,24329,1,0,0:0:0:0:
448,192,24329,1,0,0:0:0:0:
320,192,24505,1,0,0:0:0:0:
448,192,24505,1,0,0:0:0:0:
64,192,24682,1,0,0:0:0:60:drum.wav
320,192,24682,1,0,0:0:0:0:
64,192,24858,1,0,0:0:0:0:
192,192,24858,1,0,0:0:0:0:
192,192,25035,1,0,0:0:0:50:snare.wav
320,192,25035,1,0,0:0:0:0:
448,192,25035,1,0,0:0:0:0:
64,192,25211,1,0,0:0:0:0:
448,192,25211,1,0,0:0:0:0:
64,192,25387,1,0,0:0:0:60:drum.wav
192,192,25387,1,0,0:0:0:0:
320,192,25387,1,0,0:0:0:0:
192,192,25564,1,0,0:0:0:0:
448,192,25564,1,0,0:0:0:0:
64,192,25740,1,0,0:0:0:50:snare.wav
320,192,25740,1,0,0:0:0:0:
448,192,25740,1,0,0:0:0:0:
192,192,25917,1,0,0:0:0:0:
320,192,25917,1,0,0:0:0:0:
64,192,26093,1,0,0:0:0:60:drum.wav
192,192,26093,1,0,0:0:0:0:
448,192,26093,1,0,0:0:0:0:
320,192,26270,1,0,0:0:0:0:
64,192,26446,1,0,0:0:0:50:snare.wav
320,192,26446,1,0,0:0:0:0:
448,192,26446,1,0,0:0:0:0:
192,192,26623,1,0,0:0:0:0:
448,192,26623,1,0,0:0:0:0:
320,192,26711,1,0,0:0:0:0:
64,192,26799,1,0,0:0:0:60:drum.wav
192,192,26799,1,0,0:0:0:0:
320,192,26976,1,0,0:0:0:0:
448,192,26976,1,0,0:0:0:0:
64,192,27152,1,0,0:0:0:50:snare.wav
320,192,27152,1,0,0:0:0:0:
448,192,27152,1,0,0:0:0:0:
64,192,27329,1,0,0:0:0:0:
192,192,27329,1,0,0:0:0:0:
192,192,27505,1,0,0:0:0:60:drum.wav
448,192,27505,1,0,0:0:0:0:
64,192,27682,1,0,0:0:0:0:
448,192,27682,1,0,0:0:0:0:
64,192,27858,1,0,0:0:0:50:snare.wav
192,192,27858,1,0,0:0:0:0:
320,192,27858,1,0,0:0:0:0:
320,192,28035,1,0,0:0:0:0:
448,192,28035,1,0,0:0:0:0:
64,192,28211,1,0,0:0:0:60:drum.wav
192,192,28211,1,0,0:0:0:0:
448,192,28211,1,0,0:0:0:0:
192,192,28387,1,0,0:0:0:0:
320,192,28387,1,0,0:0:0:0:
64,192,28564,1,0,0:0:0:50:snare.wav
320,192,28564,1,0,0:0:0:0:
448,192,28564,1,0,0:0:0:0:
192,192,28740,1,0,0:0:0:0:
320,192,28740,1,0,0:0:0:0:
64,192,28917,1,0,0:0:0:60:drum.wav
192,192,28917,1,0,0:0:0:0:
448,192,28917,1,0,0:0:0:0:
320,192,29093,1,0,0:0:0:50:snare.wav
64,192,29270,1,0,0:0:0:50:snare.wav
192,192,29270,1,0,0:0:0:0:
448,192,29270,1,0,0:0:0:0:
320,192,29446,1,0,0:0:0:50:snare.wav
192,192,29535,1,0,0:0:0:0:
64,192,29623,1,0,0:0:0:60:drum.wav
320,192,29623,1,0,0:0:0:0:
448,192,29623,1,0,0:0:0:0:
64,192,29799,1,0,0:0:0:0:
192,192,29799,1,0,0:0:0:0:
64,192,29976,1,0,0:0:0:50:snare.wav
192,192,29976,1,0,0:0:0:0:
320,192,29976,1,0,0:0:0:0:
320,192,30152,1,0,0:0:0:0:
448,192,30152,1,0,0:0:0:0:
192,192,30329,1,0,0:0:0:60:drum.wav
448,192,30329,1,0,0:0:0:0:
64,192,30505,1,0,0:0:0:0:
320,192,30505,1,0,0:0:0:0:
192,192,30593,1,0,0:0:0:0:
320,192,30682,1,0,0:0:0:50:snare.wav
448,192,30682,1,0,0:0:0:0:
64,192,30858,1,0,0:0:0:0:
192,192,30858,1,0,0:0:0:0:
64,192,31035,1,0,0:0:0:60:drum.wav
320,192,31035,1,0,0:0:0:0:
448,192,31035,1,0,0:0:0:0:
192,192,31211,1,0,0:0:0:0:
448,192,31211,1,0,0:0:0:0:
64,192,31387,1,0,0:0:0:50:snare.wav
192,192,31387,1,0,0:0:0:0:
448,192,31387,1,0,0:0:0:0:
64,192,31564,1,0,0:0:0:0:
320,192,31564,1,0,0:0:0:0:
64,192,31740,1,0,0:0:0:60:drum.wav
320,192,31740,1,0,0:0:0:0:
448,192,31740,1,0,0:0:0:0:
192,192,31917,1,0,0:0:0:0:
64,192,32093,1,0,0:0:0:50:snare.wav
320,192,32093,1,0,0:0:0:0:
448,192,32093,1,0,0:0:0:0:
64,192,32270,1,0,0:0:0:0:
192,192,32270,1,0,0:0:0:0:
448,192,32358,1,0,0:0:0:0:
64,192,32446,1,0,0:0:0:60:drum.wav
320,192,32446,1,0,0:0:0:0:
192,192,32623,1,0,0:0:0:0:
320,192,32623,1,0,0:0:0:0:
64,192,32799,1,0,0:0:0:50:snare.wav
192,192,32799,1,0,0:0:0:0:
448,192,32799,1,0,0:0:0:0:
64,192,32976,1,0,0:0:0:0:
320,192,32976,1,0,0:0:0:0:
192,192,33152,1,0,0:0:0:60:drum.wav
448,192,33152,1,0,0:0:0:0:
320,192,33329,1,0,0:0:0:0:
448,192,33329,1,0,0:0:0:0:
64,192,33505,1,0,0:0:0:50:snare.wav
192,192,33505,1,0,0:0:0:0:
448,192,33505,1,0,0:0:0:0:
64,192,33682,1,0,0:0:0:0:
320,192,33682,1,0,0:0:0:0:
192,192,33858,1,0,0:0:0:60:drum.wav
448,192,33858,1,0,0:0:0:0:
192,192,34035,1,0,0:0:0:0:
320,192,34035,1,0,0:0:0:0:
64,192,34211,1,0,0:0:0:50:snare.wav
448,192,34211,1,0,0:0:0:0:
192,192,34387,1,0,0:0:0:0:
320,192,34387,1,0,0:0:0:0:
448,192,34476,1,0,0:0:0:0:
64,192,34564,1,0,0:0:0:60:drum.wav
192,192,34564,1,0,0:0:0:0:
320,192,34564,1,0,0:0:0:0:
64,192,34917,128,0,35182:0:0:0:0:
448,192,34917,128,0,35182:0:0:0:0:
64,192,35270,1,0,0:0:0:60:drum.wav
192,192,35270,1,0,0:0:0:50:finish.wav
448,192,35270,1,0,0:0:0:0:
320,192,35358,1,0,0:0:0:0:
192,192,35446,1,0,0:0:0:0:
64,192,35535,1,0,0:0:0:0:
320,192,35623,1,0,0:0:0:50:snare.wav
448,192,35623,1,0,0:0:0:0:
192,192,35711,1,0,0:0:0:0:
320,192,35799,1,0,0:0:0:0:
448,192,35887,1,0,0:0:0:0:
192,192,35976,1,0,0:0:0:0:
64,192,36064,1,0,0:0:0:0:
320,192,36152,1,0,0:0:0:60:drum.wav
448,192,36152,1,0,0:0:0:0:
192,192,36240,1,0,0:0:0:0:
64,192,36329,1,0,0:0:0:50:snare.wav
320,192,36329,1,0,0:0:0:0:
448,192,36417,1,0,0:0:0:0:
192,192,36505,1,0,0:0:0:0:
320,192,36593,1,0,0:0:0:0:
64,192,36682,1,0,0:0:0:60:drum.wav
448,192,36682,1,0,0:0:0:0:
320,192,36770,1,0,0:0:0:0:
192,192,36858,1,0,0:0:0:0:
64,192,36946,1,0,0:0:0:0:
320,192,37035,1,0,0:0:0:50:snare.wav
448,192,37035,1,0,0:0:0:0:
192,192,37123,1,0,0:0:0:0:
448,192,37211,1,0,0:0:0:0:
320,192,37299,1,0,0:0:0:0:
64,192,37387,1,0,0:0:0:0:
192,192,37476,1,0,0:0:0:0:
320,192,37564,1,0,0:0:0:60:drum.wav
448,192,37564,1,0,0:0:0:0:
64,192,37652,1,0,0:0:0:0:
192,192,37740,1,0,0:0:0:50:snare.wav
448,192,37740,1,0,0:0:0:0:
320,192,37829,1,0,0:0:0:0:
192,192,37917,1,0,0:0:0:0:
64,192,38005,1,0,0:0:0:0:
320,192,38093,1,0,0:0:0:60:drum.wav
448,192,38093,1,0,0:0:0:0:
192,192,38182,1,0,0:0:0:0:
320,192,38270,1,0,0:0:0:0:
448,192,38358,1,0,0:0:0:0:
64,192,38446,1,0,0:0:0:50:snare.wav
192,192,38446,1,0,0:0:0:0:
320,192,38535,1,0,0:0:0:0:
192,192,38623,1,0,0:0:0:0:
64,192,38711,1,0,0:0:0:0:
320,192,38799,1,0,0:0:0:0:
448,192,38887,1,0,0:0:0:0:
64,192,38976,1,0,0:0:0:60:drum.wav
192,192,38976,1,0,0:0:0:0:
320,192,39064,1,0,0:0:0:0:
192,192,39152,1,0,0:0:0:50:snare.wav
448,192,39152,1,0,0:0:0:0:
64,192,39240,1,0,0:0:0:0:
320,192,39329,1,0,0:0:0:0:
192,192,39417,1,0,0:0:0:0:
64,192,39505,1,0,0:0:0:60:drum.wav
320,192,39505,1,0,0:0:0:50:finish.wav
448,192,39505,1,0,0:0:0:0:
448,192,39682,1,0,0:0:0:0:
64,192,39770,1,0,0:0:0:60:drum.wav
192,192,39770,1,0,0:0:0:0:
320,192,39770,1,0,0:0:0:0:
320,192,39946,1,0,0:0:0:0:
64,192,40035,1,0,0:0:0:60:drum.wav
192,192,40035,1,0,0:0:0:0:
448,192,40035,1,0,0:0:0:0:
64,192,40211,1,0,0:0:0:60:drum.wav
320,192,40211,1,0,0:0:0:0:
448,192,40211,1,0,0:0:0:0:
64,192,40387,1,0,0:0:0:50:snare.wav
192,192,40387,1,0,0:0:0:0:
320,192,40476,1,0,0:0:0:50:snare.wav
448,192,40476,1,0,0:0:0:0:
64,192,40564,1,0,0:0:0:50:snare.wav
192,192,40564,1,0,0:0:0:0:
320,192,40652,1,0,0:0:0:50:snare.wav
448,192,40652,1,0,0:0:0:0:
64,192,40740,1,0,0:0:0:50:snare.wav
192,192,40740,1,0,0:0:0:0:
320,192,40829,1,0,0:0:0:50:snare.wav
64,192,40917,1,0,0:0:0:60:drum.wav
192,192,40917,1,0,0:0:0:50:finish.wav
448,192,40917,1,0,0:0:0:0:
192,192,41093,1,0,0:0:0:50:snare.wav
320,192,41093,1,0,0:0:0:0:
64,192,41270,1,0,0:0:0:60:drum.wav
320,192,41270,1,0,0:0:0:0:
448,192,41270,1,0,0:0:0:0:
192,192,41358,1,0,0:0:0:0:
320,192,41446,1,0,0:0:0:50:snare.wav
448,192,41446,1,0,0:0:0:0:
64,192,41535,1,0,0:0:0:0:
192,192,41623,1,0,0:0:0:60:drum.wav
320,192,41623,1,0,0:0:0:0:
448,192,41623,1,0,0:0:0:0:
64,192,41799,1,0,0:0:0:50:snare.wav
448,192,41799,1,0,0:0:0:0:
64,192,41976,1,0,0:0:0:60:drum.wav
192,192,41976,1,0,0:0:0:0:
320,192,41976,1,0,0:0:0:0:
448,192,42064,1,0,0:0:0:0:
64,192,42152,1,0,0:0:0:50:snare.wav
192,192,42152,1,0,0:0:0:0:
320,192,42240,1,0,0:0:0:0:
192,192,42329,1,0,0:0:0:60:drum.wav
448,192,42329,1,0,0:0:0:0:
64,192,42505,1,0,0:0:0:50:snare.wav
320,192,42505,1,0,0:0:0:0:
192,192,42682,1,0,0:0:0:60:drum.wav
320,192,42682,1,0,0:0:0:0:
448,192,42682,1,0,0:0:0:0:
64,192,42770,1,0,0:0:0:0:
192,192,42858,1,0,0:0:0:50:snare.wav
448,192,42858,1,0,0:0:0:0:
320,192,42946,1,0,0:0:0:0:
64,192,43035,1,0,0:0:0:60:drum.wav
192,192,43035,1,0,0:0:0:0:
192,192,43211,1,0,0:0:0:50:snare.wav
448,192,43211,1,0,0:0:0:0:
64,192,43387,1,0,0:0:0:60:drum.wav
320,192,43387,1,0,0:0:0:0:
448,192,43387,1,0,0:0:0:0:
192,192,43476,1,0,0:0:0:0:
64,192,43564,1,0,0:0:0:50:snare.wav
320,192,43564,1,0,0:0:0:0:
448,192,43652,1,0,0:0:0:50:snare.wav
64,192,43740,1,0,0:0:0:60:drum.wav
192,192,43740,1,0,0:0:0:50:finish.wav
320,192,43740,1,0,0:0:0:0:
64,192,43917,1,0,0:0:0:50:snare.wav
192,192,43917,1,0,0:0:0:0:
448,192,43917,1,0,0:0:0:0:
64,192,44093,1,0,0:0:0:50:snare.wav
192,192,44093,1,0,0:0:0:0:
320,192,44093,1,0,0:0:0:0:
448,192,44182,1,0,0:0:0:0:
64,192,44270,1,0,0:0:0:50:snare.wav
192,192,44270,1,0,0:0:0:0:
320,192,44358,1,0,0:0:0:0:
64,192,44446,1,0,0:0:0:50:snare.wav
192,192,44446,1,0,0:0:0:0:
448,192,44535,1,0,0:0:0:0:
64,192,44623,1,0,0:0:0:50:snare.wav
192,192,44623,1,0,0:0:0:0:
320,192,44711,1,0,0:0:0:0:
64,192,44799,1,0,0:0:0:50:snare.wav
192,192,44799,1,0,0:0:0:0:
448,192,44799,1,0,0:0:0:0:
320,192,44887,1,0,0:0:0:0:
64,192,44976,1,0,0:0:0:50:snare.wav
448,192,44976,1,0,0:0:0:0:
192,192,45064,1,0,0:0:0:50:snare.wav
64,192,45152,1,0,0:0:0:60:drum.wav
320,192,45152,1,0,0:0:0:50:finish.wav
448,192,45152,1,0,0:0:0:0:
192,192,45329,1,0,0:0:0:50:snare.wav
320,192,45329,1,0,0:0:0:0:
448,192,45329,1,0,0:0:0:0:
64,192,45505,1,0,0:0:0:50:snare.wav
320,192,45505,1,0,0:0:0:0:
448,192,45505,1,0,0:0:0:0:
192,192,45593,1,0,0:0:0:0:
320,192,45682,1,0,0:0:0:50:snare.wav
448,192,45682,1,0,0:0:0:0:
192,192,45770,1,0,0:0:0:0:
320,192,45858,1,0,0:0:0:50:snare.wav
448,192,45858,1,0,0:0:0:0:
64,192,45946,1,0,0:0:0:0:
320,192,46035,1,0,0:0:0:50:snare.wav
448,192,46035,1,0,0:0:0:0:
192,192,46123,1,0,0:0:0:0:
64,192,46211,1,0,0:0:0:50:snare.wav
320,192,46211,1,0,0:0:0:0:
448,192,46211,1,0,0:0:0:0:
192,192,46299,1,0,0:0:0:50:snare.wav
64,192,46387,1,0,0:0:0:50:snare.wav
448,192,46387,1,0,0:0:0:0:
320,192,46476,1,0,0:0:0:50:snare.wav
64,192,46564,1,0,0:0:0:60:drum.wav
192,192,46564,1,0,0:0:0:50:finish.wav
448,192,46564,1,0,0:0:0:0:
320,192,46652,1,0,0:0:0:50:snare.wav
192,192,46740,1,0,0:0:0:50:snare.wav
64,192,46829,1,0,0:0:0:60:drum.wav
320,192,46829,1,0,0:0:0:50:finish.wav
448,192,46829,1,0,0:0:0:0:
192,192,46917,1,0,0:0:0:50:snare.wav
320,192,47005,1,0,0:0:0:50:snare.wav
64,192,47093,1,0,0:0:0:60:drum.wav
192,192,47093,1,0,0:0:0:50:finish.wav
448,192,47182,1,0,0:0:0:50:snare.wav
64,192,47270,1,0,0:0:0:60:drum.wav
192,192,47270,1,0,0:0:0:50:finish.wav
320,192,47270,1,0,0:0:0:0:
448,192,47358,1,0,0:0:0:50:snare.wav
320,192,47446,1,0,0:0:0:50:snare.wav
64,192,47535,1,0,0:0:0:60:drum.wav
192,192,47535,1,0,0:0:0:50:finish.wav
448,192,47535,1,0,0:0:0:0:
320,192,47623,1,0,0:0:0:50:snare.wav
192,192,47711,1,0,0:0:0:50:snare.wav
64,192,47799,1,0,0:0:0:60:drum.wav
320,192,47799,1,0,0:0:0:50:finish.wav
448,192,47799,1,0,0:0:0:0:
192,192,47887,1,0,0:0:0:50:snare.wav
64,192,47976,1,0,0:0:0:60:drum.wav
320,192,47976,1,0,0:0:0:50:finish.wav
448,192,47976,1,0,0:0:0:0:
192,192,48329,1,0,0:0:0:0:
64,192,48682,1,0,0:0:0:60:drum.wav
192,192,48682,1,0,0:0:0:0:
320,192,48858,1,0,0:0:0:50:snare.wav
64,192,49035,1,0,0:0:0:50:snare.wav
192,192,49035,1,0,0:0:0:50:finish.wav
320,192,49035,1,0,0:0:0:0:
448,192,49035,1,0,0:0:0:0:
64,192,49387,128,0,49652:0:0:0:60:drum.wav
192,192,49387,128,0,49564:0:0:0:50:finish.wav
448,192,49387,1,0,0:0:0:0:
320,192,49564,1,0,0:0:0:0:
192,192,49652,1,0,0:0:0:0:
64,192,49740,1,0,0:0:0:50:snare2.wav
320,192,49740,1,0,0:0:0:0:
448,192,49740,1,0,0:0:0:0:
192,192,49829,1,0,0:0:0:0:
448,192,49917,1,0,0:0:0:0:
320,192,50005,1,0,0:0:0:0:
64,192,50093,1,0,0:0:0:60:drum.wav
192,192,50093,1,0,0:0:0:0:
448,192,50093,1,0,0:0:0:0:
64,192,50270,128,0,50358:0:0:0:0:
192,192,50270,128,0,50358:0:0:0:0:
320,192,50358,1,0,0:0:0:0:
64,192,50446,128,0,50535:0:0:0:50:snare2.wav
192,192,50446,128,0,50535:0:0:0:0:
448,192,50446,1,0,0:0:0:0:
320,192,50623,1,0,0:0:0:0:
448,192,50623,1,0,0:0:0:0:
192,192,50711,1,0,0:0:0:0:
64,192,50799,1,0,0:0:0:60:drum.wav
320,192,50799,1,0,0:0:0:0:
448,192,50887,1,0,0:0:0:0:
64,192,50976,1,0,0:0:0:0:
192,192,50976,1,0,0:0:0:0:
320,192,51064,1,0,0:0:0:0:
192,192,51152,1,0,0:0:0:50:snare2.wav
448,192,51152,1,0,0:0:0:0:
64,192,51240,1,0,0:0:0:0:
192,192,51329,1,0,0:0:0:0:
320,192,51329,1,0,0:0:0:0:
448,192,51417,1,0,0:0:0:0:
64,192,51505,1,0,0:0:0:60:drum.wav
192,192,51505,1,0,0:0:0:0:
320,192,51593,1,0,0:0:0:0:
64,192,51682,1,0,0:0:0:0:
192,192,51682,1,0,0:0:0:0:
448,192,51770,1,0,0:0:0:0:
192,192,51858,1,0,0:0:0:50:snare2.wav
320,192,51858,1,0,0:0:0:0:
64,192,51946,1,0,0:0:0:0:
320,192,52035,1,0,0:0:0:0:
448,192,52035,1,0,0:0:0:0:
192,192,52123,1,0,0:0:0:0:
64,192,52211,1,0,0:0:0:60:drum.wav
320,192,52211,128,0,52387:0:0:0:0:
448,192,52211,128,0,52476:0:0:0:0:
192,192,52387,1,0,0:0:0:0:
320,192,52476,1,0,0:0:0:0:
64,192,52564,1,0,0:0:0:50:snare2.wav
192,192,52564,1,0,0:0:0:0:
448,192,52564,1,0,0:0:0:0:
320,192,52652,1,0,0:0:0:0:
64,192,52740,1,0,0:0:0:0:
192,192,52829,1,0,0:0:0:0:
64,192,52917,1,0,0:0:0:60:drum.wav
320,192,52917,1,0,0:0:0:0:
448,192,52917,1,0,0:0:0:0:
320,192,53093,128,0,53182:0:0:0:0:
448,192,53093,128,0,53182:0:0:0:0:
192,192,53182,1,0,0:0:0:0:
64,192,53270,1,0,0:0:0:50:snare2.wav
320,192,53270,128,0,53358:0:0:0:0:
448,192,53270,128,0,53358:0:0:0:0:
64,192,53446,1,0,0:0:0:0:
192,192,53446,1,0,0:0:0:0:
320,192,53535,1,0,0:0:0:0:
192,192,53623,1,0,0:0:0:60:drum.wav
448,192,53623,1,0,0:0:0:0:
64,192,53711,1,0,0:0:0:0:
320,192,53799,1,0,0:0:0:0:
448,192,53799,1,0,0:0:0:0:
192,192,53887,1,0,0:0:0:0:
64,192,53976,1,0,0:0:0:50:snare2.wav
320,192,53976,1,0,0:0:0:0:
448,192,54064,1,0,0:0:0:0:
192,192,54152,1,0,0:0:0:0:
320,192,54152,1,0,0:0:0:0:
64,192,54240,1,0,0:0:0:0:
320,192,54329,1,0,0:0:0:60:drum.wav
448,192,54329,1,0,0:0:0:50:finish.wav
192,192,54417,1,0,0:0:0:0:
320,192,54505,1,0,0:0:0:0:
448,192,54505,1,0,0:0:0:0:
64,192,54593,1,0,0:0:0:0:
192,192,54682,1,0,0:0:0:50:finish.wav
320,192,54682,1,0,0:0:0:50:snare2.wav
448,192,54770,1,0,0:0:0:0:
64,192,54858,1,0,0:0:0:0:
192,192,54858,1,0,0:0:0:0:
320,192,54946,1,0,0:0:0:0:
64,192,55035,1,0,0:0:0:60:drum.wav
448,192,55035,1,0,0:0:0:0:
320,192,55123,1,0,0:0:0:0:
64,192,55211,1,0,0:0:0:0:
192,192,55211,1,0,0:0:0:0:
448,192,55299,1,0,0:0:0:0:
64,192,55387,1,0,0:0:0:50:snare2.wav
320,192,55387,1,0,0:0:0:0:
192,192,55476,1,0,0:0:0:0:
320,192,55564,1,0,0:0:0:0:
448,192,55564,1,0,0:0:0:0:
64,192,55652,1,0,0:0:0:0:
320,192,55740,1,0,0:0:0:60:drum.wav
448,192,55740,1,0,0:0:0:0:
192,192,55829,1,0,0:0:0:0:
64,192,55917,1,0,0:0:0:0:
320,192,55917,1,0,0:0:0:0:
448,192,56005,1,0,0:0:0:0:
64,192,56093,1,0,0:0:0:50:snare2.wav
192,192,56093,1,0,0:0:0:0:
320,192,56182,1,0,0:0:0:0:
64,192,56270,1,0,0:0:0:0:
192,192,56270,1,0,0:0:0:0:
448,192,56358,1,0,0:0:0:0:
64,192,56446,1,0,0:0:0:60:drum.wav
320,192,56446,1,0,0:0:0:0:
192,192,56623,1,0,0:0:0:0:
320,192,56711,1,0,0:0:0:0:
448,192,56711,1,0,0:0:0:0:
64,192,56799,1,0,0:0:0:50:snare2.wav
192,192,56799,1,0,0:0:0:0:
448,192,56887,1,0,0:0:0:0:
64,192,56976,1,0,0:0:0:0:
320,192,56976,1,0,0:0:0:0:
192,192,57064,1,0,0:0:0:0:
320,192,57152,1,0,0:0:0:60:drum.wav
448,192,57152,1,0,0:0:0:0:
64,192,57240,1,0,0:0:0:0:
192,192,57329,1,0,0:0:0:0:
320,192,57329,1,0,0:0:0:0:
448,192,57417,1,0,0:0:0:0:
64,192,57505,1,0,0:0:0:50:snare2.wav
192,192,57505,1,0,0:0:0:0:
320,192,57593,1,0,0:0:0:0:
64,192,57682,1,0,0:0:0:0:
192,192,57682,1,0,0:0:0:0:
448,192,57770,1,0,0:0:0:0:
64,192,57858,1,0,0:0:0:60:drum.wav
320,192,57858,1,0,0:0:0:0:
192,192,57946,1,0,0:0:0:0:
320,192,58035,1,0,0:0:0:0:
448,192,58035,1,0,0:0:0:0:
64,192,58123,1,0,0:0:0:0:
192,192,58211,1,0,0:0:0:50:snare2.wav
320,192,58211,1,0,0:0:0:0:
448,192,58299,1,0,0:0:0:0:
64,192,58387,1,0,0:0:0:0:
192,192,58387,1,0,0:0:0:0:
320,192,58476,1,0,0:0:0:0:
192,192,58564,1,0,0:0:0:60:drum.wav
448,192,58564,1,0,0:0:0:0:
64,192,58652,1,0,0:0:0:0:
320,192,58740,1,0,0:0:0:0:
448,192,58740,1,0,0:0:0:0:
192,192,58829,1,0,0:0:0:0:
64,192,58917,1,0,0:0:0:50:snare2.wav
320,192,58917,1,0,0:0:0:0:
448,192,59005,1,0,0:0:0:0:
192,192,59093,1,0,0:0:0:0:
320,192,59093,1,0,0:0:0:0:
64,192,59182,1,0,0:0:0:0:
192,192,59270,1,0,0:0:0:60:drum.wav
320,192,59270,1,0,0:0:0:0:
448,192,59270,1,0,0:0:0:0:
64,192,59535,1,0,0:0:0:60:drum.wav
192,192,59535,1,0,0:0:0:0:
448,192,59535,1,0,0:0:0:0:
64,192,59799,1,0,0:0:0:60:drum.wav
320,192,59799,1,0,0:0:0:0:
448,192,59799,1,0,0:0:0:0:
64,192,59976,1,0,0:0:0:60:drum.wav
192,192,59976,1,0,0:0:0:0:
320,192,59976,1,0,0:0:0:0:
448,192,60152,1,0,0:0:0:50:snare.wav
192,192,60329,1,0,0:0:0:50:snare.wav
448,192,60329,1,0,0:0:0:0:
64,192,60417,1,0,0:0:0:50:snare.wav
320,192,60417,1,0,0:0:0:0:
192,192,60505,1,0,0:0:0:50:snare.wav
448,192,60505,1,0,0:0:0:0:
64,192,60682,1,0,0:0:0:60:drum.wav
320,192,60682,128,0,60858:0:0:0:50:finish.wav
448,192,60682,128,0,60946:0:0:0:0:
192,192,60858,1,0,0:0:0:0:
320,192,60946,1,0,0:0:0:0:
64,192,61035,1,0,0:0:0:50:snare2.wav
192,192,61035,1,0,0:0:0:0:
448,192,61035,1,0,0:0:0:0:
320,192,61123,1,0,0:0:0:0:
64,192,61211,1,0,0:0:0:0:
192,192,61299,1,0,0:0:0:0:
64,192,61387,1,0,0:0:0:60:drum.wav
320,192,61387,1,0,0:0:0:0:
448,192,61387,1,0,0:0:0:0:
320,192,61564,128,0,61652:0:0:0:0:
448,192,61564,128,0,61652:0:0:0:0:
192,192,61652,1,0,0:0:0:0:
64,192,61740,1,0,0:0:0:50:snare2.wav
320,192,61740,128,0,61829:0:0:0:0:
448,192,61740,128,0,61829:0:0:0:0:
64,192,61917,1,0,0:0:0:0:
192,192,61917,1,0,0:0:0:0:
320,192,62005,1,0,0:0:0:0:
192,192,62093,1,0,0:0:0:60:drum.wav
448,192,62093,1,0,0:0:0:0:
64,192,62182,1,0,0:0:0:0:
320,192,62270,1,0,0:0:0:0:
448,192,62270,1,0,0:0:0:0:
192,192,62358,1,0,0:0:0:0:
64,192,62446,1,0,0:0:0:50:snare2.wav
320,192,62446,1,0,0:0:0:0:
448,192,62535,1,0,0:0:0:0:
192,192,62623,1,0,0:0:0:0:
320,192,62623,1,0,0:0:0:0:
64,192,62711,1,0,0:0:0:0:
320,192,62799,1,0,0:0:0:60:drum.wav
448,192,62799,1,0,0:0:0:0:
192,192,62887,1,0,0:0:0:0:
320,192,62976,1,0,0:0:0:0:
448,192,62976,1,0,0:0:0:0:
64,192,63064,1,0,0:0:0:0:
192,192,63152,1,0,0:0:0:50:snare2.wav
320,192,63152,1,0,0:0:0:0:
448,192,63240,1,0,0:0:0:0:
64,192,63329,1,0,0:0:0:0:
192,192,63329,1,0,0:0:0:0:
320,192,63417,1,0,0:0:0:0:
64,192,63505,128,0,63770:0:0:0:60:drum.wav
192,192,63505,128,0,63682:0:0:0:50:finish.wav
448,192,63505,1,0,0:0:0:0:
320,192,63682,1,0,0:0:0:0:
192,192,63770,1,0,0:0:0:0:
64,192,63858,1,0,0:0:0:50:snare2.wav
320,192,63858,1,0,0:0:0:0:
448,192,63858,1,0,0:0:0:0:
192,192,63946,1,0,0:0:0:0:
64,192,64035,1,0,0:0:0:0:
448,192,64035,1,0,0:0:0:0:
320,192,64123,1,0,0:0:0:0:
192,192,64211,1,0,0:0:0:0:
320,192,64299,1,0,0:0:0:0:
64,192,64387,1,0,0:0:0:60:drum.wav
192,192,64387,1,0,0:0:0:0:
448,192,64387,1,0,0:0:0:0:
64,192,64652,1,0,0:0:0:60:drum.wav
320,192,64652,1,0,0:0:0:0:
448,192,64652,1,0,0:0:0:0:
64,192,64917,1,0,0:0:0:60:drum.wav
192,192,64917,1,0,0:0:0:50:finish.wav
448,192,64917,1,0,0:0:0:0:
320,192,65005,1,0,0:0:0:0:
64,192,65093,1,0,0:0:0:0:
192,192,65093,1,0,0:0:0:0:
448,192,65182,1,0,0:0:0:0:
192,192,65270,1,0,0:0:0:50:snare2.wav
320,192,65270,1,0,0:0:0:0:
64,192,65358,1,0,0:0:0:0:
320,192,65446,1,0,0:0:0:0:
448,192,65446,1,0,0:0:0:0:
192,192,65535,1,0,0:0:0:0:
64,192,65623,1,0,0:0:0:60:drum.wav
448,192,65623,1,0,0:0:0:50:finish.wav
192,192,65711,1,0,0:0:0:0:
320,192,65799,1,0,0:0:0:0:
448,192,65799,1,0,0:0:0:0:
64,192,65887,1,0,0:0:0:0:
192,192,65976,1,0,0:0:0:50:finish.wav
320,192,65976,1,0,0:0:0:50:snare2.wav
448,192,66064,1,0,0:0:0:0:
64,192,66152,1,0,0:0:0:0:
192,192,66152,1,0,0:0:0:0:
320,192,66240,1,0,0:0:0:0:
64,192,66329,1,0,0:0:0:60:drum.wav
448,192,66329,1,0,0:0:0:50:finish.wav
320,192,66417,1,0,0:0:0:0:
64,192,66505,1,0,0:0:0:0:
192,192,66505,1,0,0:0:0:0:
448,192,66593,1,0,0:0:0:0:
192,192,66682,1,0,0:0:0:50:snare2.wav
320,192,66682,1,0,0:0:0:0:
64,192,66770,1,0,0:0:0:0:
320,192,66858,1,0,0:0:0:0:
448,192,66858,1,0,0:0:0:0:
192,192,66946,1,0,0:0:0:0:
64,192,67035,1,0,0:0:0:60:drum.wav
320,192,67035,1,0,0:0:0:0:
448,192,67123,1,0,0:0:0:0:
64,192,67211,1,0,0:0:0:0:
192,192,67211,1,0,0:0:0:0:
320,192,67299,1,0,0:0:0:0:
192,192,67387,1,0,0:0:0:50:snare2.wav
448,192,67387,1,0,0:0:0:0:
64,192,67476,1,0,0:0:0:0:
192,192,67564,1,0,0:0:0:0:
320,192,67564,1,0,0:0:0:0:
448,192,67652,1,0,0:0:0:0:
64,192,67740,1,0,0:0:0:60:drum.wav
192,192,67740,1,0,0:0:0:0:
320,192,67917,1,0,0:0:0:0:
64,192,68005,1,0,0:0:0:0:
192,192,68005,1,0,0:0:0:0:
320,192,68093,1,0,0:0:0:50:snare2.wav
448,192,68093,1,0,0:0:0:0:
64,192,68182,1,0,0:0:0:0:
192,192,68270,1,0,0:0:0:0:
448,192,68270,1,0,0:0:0:0:
320,192,68358,1,0,0:0:0:0:
64,192,68446,1,0,0:0:0:60:drum.wav
192,192,68446,1,0,0:0:0:0:
448,192,68535,1,0,0:0:0:0:
192,192,68623,1,0,0:0:0:0:
320,192,68623,1,0,0:0:0:0:
64,192,68711,1,0,0:0:0:0:
320,192,68799,1,0,0:0:0:50:snare2.wav
448,192,68799,1,0,0:0:0:0:
64,192,68887,1,0,0:0:0:0:
192,192,68976,1,0,0:0:0:0:
320,192,68976,1,0,0:0:0:0:
448,192,69064,1,0,0:0:0:0:
64,192,69152,1,0,0:0:0:60:drum.wav
320,192,69152,1,0,0:0:0:0:
192,192,69240,1,0,0:0:0:0:
320,192,69329,1,0,0:0:0:0:
448,192,69329,1,0,0:0:0:0:
64,192,69417,1,0,0:0:0:0:
192,192,69505,1,0,0:0:0:50:snare2.wav
448,192,69505,1,0,0:0:0:0:
320,192,69593,1,0,0:0:0:0:
64,192,69682,1,0,0:0:0:0:
192,192,69682,1,0,0:0:0:0:
448,192,69770,1,0,0:0:0:0:
64,192,69858,1,0,0:0:0:60:drum.wav
320,192,69858,1,0,0:0:0:0:
192,192,69946,1,0,0:0:0:0:
320,192,70035,1,0,0:0:0:0:
448,192,70035,1,0,0:0:0:0:
64,192,70123,1,0,0:0:0:0:
192,192,70211,1,0,0:0:0:50:snare2.wav
448,192,70211,1,0,0:0:0:0:
320,192,70299,1,0,0:0:0:0:
64,192,70387,1,0,0:0:0:0:
448,192,70387,1,0,0:0:0:0:
192,192,70476,1,0,0:0:0:0:
64,192,70564,1,0,0:0:0:60:drum.wav
320,192,70564,1,0,0:0:0:0:
448,192,70564,1,0,0:0:0:0:
320,192,70740,1,0,0:0:0:0:
64,192,70829,1,0,0:0:0:60:drum.wav
192,192,70829,1,0,0:0:0:0:
448,192,70829,1,0,0:0:0:0:
64,192,71005,1,0,0:0:0:0:
192,192,71093,1,0,0:0:0:60:drum.wav
320,192,71093,1,0,0:0:0:0:
448,192,71093,1,0,0:0:0:0:
64,192,71270,1,0,0:0:0:60:drum.wav
320,192,71270,1,0,0:0:0:0:
448,192,71270,1,0,0:0:0:0:
64,192,71446,1,0,0:0:0:50:snare.wav
192,192,71490,1,0,0:0:0:0:
320,192,71535,1,0,0:0:0:0:
448,192,71579,1,0,0:0:0:0:
64,192,71623,1,0,0:0:0:60:drum.wav
192,192,71623,1,0,0:0:0:0:
320,192,71711,1,0,0:0:0:0:
64,192,71799,1,0,0:0:0:50:snare.wav
448,192,71799,1,0,0:0:0:0:
192,192,71887,1,0,0:0:0:50:snare.wav
64,192,71976,128,0,72329:0:0:0:60:drum.wav
320,192,71976,1,0,0:0:0:50:finish.wav
448,192,71976,1,0,0:0:0:0:
192,192,72152,128,0,72329:0:0:0:0:
320,192,72329,128,0,72505:0:0:0:50:snare2.wav
448,192,72329,1,0,0:0:0:0:
192,192,72417,128,0,72593:0:0:0:0:
64,192,72505,128,0,72682:0:0:0:0:
192,192,72682,1,0,0:0:0:60:drum.wav
320,192,72682,1,0,0:0:0:0:
448,192,72682,128,0,72946:0:0:0:0:
192,192,72858,128,0,73035:0:0:0:0:
320,192,72946,128,0,73123:0:0:0:0:
64,192,73035,1,0,0:0:0:50:snare2.wav
448,192,73035,1,0,0:0:0:0:
192,192,73123,128,0,73299:0:0:0:0:
64,192,73211,128,0,73387:0:0:0:0:
192,192,73387,1,0,0:0:0:60:drum.wav
448,192,73387,128,0,73564:0:0:0:0:
320,192,73476,128,0,73652:0:0:0:0:
192,192,73564,128,0,73740:0:0:0:0:
64,192,73740,1,0,0:0:0:50:snare2.wav
448,192,73740,128,0,74093:0:0:0:0:
320,192,73917,128,0,74093:0:0:0:0:
64,192,74093,1,0,0:0:0:60:drum.wav
192,192,74093,128,0,74270:0:0:0:0:
320,192,74182,128,0,74358:0:0:0:0:
448,192,74270,128,0,74446:0:0:0:0:
64,192,74446,128,0,74799:0:0:0:50:snare2.wav
320,192,74446,1,0,0:0:0:0:
192,192,74623,128,0,74799:0:0:0:0:
320,192,74799,128,0,75152:0:0:0:60:drum.wav
448,192,74799,1,0,0:0:0:50:finish.wav
192,192,74976,128,0,75152:0:0:0:0:
64,192,75152,1,0,0:0:0:50:snare2.wav
448,192,75152,128,0,75329:0:0:0:0:
320,192,75240,128,0,75417:0:0:0:0:
192,192,75329,128,0,75505:0:0:0:0:
64,192,75505,1,0,0:0:0:60:drum.wav
448,192,75505,128,0,75682:0:0:0:0:
192,192,75682,128,0,75858:0:0:0:0:
320,192,75770,128,0,75946:0:0:0:0:
64,192,75858,1,0,0:0:0:50:snare2.wav
448,192,75858,1,0,0:0:0:0:
192,192,75946,128,0,76123:0:0:0:0:
64,192,76035,128,0,76211:0:0:0:0:
192,192,76211,1,0,0:0:0:60:drum.wav
320,192,76211,1,0,0:0:0:50:finish.wav
448,192,76211,128,0,76387:0:0:0:0:
320,192,76387,1,0,0:0:0:0:
64,192,76476,1,0,0:0:0:60:drum.wav
192,192,76476,1,0,0:0:0:50:finish.wav
448,192,76476,128,0,76652:0:0:0:0:
320,192,76564,128,0,76740:0:0:0:0:
192,192,76652,128,0,76829:0:0:0:0:
64,192,76740,128,0,76829:0:0:0:60:drum.wav
448,192,76740,1,0,0:0:0:50:finish.wav
320,192,76829,1,0,0:0:0:0:
64,192,76917,1,0,0:0:0:60:drum.wav
192,192,76917,1,0,0:0:0:50:finish.wav
448,192,76917,1,0,0:0:0:0:
320,192,77093,1,0,0:0:0:50:snare.wav
192,192,77182,1,0,0:0:0:50:snare.wav
320,192,77270,1,0,0:0:0:50:snare.wav
448,192,77270,1,0,0:0:0:0:
64,192,77358,1,0,0:0:0:50:snare.wav
192,192,77358,1,0,0:0:0:0:
320,192,77446,1,0,0:0:0:50:snare.wav
448,192,77446,1,0,0:0:0:0:
192,192,77535,1,0,0:0:0:50:snare.wav
64,192,77623,1,0,0:0:0:60:drum.wav
320,192,77623,1,0,0:0:0:50:finish.wav
448,192,77623,128,0,77976:0:0:0:0:
320,192,77799,128,0,77976:0:0:0:0:
64,192,77976,1,0,0:0:0:50:snare2.wav
192,192,77976,128,0,78152:0:0:0:0:
320,192,78064,128,0,78240:0:0:0:0:
448,192,78152,128,0,78329:0:0:0:0:
64,192,78329,128,0,78593:0:0:0:60:drum.wav
192,192,78329,1,0,0:0:0:0:
320,192,78329,1,0,0:0:0:0:
320,192,78505,128,0,78682:0:0:0:0:
192,192,78593,128,0,78770:0:0:0:0:
64,192,78682,1,0,0:0:0:50:snare2.wav
448,192,78682,1,0,0:0:0:0:
320,192,78770,128,0,78946:0:0:0:0:
448,192,78858,128,0,79035:0:0:0:0:
64,192,79035,1,0,0:0:0:60:drum.wav
320,192,79035,128,0,79299:0:0:0:0:
64,192,79211,128,0,79387:0:0:0:0:
192,192,79299,128,0,79476:0:0:0:0:
320,192,79387,1,0,0:0:0:50:snare2.wav
448,192,79387,1,0,0:0:0:0:
64,192,79476,128,0,79652:0:0:0:0:
192,192,79564,128,0,79740:0:0:0:0:
320,192,79652,128,0,79829:0:0:0:0:
64,192,79740,1,0,0:0:0:60:drum.wav
448,192,79740,128,0,80005:0:0:0:0:
320,192,79917,128,0,80093:0:0:0:0:
192,192,80005,128,0,80182:0:0:0:0:
64,192,80093,128,0,80358:0:0:0:50:snare2.wav
448,192,80093,1,0,0:0:0:0:
192,192,80270,128,0,80358:0:0:0:0:
64,192,80446,1,0,0:0:0:60:drum.wav
320,192,80446,1,0,0:0:0:50:finish.wav
448,192,80446,128,0,80799:0:0:0:0:
320,192,80623,128,0,80799:0:0:0:0:
64,192,80799,1,0,0:0:0:50:snare2.wav
192,192,80799,128,0,81152:0:0:0:0:
320,192,80976,128,0,81152:0:0:0:0:
64,192,81152,128,0,81505:0:0:0:60:drum.wav
448,192,81152,1,0,0:0:0:0:
192,192,81329,128,0,81505:0:0:0:0:
320,192,81505,1,0,0:0:0:50:snare2.wav
448,192,81505,128,0,81770:0:0:0:0:
320,192,81682,128,0,81770:0:0:0:0:
64,192,81858,1,0,0:0:0:60:drum.wav
320,192,81858,1,0,0:0:0:50:finish.wav
448,192,81858,1,0,0:0:0:0:
64,192,82123,1,0,0:0:0:60:drum.wav
192,192,82123,1,0,0:0:0:50:finish.wav
448,192,82123,1,0,0:0:0:0:
64,192,82387,1,0,0:0:0:60:drum.wav
320,192,82387,1,0,0:0:0:50:finish.wav
448,192,82387,1,0,0:0:0:0:
64,192,82564,1,0,0:0:0:60:drum.wav
320,192,82564,1,0,0:0:0:50:finish.wav
448,192,82564,1,0,0:0:0:0:
192,192,82740,1,0,0:0:0:0:
320,192,82917,1,0,0:0:0:0:
448,192,83093,1,0,0:0:0:0:
64,192,83270,1,0,0:0:0:60:drum.wav
192,192,83270,1,0,0:0:0:50:finish.wav
320,192,83270,1,0,0:0:0:0:
448,192,83270,1,0,0:0:0:0:
192,192,83446,1,0,0:0:0:0:
320,192,83535,1,0,0:0:0:0:
64,192,83623,1,0,0:0:0:50:snare.wav
192,192,83623,1,0,0:0:0:0:
448,192,83623,1,0,0:0:0:0:
320,192,83799,1,0,0:0:0:0:
448,192,83799,1,0,0:0:0:0:
192,192,83887,1,0,0:0:0:0:
64,192,83976,1,0,0:0:0:60:drum.wav
320,192,83976,1,0,0:0:0:0:
64,192,84152,1,0,0:0:0:0:
448,192,84152,1,0,0:0:0:0:
192,192,84329,1,0,0:0:0:50:snare.wav
320,192,84329,1,0,0:0:0:0:
448,192,84329,1,0,0:0:0:0:
64,192,84505,1,0,0:0:0:0:
192,192,84505,1,0,0:0:0:0:
64,192,84682,1,0,0:0:0:60:drum.wav
320,192,84682,1,0,0:0:0:0:
448,192,84682,1,0,0:0:0:0:
192,192,84858,1,0,0:0:0:0:
320,192,84858,1,0,0:0:0:0:
64,192,85035,1,0,0:0:0:50:snare.wav
192,192,85035,1,0,0:0:0:0:
448,192,85035,1,0,0:0:0:0:
192,192,85211,1,0,0:0:0:0:
320,192,85211,1,0,0:0:0:0:
64,192,85387,1,0,0:0:0:60:drum.wav
320,192,85387,1,0,0:0:0:0:
448,192,85387,1,0,0:0:0:0:
192,192,85564,1,0,0:0:0:0:
64,192,85740,1,0,0:0:0:50:snare.wav
320,192,85740,1,0,0:0:0:0:
448,192,85740,1,0,0:0:0:0:
192,192,85917,1,0,0:0:0:0:
448,192,85917,1,0,0:0:0:0:
320,192,86005,1,0,0:0:0:0:
64,192,86093,1,0,0:0:0:60:drum.wav
192,192,86093,1,0,0:0:0:0:
320,192,86270,1,0,0:0:0:0:
192,192,86358,1,0,0:0:0:0:
64,192,86446,1,0,0:0:0:50:snare.wav
320,192,86446,1,0,0:0:0:0:
448,192,86446,1,0,0:0:0:0:
64,192,86623,1,0,0:0:0:0:
192,192,86623,1,0,0:0:0:0:
320,192,86711,1,0,0:0:0:0:
192,192,86799,1,0,0:0:0:60:drum.wav
448,192,86799,1,0,0:0:0:0:
64,192,86976,1,0,0:0:0:0:
448,192,86976,1,0,0:0:0:0:
64,192,87152,1,0,0:0:0:50:snare.wav
192,192,87152,1,0,0:0:0:0:
320,192,87152,1,0,0:0:0:0:
320,192,87329,1,0,0:0:0:0:
448,192,87329,1,0,0:0:0:0:
64,192,87505,1,0,0:0:0:60:drum.wav
192,192,87505,1,0,0:0:0:0:
448,192,87505,1,0,0:0:0:0:
192,192,87682,1,0,0:0:0:0:
320,192,87682,1,0,0:0:0:0:
64,192,87858,1,0,0:0:0:50:snare.wav
320,192,87858,1,0,0:0:0:0:
448,192,87858,1,0,0:0:0:0:
192,192,88035,1,0,0:0:0:0:
320,192,88035,1,0,0:0:0:0:
64,192,88211,1,0,0:0:0:60:drum.wav
192,192,88211,1,0,0:0:0:0:
448,192,88211,1,0,0:0:0:0:
320,192,88387,1,0,0:0:0:50:snare.wav
64,192,88564,1,0,0:0:0:50:snare.wav
192,192,88564,1,0,0:0:0:0:
448,192,88564,1,0,0:0:0:0:
64,192,88740,1,0,0:0:0:50:snare.wav
320,192,88740,1,0,0:0:0:0:
192,192,88829,1,0,0:0:0:0:
64,192,88917,1,0,0:0:0:60:drum.wav
320,192,88917,1,0,0:0:0:0:
448,192,88917,1,0,0:0:0:0:
192,192,89093,1,0,0:0:0:0:
448,192,89093,1,0,0:0:0:0:
64,192,89270,1,0,0:0:0:50:snare.wav
192,192,89270,1,0,0:0:0:0:
320,192,89270,1,0,0:0:0:0:
320,192,89446,1,0,0:0:0:0:
448,192,89446,1,0,0:0:0:0:
192,192,89535,1,0,0:0:0:0:
64,192,89623,1,0,0:0:0:60:drum.wav
448,192,89623,1,0,0:0:0:0:
64,192,89799,1,0,0:0:0:0:
192,192,89799,1,0,0:0:0:0:
320,192,89887,1,0,0:0:0:0:
64,192,89976,1,0,0:0:0:50:snare.wav
192,192,89976,1,0,0:0:0:0:
448,192,89976,1,0,0:0:0:0:
192,192,90152,1,0,0:0:0:0:
320,192,90152,1,0,0:0:0:0:
64,192,90329,1,0,0:0:0:60:drum.wav
320,192,90329,1,0,0:0:0:0:
448,192,90329,1,0,0:0:0:0:
192,192,90505,1,0,0:0:0:0:
448,192,90505,1,0,0:0:0:0:
64,192,90682,1,0,0:0:0:50:snare.wav
192,192,90682,1,0,0:0:0:0:
448,192,90682,1,0,0:0:0:0:
64,192,90858,1,0,0:0:0:0:
320,192,90858,1,0,0:0:0:0:
64,192,91035,1,0,0:0:0:60:drum.wav
320,192,91035,1,0,0:0:0:0:
448,192,91035,1,0,0:0:0:0:
192,192,91211,1,0,0:0:0:0:
64,192,91387,1,0,0:0:0:50:snare.wav
320,192,91387,1,0,0:0:0:0:
448,192,91387,1,0,0:0:0:0:
64,192,91564,1,0,0:0:0:0:
192,192,91564,1,0,0:0:0:0:
448,192,91652,1,0,0:0:0:0:
64,192,91740,1,0,0:0:0:60:drum.wav
320,192,91740,1,0,0:0:0:0:
192,192,91917,1,0,0:0:0:0:
320,192,91917,1,0,0:0:0:0:
64,192,92093,1,0,0:0:0:50:snare.wav
192,192,92093,1,0,0:0:0:0:
448,192,92093,1,0,0:0:0:0:
64,192,92270,1,0,0:0:0:0:
320,192,92270,1,0,0:0:0:0:
192,192,92446,1,0,0:0:0:60:drum.wav
448,192,92446,1,0,0:0:0:0:
64,192,92623,1,0,0:0:0:0:
320,192,92623,1,0,0:0:0:0:
64,192,92799,1,0,0:0:0:50:snare.wav
192,192,92799,1,0,0:0:0:0:
448,192,92799,1,0,0:0:0:0:
320,192,92976,1,0,0:0:0:0:
448,192,92976,1,0,0:0:0:0:
64,192,93152,1,0,0:0:0:60:drum.wav
192,192,93152,1,0,0:0:0:0:
448,192,93270,1,0,0:0:0:0:
320,192,93329,1,0,0:0:0:0:
192,192,93387,1,0,0:0:0:0:
64,192,93505,1,0,0:0:0:50:snare.wav
320,192,93505,1,0,0:0:0:0:
448,192,93505,1,0,0:0:0:0:
192,192,93623,1,0,0:0:0:0:
64,192,93682,1,0,0:0:0:0:
320,192,93740,1,0,0:0:0:0:
64,192,93858,128,0,94476:0:0:0:50:snare.wav
192,192,93858,1,0,0:0:0:0:
448,192,93858,1,0,0:0:0:0:
320,192,94211,128,0,94476:0:0:0:0:
448,192,94211,128,0,94476:0:0:0:0:
64,192,94564,1,0,0:0:0:60:drum.wav
192,192,94564,1,0,0:0:0:50:finish.wav
320,192,94564,1,0,0:0:0:0:
448,192,94564,1,0,0:0:0:0:
320,192,94740,1,0,0:0:0:0:
192,192,94829,1,0,0:0:0:0:
64,192,94917,1,0,0:0:0:50:snare.wav
320,192,94917,1,0,0:0:0:0:
448,192,94917,1,0,0:0:0:0:
192,192,95093,1,0,0:0:0:0:
448,192,95093,1,0,0:0:0:0:
64,192,95270,1,0,0:0:0:60:drum.wav
320,192,95270,1,0,0:0:0:0:
192,192,95358,1,0,0:0:0:0:
320,192,95446,1,0,0:0:0:0:
448,192,95446,1,0,0:0:0:0:
64,192,95623,1,0,0:0:0:50:snare.wav
192,192,95623,1,0,0:0:0:0:
320,192,95623,1,0,0:0:0:0:
192,192,95799,1,0,0:0:0:0:
448,192,95799,1,0,0:0:0:0:
320,192,95887,1,0,0:0:0:0:
64,192,95976,1,0,0:0:0:60:drum.wav
192,192,95976,1,0,0:0:0:0:
448,192,95976,1,0,0:0:0:0:
192,192,96152,1,0,0:0:0:0:
320,192,96152,1,0,0:0:0:0:
64,192,96329,1,0,0:0:0:50:snare.wav
320,192,96329,1,0,0:0:0:0:
448,192,96329,1,0,0:0:0:0:
192,192,96505,1,0,0:0:0:0:
320,192,96505,1,0,0:0:0:0:
64,192,96682,1,0,0:0:0:60:drum.wav
192,192,96682,1,0,0:0:0:0:
448,192,96682,1,0,0:0:0:0:
320,192,96858,1,0,0:0:0:0:
448,192,96946,1,0,0:0:0:0:
64,192,97035,1,0,0:0:0:50:snare.wav
192,192,97035,1,0,0:0:0:0:
320,192,97123,1,0,0:0:0:0:
64,192,97211,1,0,0:0:0:0:
448,192,97211,1,0,0:0:0:0:
192,192,97299,1,0,0:0:0:0:
320,192,97387,1,0,0:0:0:60:drum.wav
448,192,97387,1,0,0:0:0:0:
64,192,97564,1,0,0:0:0:0:
192,192,97564,1,0,0:0:0:0:
320,192,97652,1,0,0:0:0:0:
64,192,97740,1,0,0:0:0:50:snare.wav
192,192,97740,1,0,0:0:0:0:
448,192,97740,1,0,0:0:0:0:
320,192,97917,1,0,0:0:0:0:
448,192,97917,1,0,0:0:0:0:
64,192,98093,1,0,0:0:0:60:drum.wav
320,192,98093,1,0,0:0:0:0:
64,192,98270,1,0,0:0:0:0:
448,192,98270,1,0,0:0:0:0:
192,192,98446,1,0,0:0:0:50:snare.wav
320,192,98446,1,0,0:0:0:0:
448,192,98446,1,0,0:0:0:0:
64,192,98623,1,0,0:0:0:0:
192,192,98623,1,0,0:0:0:0:
64,192,98799,1,0,0:0:0:60:drum.wav
320,192,98799,1,0,0:0:0:0:
448,192,98799,1,0,0:0:0:0:
192,192,98976,1,0,0:0:0:0:
320,192,98976,1,0,0:0:0:0:
64,192,99152,1,0,0:0:0:50:snare.wav
192,192,99152,1,0,0:0:0:0:
448,192,99152,1,0,0:0:0:0:
192,192,99329,1,0,0:0:0:0:
320,192,99329,1,0,0:0:0:0:
64,192,99505,1,0,0:0:0:60:drum.wav
320,192,99505,1,0,0:0:0:0:
448,192,99505,1,0,0:0:0:0:
192,192,99682,1,0,0:0:0:50:snare.wav
64,192,99858,1,0,0:0:0:50:snare.wav
320,192,99858,1,0,0:0:0:0:
448,192,99858,1,0,0:0:0:0:
192,192,100035,1,0,0:0:0:50:snare.wav
448,192,100035,1,0,0:0:0:0:
320,192,100123,1,0,0:0:0:0:
64,192,100211,1,0,0:0:0:60:drum.wav
192,192,100211,1,0,0:0:0:0:
448,192,100211,1,0,0:0:0:0:
320,192,100387,1,0,0:0:0:0:
192,192,100476,1,0,0:0:0:0:
64,192,100564,1,0,0:0:0:50:snare.wav
320,192,100564,1,0,0:0:0:0:
448,192,100564,1,0,0:0:0:0:
64,192,100740,1,0,0:0:0:0:
192,192,100740,1,0,0:0:0:0:
192,192,100917,1,0,0:0:0:60:drum.wav
448,192,100917,1,0,0:0:0:0:
320,192,101005,1,0,0:0:0:0:
64,192,101093,1,0,0:0:0:0:
448,192,101093,1,0,0:0:0:0:
64,192,101270,1,0,0:0:0:50:snare.wav
192,192,101270,1,0,0:0:0:0:
320,192,101270,1,0,0:0:0:0:
320,192,101446,1,0,0:0:0:0:
448,192,101446,1,0,0:0:0:0:
64,192,101623,1,0,0:0:0:60:drum.wav
192,192,101623,1,0,0:0:0:0:
448,192,101623,1,0,0:0:0:0:
64,192,101799,1,0,0:0:0:0:
320,192,101799,1,0,0:0:0:0:
64,192,101976,1,0,0:0:0:50:snare.wav
320,192,101976,1,0,0:0:0:0:
448,192,101976,1,0,0:0:0:0:
192,192,102152,1,0,0:0:0:0:
448,192,102152,1,0,0:0:0:0:
64,192,102329,1,0,0:0:0:60:drum.wav
192,192,102329,1,0,0:0:0:0:
448,192,102329,1,0,0:0:0:0:
320,192,102505,1,0,0:0:0:0:
64,192,102682,1,0,0:0:0:50:snare.wav
192,192,102682,1,0,0:0:0:0:
448,192,102682,1,0,0:0:0:0:
320,192,102858,1,0,0:0:0:0:
448,192,102858,1,0,0:0:0:0:
64,192,102946,1,0,0:0:0:0:
192,192,103035,1,0,0:0:0:60:drum.wav
448,192,103035,1,0,0:0:0:0:
192,192,103211,1,0,0:0:0:0:
320,192,103211,1,0,0:0:0:0:
64,192,103387,1,0,0:0:0:50:snare.wav
320,192,103387,1,0,0:0:0:0:
448,192,103387,1,0,0:0:0:0:
192,192,103564,1,0,0:0:0:0:
448,192,103564,1,0,0:0:0:0:
64,192,103740,1,0,0:0:0:60:drum.wav
320,192,103740,1,0,0:0:0:0:
64,192,103917,1,0,0:0:0:0:
192,192,103917,1,0,0:0:0:0:
64,192,104093,1,0,0:0:0:50:snare.wav
320,192,104093,1,0,0:0:0:0:
448,192,104093,1,0,0:0:0:0:
192,192,104270,1,0,0:0:0:0:
448,192,104270,1,0,0:0:0:0:
64,192,104446,1,0,0:0:0:60:drum.wav
320,192,104446,1,0,0:0:0:0:
448,192,104535,1,0,0:0:0:0:
64,192,104623,1,0,0:0:0:0:
192,192,104623,1,0,0:0:0:0:
320,192,104711,1,0,0:0:0:0:
192,192,104799,1,0,0:0:0:50:snare.wav
448,192,104799,1,0,0:0:0:0:
64,192,104887,1,0,0:0:0:0:
320,192,104976,1,0,0:0:0:50:snare.wav
448,192,104976,1,0,0:0:0:0:
192,192,105064,1,0,0:0:0:0:
64,192,105152,1,0,0:0:0:50:finish.wav
320,192,105152,1,0,0:0:0:0:
448,192,105152,1,0,0:0:0:0:
64,192,105505,128,0,105770:0:0:0:0:
448,192,105505,128,0,105770:0:0:0:0:
64,192,105858,1,0,0:0:0:60:drum.wav
320,192,105858,1,0,0:0:0:50:finish.wav
448,192,105858,1,0,0:0:0:0:
192,192,105946,1,0,0:0:0:0:
320,192,106035,1,0,0:0:0:0:
448,192,106123,1,0,0:0:0:0:
64,192,106211,1,0,0:0:0:60:drum.wav
192,192,106211,1,0,0:0:0:0:
320,192,106299,1,0,0:0:0:0:
192,192,106387,1,0,0:0:0:0:
64,192,106476,1,0,0:0:0:0:
192,192,106564,1,0,0:0:0:60:drum.wav
320,192,106564,1,0,0:0:0:0:
448,192,106652,1,0,0:0:0:0:
64,192,106740,1,0,0:0:0:0:
320,192,106829,1,0,0:0:0:0:
192,192,106917,1,0,0:0:0:60:drum.wav
448,192,106917,1,0,0:0:0:0:
64,192,107005,1,0,0:0:0:0:
320,192,107093,1,0,0:0:0:0:
192,192,107182,1,0,0:0:0:0:
64,192,107270,1,0,0:0:0:60:drum.wav
448,192,107270,1,0,0:0:0:0:
192,192,107358,1,0,0:0:0:0:
320,192,107446,1,0,0:0:0:0:
448,192,107535,1,0,0:0:0:0:
64,192,107623,1,0,0:0:0:60:drum.wav
192,192,107623,1,0,0:0:0:0:
320,192,107711,1,0,0:0:0:0:
64,192,107799,1,0,0:0:0:0:
192,192,107887,1,0,0:0:0:0:
320,192,107976,1,0,0:0:0:60:drum.wav
448,192,107976,1,0,0:0:0:0:
64,192,108064,1,0,0:0:0:0:
192,192,108152,1,0,0:0:0:0:
448,192,108240,1,0,0:0:0:0:
64,192,108329,1,0,0:0:0:60:drum.wav
320,192,108329,1,0,0:0:0:0:
192,192,108417,1,0,0:0:0:0:
320,192,108505,1,0,0:0:0:0:
448,192,108593,1,0,0:0:0:0:
64,192,108682,1,0,0:0:0:60:drum.wav
192,192,108682,1,0,0:0:0:0:
320,192,108770,1,0,0:0:0:0:
192,192,108858,1,0,0:0:0:0:
64,192,108946,1,0,0:0:0:0:
320,192,109035,1,0,0:0:0:60:drum.wav
448,192,109035,1,0,0:0:0:0:
192,192,109123,1,0,0:0:0:0:
320,192,109211,1,0,0:0:0:0:
448,192,109299,1,0,0:0:0:0:
192,192,109387,1,0,0:0:0:60:drum.wav
320,192,109387,1,0,0:0:0:0:
64,192,109476,1,0,0:0:0:0:
320,192,109564,1,0,0:0:0:0:
448,192,109564,1,0,0:0:0:0:
192,192,109652,1,0,0:0:0:0:
64,192,109740,1,0,0:0:0:60:drum.wav
320,192,109740,1,0,0:0:0:0:
192,192,109829,1,0,0:0:0:50:snare.wav
448,192,109829,1,0,0:0:0:0:
64,192,109917,1,0,0:0:0:50:snare.wav
320,192,109917,1,0,0:0:0:0:
192,192,110005,1,0,0:0:0:50:snare.wav
64,192,110093,1,0,0:0:0:60:drum.wav
320,192,110093,1,0,0:0:0:50:finish.wav
448,192,110093,1,0,0:0:0:0:
448,192,110270,1,0,0:0:0:50:snare.wav
64,192,110358,1,0,0:0:0:60:drum.wav
192,192,110358,1,0,0:0:0:0:
320,192,110358,1,0,0:0:0:0:
192,192,110535,1,0,0:0:0:0:
64,192,110623,1,0,0:0:0:60:drum.wav
320,192,110623,1,0,0:0:0:0:
448,192,110623,1,0,0:0:0:0:
64,192,110799,1,0,0:0:0:60:drum.wav
192,192,110799,1,0,0:0:0:0:
448,192,110799,1,0,0:0:0:0:
320,192,110976,1,0,0:0:0:50:snare.wav
448,192,110976,1,0,0:0:0:0:
64,192,111064,1,0,0:0:0:50:snare.wav
192,192,111064,1,0,0:0:0:0:
320,192,111152,1,0,0:0:0:50:snare.wav
448,192,111152,1,0,0:0:0:0:
64,192,111240,1,0,0:0:0:50:snare.wav
192,192,111240,1,0,0:0:0:0:
320,192,111329,1,0,0:0:0:50:snare.wav
448,192,111329,1,0,0:0:0:0:
192,192,111417,1,0,0:0:0:50:snare.wav
64,192,111505,1,0,0:0:0:60:drum.wav
320,192,111505,1,0,0:0:0:50:finish.wav
448,192,111505,1,0,0:0:0:0:
192,192,111682,1,0,0:0:0:50:snare.wav
320,192,111682,1,0,0:0:0:0:
64,192,111858,1,0,0:0:0:60:drum.wav
192,192,111858,1,0,0:0:0:0:
448,192,111858,1,0,0:0:0:0:
320,192,111946,1,0,0:0:0:0:
64,192,112035,1,0,0:0:0:50:snare.wav
192,192,112035,1,0,0:0:0:0:
448,192,112123,1,0,0:0:0:0:
64,192,112211,1,0,0:0:0:60:drum.wav
192,192,112211,1,0,0:0:0:0:
320,192,112211,1,0,0:0:0:0:
64,192,112387,1,0,0:0:0:50:snare.wav
448,192,112387,1,0,0:0:0:0:
192,192,112564,1,0,0:0:0:60:drum.wav
320,192,112564,1,0,0:0:0:0:
448,192,112564,1,0,0:0:0:0:
64,192,112652,1,0,0:0:0:0:
320,192,112740,1,0,0:0:0:50:snare.wav
448,192,112740,1,0,0:0:0:0:
192,192,112829,1,0,0:0:0:0:
64,192,112917,1,0,0:0:0:60:drum.wav
320,192,112917,1,0,0:0:0:0:
192,192,113093,1,0,0:0:0:50:snare.wav
448,192,113093,1,0,0:0:0:0:
64,192,113270,1,0,0:0:0:60:drum.wav
192,192,113270,1,0,0:0:0:0:
320,192,113270,1,0,0:0:0:0:
448,192,113358,1,0,0:0:0:0:
64,192,113446,1,0,0:0:0:50:snare.wav
320,192,113446,1,0,0:0:0:0:
192,192,113535,1,0,0:0:0:0:
320,192,113623,1,0,0:0:0:60:drum.wav
448,192,113623,1,0,0:0:0:0:
64,192,113799,1,0,0:0:0:50:snare.wav
320,192,113799,1,0,0:0:0:0:
64,192,113976,1,0,0:0:0:60:drum.wav
192,192,113976,1,0,0:0:0:0:
448,192,113976,1,0,0:0:0:0:
320,192,114064,1,0,0:0:0:0:
192,192,114152,1,0,0:0:0:50:snare.wav
448,192,114152,1,0,0:0:0:0:
64,192,114240,1,0,0:0:0:50:snare.wav
192,192,114329,1,0,0:0:0:60:drum.wav
320,192,114329,1,0,0:0:0:50:finish.wav
448,192,114329,1,0,0:0:0:0:
64,192,114505,1,0,0:0:0:50:snare.wav
320,192,114505,1,0,0:0:0:0:
448,192,114505,1,0,0:0:0:0:
192,192,114682,1,0,0:0:0:50:snare.wav
320,192,114682,1,0,0:0:0:0:
448,192,114682,1,0,0:0:0:0:
64,192,114770,1,0,0:0:0:0:
320,192,114858,1,0,0:0:0:50:snare.wav
448,192,114858,1,0,0:0:0:0:
192,192,114946,1,0,0:0:0:0:
320,192,115035,1,0,0:0:0:50:snare.wav
448,192,115035,1,0,0:0:0:0:
64,192,115123,1,0,0:0:0:0:
320,192,115211,1,0,0:0:0:50:snare.wav
448,192,115211,1,0,0:0:0:0:
192,192,115299,1,0,0:0:0:0:
64,192,115387,1,0,0:0:0:50:snare.wav
320,192,115387,1,0,0:0:0:0:
448,192,115387,1,0,0:0:0:0:
192,192,115476,1,0,0:0:0:0:
64,192,115564,1,0,0:0:0:50:snare.wav
448,192,115564,1,0,0:0:0:0:
320,192,115652,1,0,0:0:0:50:snare.wav
64,192,115740,1,0,0:0:0:60:drum.wav
192,192,115740,1,0,0:0:0:50:finish.wav
448,192,115740,1,0,0:0:0:0:
64,192,115917,1,0,0:0:0:50:snare.wav
192,192,115917,1,0,0:0:0:0:
320,192,115917,1,0,0:0:0:0:
64,192,116093,1,0,0:0:0:50:snare.wav
192,192,116093,1,0,0:0:0:0:
448,192,116093,1,0,0:0:0:0:
320,192,116182,1,0,0:0:0:0:
64,192,116270,1,0,0:0:0:50:snare.wav
192,192,116270,1,0,0:0:0:0:
320,192,116358,1,0,0:0:0:0:
64,192,116446,1,0,0:0:0:50:snare.wav
192,192,116446,1,0,0:0:0:0:
448,192,116535,1,0,0:0:0:0:
64,192,116623,1,0,0:0:0:50:snare.wav
192,192,116623,1,0,0:0:0:0:
320,192,116711,1,0,0:0:0:0:
64,192,116799,1,0,0:0:0:50:snare.wav
192,192,116799,1,0,0:0:0:0:
448,192,116799,1,0,0:0:0:0:
320,192,116887,1,0,0:0:0:50:snare.wav
64,192,116976,1,0,0:0:0:50:snare.wav
448,192,116976,1,0,0:0:0:0:
192,192,117064,1,0,0:0:0:50:snare.wav
64,192,117152,1,0,0:0:0:60:drum.wav
320,192,117152,1,0,0:0:0:50:finish.wav
448,192,117152,1,0,0:0:0:0:
192,192,117240,1,0,0:0:0:50:snare.wav
320,192,117329,1,0,0:0:0:50:snare.wav
64,192,117417,1,0,0:0:0:60:drum.wav
192,192,117417,1,0,0:0:0:50:finish.wav
448,192,117417,1,0,0:0:0:0:
320,192,117505,1,0,0:0:0:50:snare.wav
192,192,117593,1,0,0:0:0:50:snare.wav
320,192,117682,1,0,0:0:0:60:drum.wav
448,192,117682,1,0,0:0:0:50:finish.wav
64,192,117770,1,0,0:0:0:50:snare.wav
192,192,117858,1,0,0:0:0:60:drum.wav
320,192,117858,1,0,0:0:0:50:finish.wav
448,192,117858,1,0,0:0:0:0:
64,192,117946,1,0,0:0:0:50:snare.wav
192,192,118035,1,0,0:0:0:50:snare.wav
64,192,118123,1,0,0:0:0:60:drum.wav
320,192,118123,1,0,0:0:0:50:finish.wav
448,192,118123,1,0,0:0:0:0:
192,192,118211,1,0,0:0:0:50:snare.wav
320,192,118299,1,0,0:0:0:50:snare.wav
64,192,118387,1,0,0:0:0:60:drum.wav
192,192,118387,1,0,0:0:0:50:finish.wav
448,192,118387,1,0,0:0:0:0:
320,192,118476,1,0,0:0:0:50:snare.wav
64,192,118564,1,0,0:0:0:60:drum.wav
192,192,118564,1,0,0:0:0:50:finish.wav
448,192,118564,1,0,0:0:0:0:
320,192,118917,1,0,0:0:0:0:
320,192,119270,1,0,0:0:0:60:drum.wav
448,192,119270,1,0,0:0:0:0:
192,192,119446,1,0,0:0:0:50:snare.wav
64,192,119623,1,0,0:0:0:50:finish.wav
192,192,119623,1,0,0:0:0:50:snare2.wav
320,192,119623,1,0,0:0:0:0:
448,192,119623,1,0,0:0:0:0:
64,192,119976,1,0,0:0:0:60:drum.wav
320,192,119976,128,0,120152:0:0:0:50:finish.wav
448,192,119976,128,0,120240:0:0:0:0:
192,192,120152,1,0,0:0:0:0:
320,192,120240,1,0,0:0:0:0:
64,192,120329,1,0,0:0:0:50:snare2.wav
192,192,120329,1,0,0:0:0:0:
448,192,120329,1,0,0:0:0:0:
320,192,120417,1,0,0:0:0:0:
64,192,120505,1,0,0:0:0:0:
192,192,120593,1,0,0:0:0:0:
64,192,120682,1,0,0:0:0:60:drum.wav
320,192,120682,1,0,0:0:0:0:
448,192,120682,1,0,0:0:0:0:
320,192,120858,128,0,120946:0:0:0:0:
448,192,120858,128,0,120946:0:0:0:0:
192,192,120946,1,0,0:0:0:0:
64,192,121035,1,0,0:0:0:50:snare2.wav
320,192,121035,128,0,121123:0:0:0:0:
448,192,121035,128,0,121123:0:0:0:0:
64,192,121211,1,0,0:0:0:0:
192,192,121211,1,0,0:0:0:0:
320,192,121299,1,0,0:0:0:0:
192,192,121387,1,0,0:0:0:60:drum.wav
448,192,121387,1,0,0:0:0:0:
64,192,121476,1,0,0:0:0:0:
320,192,121564,1,0,0:0:0:0:
448,192,121564,1,0,0:0:0:0:
192,192,121652,1,0,0:0:0:0:
64,192,121740,1,0,0:0:0:50:snare2.wav
320,192,121740,1,0,0:0:0:0:
448,192,121829,1,0,0:0:0:0:
192,192,121917,1,0,0:0:0:0:
320,192,121917,1,0,0:0:0:0:
64,192,122005,1,0,0:0:0:0:
320,192,122093,1,0,0:0:0:60:drum.wav
448,192,122093,1,0,0:0:0:0:
192,192,122182,1,0,0:0:0:0:
320,192,122270,1,0,0:0:0:0:
448,192,122270,1,0,0:0:0:0:
64,192,122358,1,0,0:0:0:0:
192,192,122446,1,0,0:0:0:50:snare2.wav
320,192,122446,1,0,0:0:0:0:
448,192,122535,1,0,0:0:0:0:
64,192,122623,1,0,0:0:0:0:
192,192,122623,1,0,0:0:0:0:
320,192,122711,1,0,0:0:0:0:
64,192,122799,128,0,123064:0:0:0:60:drum.wav
192,192,122799,128,0,122976:0:0:0:0:
448,192,122799,1,0,0:0:0:0:
320,192,122976,1,0,0:0:0:0:
192,192,123064,1,0,0:0:0:0:
64,192,123152,1,0,0:0:0:50:snare2.wav
320,192,123152,1,0,0:0:0:0:
448,192,123152,1,0,0:0:0:0:
192,192,123240,1,0,0:0:0:0:
448,192,123329,1,0,0:0:0:0:
320,192,123417,1,0,0:0:0:0:
64,192,123505,1,0,0:0:0:60:drum.wav
192,192,123505,1,0,0:0:0:0:
448,192,123505,1,0,0:0:0:0:
64,192,123682,128,0,123770:0:0:0:0:
192,192,123682,128,0,123770:0:0:0:0:
320,192,123770,1,0,0:0:0:0:
64,192,123858,128,0,123946:0:0:0:50:snare2.wav
192,192,123858,128,0,123946:0:0:0:0:
448,192,123858,1,0,0:0:0:0:
320,192,124035,1,0,0:0:0:0:
448,192,124035,1,0,0:0:0:0:
192,192,124123,1,0,0:0:0:0:
64,192,124211,1,0,0:0:0:60:drum.wav
320,192,124211,1,0,0:0:0:50:finish.wav
448,192,124299,1,0,0:0:0:0:
64,192,124387,1,0,0:0:0:0:
192,192,124387,1,0,0:0:0:0:
320,192,124476,1,0,0:0:0:0:
192,192,124564,1,0,0:0:0:50:snare2.wav
448,192,124564,1,0,0:0:0:0:
64,192,124652,1,0,0:0:0:0:
192,192,124740,1,0,0:0:0:0:
320,192,124740,1,0,0:0:0:0:
448,192,124829,1,0,0:0:0:0:
64,192,124917,1,0,0:0:0:60:drum.wav
192,192,124917,1,0,0:0:0:50:finish.wav
320,192,125005,1,0,0:0:0:0:
64,192,125093,1,0,0:0:0:0:
192,192,125093,1,0,0:0:0:0:
448,192,125182,1,0,0:0:0:0:
192,192,125270,1,0,0:0:0:50:finish.wav
320,192,125270,1,0,0:0:0:50:snare2.wav
64,192,125358,1,0,0:0:0:0:
320,192,125446,1,0,0:0:0:0:
448,192,125446,1,0,0:0:0:0:
192,192,125535,1,0,0:0:0:0:
64,192,125623,1,0,0:0:0:60:drum.wav
448,192,125623,1,0,0:0:0:50:finish.wav
192,192,125711,1,0,0:0:0:0:
320,192,125799,1,0,0:0:0:0:
448,192,125799,1,0,0:0:0:0:
64,192,125887,1,0,0:0:0:0:
192,192,125976,1,0,0:0:0:50:snare2.wav
448,192,125976,1,0,0:0:0:0:
320,192,126064,1,0,0:0:0:0:
64,192,126152,1,0,0:0:0:0:
192,192,126152,1,0,0:0:0:0:
448,192,126240,1,0,0:0:0:0:
64,192,126329,1,0,0:0:0:60:drum.wav
192,192,126329,1,0,0:0:0:0:
320,192,126417,1,0,0:0:0:0:
192,192,126505,1,0,0:0:0:0:
448,192,126505,1,0,0:0:0:0:
64,192,126593,1,0,0:0:0:0:
320,192,126682,1,0,0:0:0:50:snare2.wav
448,192,126682,1,0,0:0:0:0:
192,192,126770,1,0,0:0:0:0:
320,192,126858,1,0,0:0:0:0:
448,192,126858,1,0,0:0:0:0:
64,192,126946,1,0,0:0:0:0:
192,192,127035,1,0,0:0:0:60:drum.wav
448,192,127035,1,0,0:0:0:0:
320,192,127211,1,0,0:0:0:0:
64,192,127299,1,0,0:0:0:0:
192,192,127299,1,0,0:0:0:0:
320,192,127387,1,0,0:0:0:50:snare2.wav
448,192,127387,1,0,0:0:0:0:
64,192,127476,1,0,0:0:0:0:
192,192,127564,1,0,0:0:0:0:
448,192,127564,1,0,0:0:0:0:
320,192,127652,1,0,0:0:0:0:
64,192,127740,1,0,0:0:0:60:drum.wav
192,192,127740,1,0,0:0:0:0:
448,192,127829,1,0,0:0:0:0:
192,192,127917,1,0,0:0:0:0:
320,192,127917,1,0,0:0:0:0:
64,192,128005,1,0,0:0:0:0:
320,192,128093,1,0,0:0:0:50:snare2.wav
448,192,128093,1,0,0:0:0:0:
192,192,128182,1,0,0:0:0:0:
320,192,128270,1,0,0:0:0:0:
448,192,128270,1,0,0:0:0:0:
64,192,128358,1,0,0:0:0:0:
192,192,128446,1,0,0:0:0:60:drum.wav
448,192,128446,1,0,0:0:0:50:finish.wav
320,192,128535,1,0,0:0:0:0:
64,192,128623,1,0,0:0:0:0:
192,192,128623,1,0,0:0:0:0:
448,192,128711,1,0,0:0:0:0:
192,192,128799,1,0,0:0:0:50:finish.wav
320,192,128799,1,0,0:0:0:50:snare2.wav
64,192,128887,1,0,0:0:0:0:
320,192,128976,1,0,0:0:0:0:
448,192,128976,1,0,0:0:0:0:
192,192,129064,1,0,0:0:0:0:
64,192,129152,1,0,0:0:0:60:drum.wav
320,192,129152,1,0,0:0:0:50:finish.wav
448,192,129240,1,0,0:0:0:0:
64,192,129329,1,0,0:0:0:0:
192,192,129329,1,0,0:0:0:0:
320,192,129417,1,0,0:0:0:0:
192,192,129505,1,0,0:0:0:50:finish.wav
448,192,129505,1,0,0:0:0:50:snare2.wav
64,192,129593,1,0,0:0:0:0:
192,192,129682,1,0,0:0:0:0:
320,192,129682,1,0,0:0:0:0:
448,192,129770,1,0,0:0:0:0:
64,192,129858,1,0,0:0:0:60:drum.wav
192,192,129858,1,0,0:0:0:0:
320,192,129858,1,0,0:0:0:0:
64,192,130123,1,0,0:0:0:60:drum.wav
320,192,130123,1,0,0:0:0:0:
448,192,130123,1,0,0:0:0:0:
64,192,130387,1,0,0:0:0:60:drum.wav
192,192,130387,1,0,0:0:0:0:
448,192,130387,1,0,0:0:0:0:
192,192,130564,1,0,0:0:0:60:drum.wav
320,192,130564,1,0,0:0:0:0:
448,192,130564,1,0,0:0:0:0:
64,192,130740,1,0,0:0:0:50:snare.wav
64,192,130917,1,0,0:0:0:50:snare.wav
320,192,130917,1,0,0:0:0:0:
192,192,131005,1,0,0:0:0:50:snare.wav
448,192,131005,1,0,0:0:0:0:
64,192,131093,1,0,0:0:0:50:snare.wav
320,192,131093,1,0,0:0:0:0:
64,192,131270,128,0,131535:0:0:0:60:drum.wav
192,192,131270,128,0,131446:0:0:0:50:finish.wav
448,192,131270,1,0,0:0:0:0:
320,192,131446,1,0,0:0:0:0:
192,192,131535,1,0,0:0:0:0:
64,192,131623,1,0,0:0:0:50:snare2.wav
320,192,131623,1,0,0:0:0:0:
448,192,131623,1,0,0:0:0:0:
192,192,131711,1,0,0:0:0:0:
448,192,131799,1,0,0:0:0:0:
320,192,131887,1,0,0:0:0:0:
64,192,131976,1,0,0:0:0:60:drum.wav
192,192,131976,1,0,0:0:0:0:
448,192,131976,1,0,0:0:0:0:
64,192,132152,128,0,132240:0:0:0:0:
192,192,132152,128,0,132240:0:0:0:0:
320,192,132240,1,0,0:0:0:0:
64,192,132329,128,0,132417:0:0:0:50:snare2.wav
192,192,132329,128,0,132417:0:0:0:0:
448,192,132329,1,0,0:0:0:0:
320,192,132505,1,0,0:0:0:0:
448,192,132505,1,0,0:0:0:0:
192,192,132593,1,0,0:0:0:0:
64,192,132682,1,0,0:0:0:60:drum.wav
320,192,132682,1,0,0:0:0:0:
448,192,132770,1,0,0:0:0:0:
64,192,132858,1,0,0:0:0:0:
192,192,132858,1,0,0:0:0:0:
320,192,132946,1,0,0:0:0:0:
192,192,133035,1,0,0:0:0:50:snare2.wav
448,192,133035,1,0,0:0:0:0:
64,192,133123,1,0,0:0:0:0:
192,192,133211,1,0,0:0:0:0:
320,192,133211,1,0,0:0:0:0:
448,192,133299,1,0,0:0:0:0:
64,192,133387,1,0,0:0:0:60:drum.wav
192,192,133387,1,0,0:0:0:0:
320,192,133476,1,0,0:0:0:0:
64,192,133564,1,0,0:0:0:0:
192,192,133564,1,0,0:0:0:0:
448,192,133652,1,0,0:0:0:0:
192,192,133740,1,0,0:0:0:50:snare2.wav
320,192,133740,1,0,0:0:0:0:
64,192,133829,1,0,0:0:0:0:
320,192,133917,1,0,0:0:0:0:
448,192,133917,1,0,0:0:0:0:
192,192,134005,1,0,0:0:0:0:
64,192,134093,1,0,0:0:0:60:drum.wav
320,192,134093,128,0,134270:0:0:0:50:finish.wav
448,192,134093,128,0,134358:0:0:0:0:
192,192,134270,1,0,0:0:0:0:
320,192,134358,1,0,0:0:0:0:
64,192,134446,1,0,0:0:0:50:snare2.wav
192,192,134446,1,0,0:0:0:0:
448,192,134446,1,0,0:0:0:0:
320,192,134535,1,0,0:0:0:0:
64,192,134623,1,0,0:0:0:0:
448,192,134623,1,0,0:0:0:0:
192,192,134711,1,0,0:0:0:0:
320,192,134799,1,0,0:0:0:0:
192,192,134887,1,0,0:0:0:0:
64,192,134976,1,0,0:0:0:60:drum.wav
320,192,134976,1,0,0:0:0:0:
448,192,134976,1,0,0:0:0:0:
64,192,135240,1,0,0:0:0:60:drum.wav
192,192,135240,1,0,0:0:0:0:
448,192,135240,1,0,0:0:0:0:
64,192,135505,1,0,0:0:0:60:drum.wav
320,192,135505,1,0,0:0:0:50:finish.wav
448,192,135505,1,0,0:0:0:0:
192,192,135593,1,0,0:0:0:0:
320,192,135682,1,0,0:0:0:0:
448,192,135682,1,0,0:0:0:0:
64,192,135770,1,0,0:0:0:0:
192,192,135858,1,0,0:0:0:50:snare2.wav
320,192,135858,1,0,0:0:0:0:
448,192,135946,1,0,0:0:0:0:
64,192,136035,1,0,0:0:0:0:
192,192,136035,1,0,0:0:0:0:
320,192,136123,1,0,0:0:0:0:
64,192,136211,1,0,0:0:0:60:drum.wav
448,192,136211,1,0,0:0:0:50:finish.wav
320,192,136299,1,0,0:0:0:0:
64,192,136387,1,0,0:0:0:0:
192,192,136387,1,0,0:0:0:0:
448,192,136476,1,0,0:0:0:0:
192,192,136564,1,0,0:0:0:50:finish.wav
320,192,136564,1,0,0:0:0:50:snare2.wav
64,192,136652,1,0,0:0:0:0:
320,192,136740,1,0,0:0:0:0:
448,192,136740,1,0,0:0:0:0:
192,192,136829,1,0,0:0:0:0:
64,192,136917,1,0,0:0:0:60:drum.wav
448,192,136917,1,0,0:0:0:50:finish.wav
192,192,137005,1,0,0:0:0:0:
320,192,137093,1,0,0:0:0:0:
448,192,137093,1,0,0:0:0:0:
64,192,137182,1,0,0:0:0:0:
192,192,137270,1,0,0:0:0:50:snare2.wav
320,192,137270,1,0,0:0:0:0:
448,192,137358,1,0,0:0:0:0:
64,192,137446,1,0,0:0:0:0:
192,192,137446,1,0,0:0:0:0:
320,192,137535,1,0,0:0:0:0:
192,192,137623,1,0,0:0:0:60:drum.wav
448,192,137623,1,0,0:0:0:0:
64,192,137711,1,0,0:0:0:0:
320,192,137799,1,0,0:0:0:0:
448,192,137799,1,0,0:0:0:0:
192,192,137887,1,0,0:0:0:0:
64,192,137976,1,0,0:0:0:50:snare2.wav
320,192,137976,1,0,0:0:0:0:
448,192,138064,1,0,0:0:0:0:
192,192,138152,1,0,0:0:0:0:
320,192,138152,1,0,0:0:0:0:
64,192,138240,1,0,0:0:0:0:
320,192,138329,1,0,0:0:0:60:drum.wav
448,192,138329,1,0,0:0:0:0:
192,192,138505,1,0,0:0:0:0:
320,192,138593,1,0,0:0:0:0:
448,192,138593,1,0,0:0:0:0:
64,192,138682,1,0,0:0:0:50:snare2.wav
192,192,138682,1,0,0:0:0:0:
448,192,138770,1,0,0:0:0:0:
64,192,138858,1,0,0:0:0:0:
320,192,138858,1,0,0:0:0:0:
192,192,138946,1,0,0:0:0:0:
320,192,139035,1,0,0:0:0:60:drum.wav
448,192,139035,1,0,0:0:0:0:
64,192,139123,1,0,0:0:0:0:
192,192,139211,1,0,0:0:0:0:
320,192,139211,1,0,0:0:0:0:
448,192,139299,1,0,0:0:0:0:
64,192,139387,1,0,0:0:0:50:snare2.wav
192,192,139387,1,0,0:0:0:0:
448,192,139476,1,0,0:0:0:0:
192,192,139564,1,0,0:0:0:0:
320,192,139564,1,0,0:0:0:0:
64,192,139652,1,0,0:0:0:0:
192,192,139740,1,0,0:0:0:60:drum.wav
448,192,139740,1,0,0:0:0:50:finish.wav
320,192,139829,1,0,0:0:0:0:
64,192,139917,1,0,0:0:0:0:
192,192,139917,1,0,0:0:0:0:
448,192,140005,1,0,0:0:0:0:
64,192,140093,1,0,0:0:0:50:finish.wav
320,192,140093,1,0,0:0:0:50:snare2.wav
192,192,140182,1,0,0:0:0:0:
320,192,140270,1,0,0:0:0:0:
448,192,140270,1,0,0:0:0:0:
64,192,140358,1,0,0:0:0:0:
192,192,140446,1,0,0:0:0:60:drum.wav
448,192,140446,1,0,0:0:0:50:finish.wav
320,192,140535,1,0,0:0:0:0:
64,192,140623,1,0,0:0:0:0:
192,192,140623,1,0,0:0:0:0:
448,192,140711,1,0,0:0:0:0:
64,192,140799,1,0,0:0:0:50:finish.wav
320,192,140799,1,0,0:0:0:50:snare2.wav
192,192,140887,1,0,0:0:0:0:
64,192,140976,1,0,0:0:0:0:
448,192,140976,1,0,0:0:0:0:
320,192,141064,1,0,0:0:0:0:
64,192,141152,1,0,0:0:0:60:drum.wav
192,192,141152,1,0,0:0:0:50:finish.wav
448,192,141152,1,0,0:0:0:0:
192,192,141329,1,0,0:0:0:0:
64,192,141417,1,0,0:0:0:60:drum.wav
320,192,141417,1,0,0:0:0:0:
448,192,141417,1,0,0:0:0:0:
448,192,141593,1,0,0:0:0:0:
64,192,141682,1,0,0:0:0:60:drum.wav
192,192,141682,1,0,0:0:0:0:
320,192,141682,1,0,0:0:0:0:
64,192,141858,1,0,0:0:0:60:drum.wav
192,192,141858,1,0,0:0:0:50:finish.wav
448,192,141858,1,0,0:0:0:0:
448,192,142035,1,0,0:0:0:0:
320,192,142079,1,0,0:0:0:0:
192,192,142123,1,0,0:0:0:0:
64,192,142167,1,0,0:0:0:0:
320,192,142211,1,0,0:0:0:50:snare.wav
448,192,142211,1,0,0:0:0:0:
192,192,142299,1,0,0:0:0:50:snare.wav
320,192,142387,1,0,0:0:0:0:
192,192,142476,1,0,0:0:0:50:snare.wav
64,192,142564,128,0,143270:0:0:0:60:drum.wav
320,192,142564,1,0,0:0:0:50:finish.wav
448,192,142564,1,0,0:0:0:0:
448,192,142740,1,0,0:0:0:0:
320,192,142917,1,0,0:0:0:0:
192,192,143093,1,0,0:0:0:60:drum.wav
192,192,143270,128,0,143976:0:0:0:50:snare.wav
320,192,143270,1,0,0:0:0:0:
448,192,143270,1,0,0:0:0:0:
448,192,143446,1,0,0:0:0:0:
320,192,143623,1,0,0:0:0:0:
64,192,143799,1,0,0:0:0:60:drum.wav
64,192,143976,1,0,0:0:0:60:drum.wav
320,192,143976,128,0,144682:0:0:0:0:
448,192,143976,1,0,0:0:0:0:
448,192,144152,1,0,0:0:0:50:snare.wav
192,192,144329,1,0,0:0:0:60:drum.wav
64,192,144505,1,0,0:0:0:60:drum.wav
64,192,144682,1,0,0:0:0:50:snare.wav
192,192,144682,1,0,0:0:0:0:
448,192,144682,128,0,145387:0:0:0:0:
192,192,144858,1,0,0:0:0:0:
320,192,145035,1,0,0:0:0:0:
64,192,145211,1,0,0:0:0:0:
64,192,145387,1,0,0:0:0:60:drum.wav
192,192,145387,1,0,0:0:0:50:finish.wav
320,192,145387,128,0,146093:0:0:0:0:
192,192,145564,1,0,0:0:0:0:
448,192,145740,1,0,0:0:0:0:
64,192,145917,1,0,0:0:0:60:drum.wav
64,192,146093,1,0,0:0:0:50:snare.wav
192,192,146093,128,0,146799:0:0:0:0:
448,192,146093,1,0,0:0:0:0:
448,192,146270,1,0,0:0:0:0:
320,192,146446,1,0,0:0:0:0:
64,192,146623,1,0,0:0:0:60:drum.wav
64,192,146799,128,0,147505:0:0:0:60:drum.wav
320,192,146799,1,0,0:0:0:50:finish.wav
448,192,146799,1,0,0:0:0:0:
448,192,146976,1,0,0:0:0:0:
320,192,147152,1,0,0:0:0:60:drum.wav
192,192,147329,1,0,0:0:0:60:drum.wav
192,192,147505,1,0,0:0:0:50:snare.wav
320,192,147505,1,0,0:0:0:0:
448,192,147505,128,0,148211:0:0:0:0:
320,192,147682,1,0,0:0:0:0:
192,192,147858,1,0,0:0:0:0:
64,192,148035,1,0,0:0:0:0:
64,192,148211,1,0,0:0:0:60:drum.wav
192,192,148211,128,0,148564:0:0:0:50:finish.wav
320,192,148211,1,0,0:0:0:0:
64,192,148564,1,0,0:0:0:60:drum.wav
320,192,148564,1,0,0:0:0:0:
448,192,148564,1,0,0:0:0:0:
192,192,148740,1,0,0:0:0:0:
64,192,148917,1,0,0:0:0:60:drum.wav
320,192,148917,1,0,0:0:0:0:
448,192,148917,128,0,149270:0:0:0:0:
64,192,149270,1,0,0:0:0:60:drum.wav
192,192,149270,1,0,0:0:0:0:
320,192,149270,1,0,0:0:0:0:
448,192,149446,1,0,0:0:0:0:
64,192,149623,128,0,149976:0:0:0:60:drum.wav
192,192,149623,1,0,0:0:0:50:finish.wav
320,192,149623,1,0,0:0:0:0:
192,192,149976,1,0,0:0:0:60:drum.wav
320,192,149976,1,0,0:0:0:0:
448,192,149976,1,0,0:0:0:0:
64,192,150152,1,0,0:0:0:50:snare.wav
448,192,150152,1,0,0:0:0:0:
192,192,150329,128,0,150682:0:0:0:60:drum.wav
320,192,150329,1,0,0:0:0:0:
448,192,150329,1,0,0:0:0:0:
64,192,150682,1,0,0:0:0:50:snare.wav
320,192,150682,1,0,0:0:0:0:
448,192,150682,1,0,0:0:0:0:
192,192,150858,1,0,0:0:0:0:
320,192,151035,1,0,0:0:0:60:drum.wav
448,192,151035,1,0,0:0:0:50:finish.wav
64,192,151123,1,0,0:0:0:50:snare.wav
192,192,151123,1,0,0:0:0:0:
320,192,151211,1,0,0:0:0:50:snare.wav
448,192,151211,1,0,0:0:0:0:
64,192,151299,1,0,0:0:0:50:snare.wav
192,192,151299,1,0,0:0:0:0:
320,192,151387,1,0,0:0:0:60:drum.wav
448,192,151387,1,0,0:0:0:0:
64,192,151476,1,0,0:0:0:50:snare.wav
192,192,151564,1,0,0:0:0:50:snare.wav
320,192,151564,1,0,0:0:0:0:
448,192,151652,1,0,0:0:0:50:snare.wav
64,192,151740,1,0,0:0:0:60:drum.wav
192,192,151740,1,0,0:0:0:0:
320,192,151829,1,0,0:0:0:50:snare.wav
448,192,151829,1,0,0:0:0:0:
64,192,151917,1,0,0:0:0:50:snare.wav
192,192,151917,1,0,0:0:0:0:
320,192,152005,1,0,0:0:0:50:snare.wav
448,192,152005,1,0,0:0:0:0:
64,192,152093,1,0,0:0:0:60:drum.wav
192,192,152093,1,0,0:0:0:0:
448,192,152182,1,0,0:0:0:50:snare.wav
192,192,152270,1,0,0:0:0:50:snare.wav
320,192,152270,1,0,0:0:0:0:
64,192,152358,1,0,0:0:0:50:snare.wav
192,192,152446,1,0,0:0:0:60:drum.wav
320,192,152446,1,0,0:0:0:50:finish.wav
448,192,152446,1,0,0:0:0:0:
64,192,152711,1,0,0:0:0:50:snare.wav
192,192,152711,1,0,0:0:0:0:
320,192,152799,1,0,0:0:0:60:drum.wav
448,192,152799,1,0,0:0:0:0:
192,192,152976,1,0,0:0:0:50:snare.wav
320,192,152976,1,0,0:0:0:0:
64,192,153152,1,0,0:0:0:60:drum.wav
192,192,153152,1,0,0:0:0:0:
448,192,153152,1,0,0:0:0:0:
64,192,153505,1,0,0:0:0:60:drum.wav
320,192,153505,1,0,0:0:0:0:
64,192,153858,1,0,0:0:0:60:drum.wav
192,192,153858,1,0,0:0:0:50:finish.wav
320,192,153858,1,0,0:0:0:0:
448,192,153858,1,0,0:0:0:0:
192,192,154035,1,0,0:0:0:0:
64,192,154123,1,0,0:0:0:60:drum.wav
320,192,154123,1,0,0:0:0:0:
448,192,154123,1,0,0:0:0:0:
320,192,154299,1,0,0:0:0:0:
64,192,154387,1,0,0:0:0:60:drum.wav
192,192,154387,1,0,0:0:0:0:
448,192,154387,1,0,0:0:0:0:
64,192,154564,1,0,0:0:0:60:drum.wav
320,192,154564,1,0,0:0:0:0:
448,192,154564,1,0,0:0:0:0:
448,192,154740,1,0,0:0:0:0:
64,192,154829,1,0,0:0:0:60:drum.wav
192,192,154829,1,0,0:0:0:0:
320,192,154829,1,0,0:0:0:0:
64,192,155005,1,0,0:0:0:0:
192,192,155093,1,0,0:0:0:60:drum.wav
320,192,155093,1,0,0:0:0:0:
448,192,155093,1,0,0:0:0:0:
64,192,155270,1,0,0:0:0:60:drum.wav
192,192,155270,1,0,0:0:0:0:
320,192,155270,1,0,0:0:0:0:
64,192,155446,1,0,0:0:0:0:
192,192,155535,1,0,0:0:0:60:drum.wav
320,192,155535,1,0,0:0:0:0:
448,192,155535,1,0,0:0:0:0:
320,192,155711,1,0,0:0:0:0:
64,192,155799,1,0,0:0:0:60:drum.wav
192,192,155799,1,0,0:0:0:0:
448,192,155799,1,0,0:0:0:0:
64,192,155976,1,0,0:0:0:60:drum.wav
320,192,155976,1,0,0:0:0:0:
448,192,155976,1,0,0:0:0:0:
64,192,156240,1,0,0:0:0:60:drum.wav
192,192,156240,1,0,0:0:0:0:
448,192,156240,1,0,0:0:0:0:
64,192,156505,1,0,0:0:0:60:drum.wav
320,192,156505,1,0,0:0:0:0:
448,192,156505,1,0,0:0:0:0:
192,192,156593,1,0,0:0:0:50:snare.wav
64,192,156682,1,0,0:0:0:60:drum.wav
320,192,156682,1,0,0:0:0:0:
448,192,156682,1,0,0:0:0:0:
320,192,156858,1,0,0:0:0:0:
64,192,156946,1,0,0:0:0:60:drum.wav
192,192,156946,1,0,0:0:0:0:
448,192,156946,1,0,0:0:0:0:
192,192,157123,1,0,0:0:0:0:
64,192,157211,1,0,0:0:0:60:drum.wav
320,192,157211,1,0,0:0:0:0:
448,192,157211,1,0,0:0:0:0:
64,192,157387,1,0,0:0:0:60:drum.wav
192,192,157387,1,0,0:0:0:0:
448,192,157387,1,0,0:0:0:0:
64,192,157564,1,0,0:0:0:0:
192,192,157652,1,0,0:0:0:60:drum.wav
320,192,157652,1,0,0:0:0:0:
448,192,157652,1,0,0:0:0:0:
448,192,157829,1,0,0:0:0:0:
64,192,157917,1,0,0:0:0:60:drum.wav
192,192,157917,1,0,0:0:0:0:
320,192,157917,1,0,0:0:0:0:
192,192,158093,1,0,0:0:0:60:drum.wav
320,192,158093,1,0,0:0:0:50:finish.wav
448,192,158093,1,0,0:0:0:0:
448,192,158270,1,0,0:0:0:0:
64,192,158358,1,0,0:0:0:60:drum.wav
192,192,158358,1,0,0:0:0:0:
320,192,158358,1,0,0:0:0:0:
192,192,158535,1,0,0:0:0:0:
64,192,158623,1,0,0:0:0:60:drum.wav
320,192,158623,1,0,0:0:0:0:
448,192,158623,1,0,0:0:0:0:
64,192,158799,1,0,0:0:0:60:drum.wav
192,192,158799,1,0,0:0:0:0:
448,192,158799,1,0,0:0:0:0:
320,192,158887,1,0,0:0:0:0:
64,192,158976,1,0,0:0:0:50:snare.wav
192,192,158976,1,0,0:0:0:0:
320,192,159064,1,0,0:0:0:60:drum.wav
448,192,159064,1,0,0:0:0:0:
64,192,159152,1,0,0:0:0:50:snare.wav
320,192,159240,1,0,0:0:0:50:snare.wav
448,192,159240,1,0,0:0:0:0:
64,192,159329,1,0,0:0:0:50:snare.wav
192,192,159329,1,0,0:0:0:0:
448,192,159417,1,0,0:0:0:50:snare.wav
64,192,159505,1,0,0:0:0:60:drum.wav
192,192,159505,1,0,0:0:0:50:finish.wav
320,192,159505,1,0,0:0:0:0:
320,192,159682,1,0,0:0:0:0:
64,192,159770,1,0,0:0:0:50:snare.wav
192,192,159770,1,0,0:0:0:0:
320,192,159858,1,0,0:0:0:60:drum.wav
448,192,159858,1,0,0:0:0:0:
64,192,160035,1,0,0:0:0:50:snare.wav
192,192,160035,1,0,0:0:0:0:
64,192,160211,1,0,0:0:0:60:drum.wav
320,192,160211,1,0,0:0:0:0:
448,192,160211,1,0,0:0:0:0:
192,192,160387,1,0,0:0:0:0:
320,192,160476,1,0,0:0:0:50:snare.wav
448,192,160476,1,0,0:0:0:0:
64,192,160564,1,0,0:0:0:60:drum.wav
192,192,160564,1,0,0:0:0:0:
320,192,160740,1,0,0:0:0:50:snare.wav
448,192,160740,1,0,0:0:0:0:
64,192,160917,1,0,0:0:0:60:drum.wav
192,192,160917,1,0,0:0:0:50:finish.wav
448,192,160917,1,0,0:0:0:0:
64,192,161093,1,0,0:0:0:0:
192,192,161182,1,0,0:0:0:50:snare.wav
448,192,161182,1,0,0:0:0:0:
64,192,161270,1,0,0:0:0:60:drum.wav
320,192,161270,1,0,0:0:0:0:
192,192,161446,1,0,0:0:0:50:snare.wav
448,192,161446,1,0,0:0:0:0:
64,192,161623,1,0,0:0:0:60:drum.wav
320,192,161623,1,0,0:0:0:0:
448,192,161623,1,0,0:0:0:0:
448,192,161799,1,0,0:0:0:0:
64,192,161887,1,0,0:0:0:50:snare.wav
320,192,161887,1,0,0:0:0:0:
192,192,161976,1,0,0:0:0:60:drum.wav
448,192,161976,1,0,0:0:0:0:
192,192,162152,1,0,0:0:0:50:snare.wav
320,192,162152,1,0,0:0:0:0:
64,192,162329,1,0,0:0:0:60:drum.wav
192,192,162329,1,0,0:0:0:50:finish.wav
320,192,162329,1,0,0:0:0:0:
448,192,162329,1,0,0:0:0:0:
64,192,162505,1,0,0:0:0:50:snare.wav
448,192,162505,1,0,0:0:0:0:
64,192,162682,1,0,0:0:0:60:drum.wav
192,192,162682,1,0,0:0:0:0:
320,192,162682,1,0,0:0:0:0:
192,192,162858,1,0,0:0:0:50:snare.wav
448,192,162858,1,0,0:0:0:0:
64,192,163035,1,0,0:0:0:60:drum.wav
320,192,163035,1,0,0:0:0:0:
448,192,163035,1,0,0:0:0:0:
64,192,163211,1,0,0:0:0:50:snare.wav
192,192,163211,1,0,0:0:0:0:
192,192,163387,1,0,0:0:0:60:drum.wav
320,192,163387,1,0,0:0:0:0:
448,192,163387,1,0,0:0:0:0:
320,192,163564,1,0,0:0:0:50:snare.wav
448,192,163564,1,0,0:0:0:0:
192,192,163652,1,0,0:0:0:50:snare.wav
64,192,163740,1,0,0:0:0:60:drum.wav
320,192,163740,1,0,0:0:0:50:finish.wav
448,192,163740,1,0,0:0:0:0:
192,192,163829,1,0,0:0:0:50:snare.wav
320,192,163917,1,0,0:0:0:50:snare.wav
448,192,163917,1,0,0:0:0:0:
64,192,164005,1,0,0:0:0:50:snare.wav
192,192,164093,1,0,0:0:0:60:drum.wav
320,192,164093,1,0,0:0:0:0:
448,192,164182,1,0,0:0:0:50:snare.wav
64,192,164270,1,0,0:0:0:50:snare.wav
192,192,164270,1,0,0:0:0:0:
320,192,164358,1,0,0:0:0:50:snare.wav
64,192,164446,1,0,0:0:0:60:drum.wav
192,192,164446,1,0,0:0:0:0:
448,192,164446,1,0,0:0:0:0:
320,192,164535,1,0,0:0:0:50:snare.wav
192,192,164623,1,0,0:0:0:50:snare.wav
64,192,164799,1,0,0:0:0:60:drum.wav
320,192,164799,1,0,0:0:0:0:
448,192,164799,1,0,0:0:0:0:
192,192,164976,1,0,0:0:0:0:
64,192,165152,1,0,0:0:0:60:drum.wav
192,192,165152,1,0,0:0:0:50:finish.wav
320,192,165152,1,0,0:0:0:0:
448,192,165152,1,0,0:0:0:0:
64,192,165329,1,0,0:0:0:0:
320,192,165329,1,0,0:0:0:0:
64,192,165505,1,0,0:0:0:50:snare2.wav
192,192,165505,1,0,0:0:0:0:
448,192,165505,1,0,0:0:0:0:
320,192,165682,1,0,0:0:0:0:
448,192,165682,1,0,0:0:0:0:
64,192,165770,1,0,0:0:0:0:
192,192,165858,1,0,0:0:0:60:drum.wav
448,192,165858,1,0,0:0:0:0:
320,192,165946,1,0,0:0:0:0:
64,192,166035,1,0,0:0:0:0:
192,192,166035,1,0,0:0:0:0:
448,192,166123,1,0,0:0:0:0:
64,192,166211,1,0,0:0:0:50:snare2.wav
192,192,166211,1,0,0:0:0:0:
320,192,166211,1,0,0:0:0:0:
320,192,166387,1,0,0:0:0:0:
448,192,166387,1,0,0:0:0:0:
64,192,166564,1,0,0:0:0:60:drum.wav
192,192,166564,1,0,0:0:0:0:
448,192,166564,1,0,0:0:0:0:
64,192,166740,1,0,0:0:0:0:
320,192,166740,1,0,0:0:0:0:
192,192,166917,1,0,0:0:0:50:snare2.wav
320,192,166917,1,0,0:0:0:0:
448,192,166917,1,0,0:0:0:0:
64,192,167093,1,0,0:0:0:0:
448,192,167093,1,0,0:0:0:0:
192,192,167182,1,0,0:0:0:0:
64,192,167270,1,0,0:0:0:60:drum.wav
320,192,167270,1,0,0:0:0:0:
192,192,167358,1,0,0:0:0:0:
64,192,167446,1,0,0:0:0:0:
448,192,167446,1,0,0:0:0:0:
320,192,167535,1,0,0:0:0:0:
64,192,167623,1,0,0:0:0:50:snare2.wav
192,192,167623,1,0,0:0:0:0:
448,192,167623,1,0,0:0:0:0:
192,192,167799,1,0,0:0:0:0:
320,192,167799,1,0,0:0:0:0:
64,192,167976,1,0,0:0:0:60:drum.wav
320,192,167976,1,0,0:0:0:0:
448,192,167976,1,0,0:0:0:0:
192,192,168152,1,0,0:0:0:0:
320,192,168240,1,0,0:0:0:0:
448,192,168240,1,0,0:0:0:0:
64,192,168329,1,0,0:0:0:50:snare2.wav
192,192,168329,1,0,0:0:0:0:
320,192,168505,1,0,0:0:0:0:
448,192,168593,1,0,0:0:0:0:
64,192,168682,1,0,0:0:0:60:drum.wav
192,192,168682,1,0,0:0:0:0:
320,192,168682,1,0,0:0:0:0:
448,192,168858,1,0,0:0:0:0:
64,192,168946,1,0,0:0:0:0:
320,192,168946,1,0,0:0:0:0:
192,192,169035,1,0,0:0:0:50:snare2.wav
448,192,169035,1,0,0:0:0:0:
320,192,169211,1,0,0:0:0:0:
192,192,169299,1,0,0:0:0:0:
64,192,169387,1,0,0:0:0:60:drum.wav
320,192,169387,1,0,0:0:0:0:
448,192,169387,1,0,0:0:0:0:
64,192,169564,1,0,0:0:0:0:
192,192,169564,1,0,0:0:0:0:
448,192,169652,1,0,0:0:0:0:
64,192,169740,1,0,0:0:0:50:snare2.wav
320,192,169740,1,0,0:0:0:0:
192,192,169917,1,0,0:0:0:0:
448,192,169917,1,0,0:0:0:0:
320,192,170005,1,0,0:0:0:0:
64,192,170093,1,0,0:0:0:60:drum.wav
192,192,170093,1,0,0:0:0:0:
448,192,170182,1,0,0:0:0:0:
64,192,170270,1,0,0:0:0:0:
320,192,170270,1,0,0:0:0:0:
192,192,170358,1,0,0:0:0:0:
64,192,170446,1,0,0:0:0:50:snare2.wav
320,192,170446,1,0,0:0:0:0:
448,192,170446,1,0,0:0:0:0:
192,192,170623,1,0,0:0:0:0:
320,192,170711,1,0,0:0:0:0:
64,192,170799,1,0,0:0:0:60:drum.wav
192,192,170799,1,0,0:0:0:50:finish.wav
448,192,170799,1,0,0:0:0:0:
192,192,170976,1,0,0:0:0:0:
448,192,170976,1,0,0:0:0:0:
64,192,171152,1,0,0:0:0:50:snare2.wav
320,192,171152,1,0,0:0:0:0:
448,192,171152,1,0,0:0:0:0:
64,192,171329,1,0,0:0:0:0:
192,192,171329,1,0,0:0:0:0:
448,192,171417,1,0,0:0:0:0:
64,192,171505,1,0,0:0:0:60:drum.wav
320,192,171505,1,0,0:0:0:0:
192,192,171593,1,0,0:0:0:0:
320,192,171682,1,0,0:0:0:0:
448,192,171682,1,0,0:0:0:0:
64,192,171770,1,0,0:0:0:0:
192,192,171858,1,0,0:0:0:50:snare2.wav
320,192,171858,1,0,0:0:0:0:
448,192,171858,1,0,0:0:0:0:
64,192,172035,1,0,0:0:0:0:
192,192,172035,1,0,0:0:0:0:
64,192,172211,1,0,0:0:0:60:drum.wav
320,192,172211,1,0,0:0:0:0:
448,192,172211,1,0,0:0:0:0:
192,192,172387,1,0,0:0:0:0:
448,192,172387,1,0,0:0:0:0:
64,192,172564,1,0,0:0:0:50:snare2.wav
192,192,172564,1,0,0:0:0:0:
320,192,172564,1,0,0:0:0:0:
64,192,172740,1,0,0:0:0:0:
448,192,172740,1,0,0:0:0:0:
320,192,172829,1,0,0:0:0:0:
192,192,172917,1,0,0:0:0:60:drum.wav
448,192,172917,1,0,0:0:0:0:
320,192,173005,1,0,0:0:0:0:
64,192,173093,1,0,0:0:0:0:
448,192,173093,1,0,0:0:0:0:
192,192,173182,1,0,0:0:0:0:
64,192,173270,1,0,0:0:0:50:snare2.wav
320,192,173270,1,0,0:0:0:0:
448,192,173270,1,0,0:0:0:0:
192,192,173446,1,0,0:0:0:0:
320,192,173446,1,0,0:0:0:0:
64,192,173623,1,0,0:0:0:60:drum.wav
192,192,173623,1,0,0:0:0:50:finish.wav
448,192,173623,1,0,0:0:0:0:
320,192,173799,1,0,0:0:0:0:
64,192,173887,1,0,0:0:0:0:
192,192,173887,1,0,0:0:0:0:
320,192,173976,1,0,0:0:0:50:snare2.wav
448,192,173976,1,0,0:0:0:0:
192,192,174152,1,0,0:0:0:0:
64,192,174240,1,0,0:0:0:0:
192,192,174329,1,0,0:0:0:60:drum.wav
320,192,174329,1,0,0:0:0:0:
448,192,174329,1,0,0:0:0:0:
64,192,174505,1,0,0:0:0:0:
192,192,174593,1,0,0:0:0:0:
448,192,174593,1,0,0:0:0:0:
64,192,174682,1,0,0:0:0:50:snare2.wav
320,192,174682,1,0,0:0:0:0:
192,192,174858,1,0,0:0:0:0:
320,192,174946,1,0,0:0:0:0:
64,192,175035,1,0,0:0:0:60:drum.wav
192,192,175035,1,0,0:0:0:0:
448,192,175035,1,0,0:0:0:0:
320,192,175211,1,0,0:0:0:0:
448,192,175211,1,0,0:0:0:0:
64,192,175299,1,0,0:0:0:0:
192,192,175387,1,0,0:0:0:50:snare2.wav
448,192,175387,1,0,0:0:0:0:
64,192,175564,1,0,0:0:0:0:
320,192,175564,1,0,0:0:0:0:
192,192,175652,1,0,0:0:0:0:
64,192,175740,1,0,0:0:0:60:drum.wav
320,192,175740,1,0,0:0:0:0:
448,192,175740,1,0,0:0:0:0:
192,192,175917,1,0,0:0:0:0:
320,192,176005,1,0,0:0:0:0:
448,192,176005,1,0,0:0:0:0:
64,192,176093,1,0,0:0:0:50:snare2.wav
192,192,176093,1,0,0:0:0:0:
320,192,176270,1,0,0:0:0:0:
192,192,176358,1,0,0:0:0:0:
64,192,176446,1,0,0:0:0:60:drum.wav
320,192,176446,1,0,0:0:0:0:
448,192,176446,1,0,0:0:0:0:
64,192,176623,1,0,0:0:0:50:snare.wav
192,192,176623,1,0,0:0:0:0:
320,192,176799,1,0,0:0:0:50:snare.wav
448,192,176799,1,0,0:0:0:0:
192,192,176976,1,0,0:0:0:50:snare.wav
448,192,176976,1,0,0:0:0:0:
64,192,177152,1,0,0:0:0:60:drum.wav
192,192,177152,1,0,0:0:0:50:finish.wav
320,192,177152,1,0,0:0:0:0:
448,192,177152,1,0,0:0:0:0:
64,192,177329,1,0,0:0:0:50:snare.wav
320,192,177329,1,0,0:0:0:0:
192,192,177505,1,0,0:0:0:50:snare.wav
448,192,177505,1,0,0:0:0:0:
192,192,177682,1,0,0:0:0:50:snare.wav
320,192,177682,1,0,0:0:0:0:
64,192,177858,1,0,0:0:0:60:drum.wav
192,192,177858,1,0,0:0:0:0:
320,192,177858,1,0,0:0:0:0:
448,192,177858,1,0,0:0:0:0:
448,192,178211,1,0,0:0:0:0:
320,192,178564,1,0,0:0:0:0:
192,192,178917,1,0,0:0:0:0:
192,192,179093,1,0,0:0:0:0:
320,192,179182,1,0,0:0:0:0:
64,192,179270,1,0,0:0:0:60:drum.wav
192,192,179270,1,0,0:0:0:0:
448,192,179270,1,0,0:0:0:0:
64,192,179623,1,0,0:0:0:0:
192,192,179976,1,0,0:0:0:0:
448,192,179976,128,0,180329:0:0:0:0:
320,192,180329,128,0,180682:0:0:0:0:
64,192,180682,1,0,0:0:0:50:finish.wav
192,192,180682,1,0,0:0:0:0:
448,192,180682,1,0,0:0:0:0:
448,192,180946,1,0,0:0:0:0:
64,192,181035,1,0,0:0:0:0:
192,192,181035,1,0,0:0:0:0:
320,192,181211,1,0,0:0:0:0:
64,192,181387,1,0,0:0:0:0:
192,192,181387,1,0,0:0:0:0:
64,192,181740,1,0,0:0:0:0:
192,192,181740,1,0,0:0:0:0:
320,192,181917,1,0,0:0:0:0:
64,192,182093,1,0,0:0:0:0:
320,192,182093,1,0,0:0:0:0:
448,192,182093,1,0,0:0:0:0:
192,192,182270,1,0,0:0:0:0:
320,192,182446,1,0,0:0:0:0:
448,192,182446,1,0,0:0:0:0:
192,192,182623,1,0,0:0:0:0:
64,192,182799,1,0,0:0:0:0:
192,192,182799,1,0,0:0:0:0:
320,192,182799,1,0,0:0:0:0:
448,192,182976,1,0,0:0:0:0:
64,192,183152,1,0,0:0:0:0:
320,192,183152,1,0,0:0:0:0:
192,192,183329,1,0,0:0:0:0:
64,192,183505,1,0,0:0:0:0:
320,192,183505,1,0,0:0:0:0:
448,192,183505,1,0,0:0:0:0:
320,192,183770,1,0,0:0:0:0:
64,192,183858,1,0,0:0:0:0:
448,192,183858,1,0,0:0:0:0:
192,192,184035,1,0,0:0:0:0:
64,192,184211,1,0,0:0:0:0:
448,192,184211,1,0,0:0:0:0:
64,192,184564,1,0,0:0:0:0:
448,192,184564,1,0,0:0:0:0:
320,192,184740,1,0,0:0:0:0:
64,192,184917,1,0,0:0:0:0:
192,192,184917,1,0,0:0:0:0:
448,192,184917,1,0,0:0:0:0:
64,192,185093,1,0,0:0:0:0:
192,192,185270,1,0,0:0:0:0:
320,192,185270,1,0,0:0:0:0:
448,192,185270,1,0,0:0:0:0:
320,192,185446,1,0,0:0:0:0:
64,192,185623,1,0,0:0:0:0:
320,192,185623,1,0,0:0:0:0:
448,192,185623,1,0,0:0:0:0:
192,192,185711,1,0,0:0:0:0:
448,192,185799,1,0,0:0:0:0:
192,192,185887,1,0,0:0:0:0:
320,192,185976,1,0,0:0:0:0:
448,192,185976,1,0,0:0:0:0:
192,192,186152,1,0,0:0:0:0:
64,192,186329,1,0,0:0:0:0:
192,192,186329,1,0,0:0:0:0:
320,192,186329,1,0,0:0:0:0:
448,192,186505,1,0,0:0:0:0:
64,192,186682,1,0,0:0:0:0:
192,192,186682,1,0,0:0:0:0:
320,192,186858,1,0,0:0:0:0:
64,192,187035,1,0,0:0:0:0:
320,192,187035,1,0,0:0:0:0:
448,192,187035,1,0,0:0:0:0:
192,192,187211,1,0,0:0:0:0:
320,192,187387,1,0,0:0:0:0:
448,192,187387,1,0,0:0:0:0:
192,192,187564,1,0,0:0:0:0:
64,192,187740,1,0,0:0:0:0:
320,192,187740,1,0,0:0:0:0:
448,192,187740,1,0,0:0:0:0:
192,192,188005,1,0,0:0:0:0:
64,192,188093,1,0,0:0:0:0:
448,192,188093,1,0,0:0:0:0:
320,192,188270,1,0,0:0:0:0:
64,192,188446,1,0,0:0:0:0:
320,192,188446,1,0,0:0:0:0:
448,192,188446,1,0,0:0:0:0:
64,192,188799,1,0,0:0:0:0:
320,192,188799,1,0,0:0:0:0:
192,192,188976,1,0,0:0:0:0:
64,192,189152,1,0,0:0:0:0:
192,192,189152,1,0,0:0:0:0:
448,192,189152,1,0,0:0:0:0:
320,192,189329,1,0,0:0:0:0:
192,192,189505,1,0,0:0:0:0:
448,192,189505,1,0,0:0:0:0:
64,192,189682,1,0,0:0:0:0:
192,192,189858,1,0,0:0:0:0:
320,192,189858,1,0,0:0:0:0:
448,192,189858,128,0,190476:0:0:0:0:
64,192,190035,1,0,0:0:0:0:
192,192,190211,1,0,0:0:0:0:
320,192,190211,1,0,0:0:0:0:
64,192,190299,1,0,0:0:0:0:
320,192,190387,1,0,0:0:0:0:
192,192,190476,1,0,0:0:0:0:
64,192,190564,1,0,0:0:0:60:drum.wav
320,192,190564,1,0,0:0:0:50:finish.wav
448,192,190564,1,0,0:0:0:0:
64,192,190829,1,0,0:0:0:60:drum.wav
320,192,190829,1,0,0:0:0:50:finish.wav
448,192,190829,1,0,0:0:0:0:
64,192,191093,1,0,0:0:0:60:drum.wav
192,192,191093,1,0,0:0:0:50:finish.wav
448,192,191093,1,0,0:0:0:0:
64,192,191270,1,0,0:0:0:60:drum.wav
192,192,191270,1,0,0:0:0:50:finish.wav
448,192,191270,1,0,0:0:0:0:
192,192,191446,1,0,0:0:0:0:
320,192,191535,1,0,0:0:0:0:
192,192,191623,128,0,191976:0:0:0:0:
64,192,191976,1,0,0:0:0:60:drum.wav
320,192,191976,1,0,0:0:0:50:finish.wav
448,192,191976,1,0,0:0:0:0:
64,192,192240,1,0,0:0:0:60:drum.wav
192,192,192240,1,0,0:0:0:50:finish.wav
448,192,192240,1,0,0:0:0:0:
64,192,192505,1,0,0:0:0:60:drum.wav
320,192,192505,1,0,0:0:0:50:finish.wav
448,192,192505,1,0,0:0:0:0:
64,192,192682,1,0,0:0:0:60:drum.wav
192,192,192682,1,0,0:0:0:50:finish.wav
448,192,192682,128,0,193035:0:0:0:0:
64,192,193035,1,0,0:0:0:50:snare.wav
192,192,193035,1,0,0:0:0:0:
320,192,193035,1,0,0:0:0:0:
64,192,193387,128,0,193652:0:0:0:60:drum.wav
192,192,193387,128,0,193564:0:0:0:50:finish.wav
320,192,193387,1,0,0:0:0:0:
448,192,193387,1,0,0:0:0:0:
320,192,193564,1,0,0:0:0:0:
192,192,193652,1,0,0:0:0:0:
448,192,193652,1,0,0:0:0:0:
192,192,193829,1,0,0:0:0:0:
64,192,193917,1,0,0:0:0:0:
320,192,193917,1,0,0:0:0:0:
192,192,194093,1,0,0:0:0:0:
320,192,194182,1,0,0:0:0:0:
64,192,194270,1,0,0:0:0:60:drum.wav
192,192,194270,1,0,0:0:0:0:
448,192,194270,1,0,0:0:0:0:
64,192,194446,1,0,0:0:0:50:snare.wav
320,192,194446,1,0,0:0:0:0:
448,192,194446,1,0,0:0:0:0:
320,192,194623,1,0,0:0:0:0:
448,192,194623,1,0,0:0:0:0:
192,192,194711,1,0,0:0:0:0:
64,192,194799,1,0,0:0:0:60:drum.wav
320,192,194799,1,0,0:0:0:50:finish.wav
448,192,194887,1,0,0:0:0:0:
64,192,194976,1,0,0:0:0:0:
192,192,194976,1,0,0:0:0:0:
320,192,195064,1,0,0:0:0:0:
192,192,195152,1,0,0:0:0:50:snare2.wav
448,192,195152,1,0,0:0:0:0:
64,192,195240,1,0,0:0:0:0:
192,192,195329,1,0,0:0:0:0:
320,192,195329,1,0,0:0:0:0:
448,192,195417,1,0,0:0:0:0:
64,192,195505,1,0,0:0:0:60:drum.wav
192,192,195505,1,0,0:0:0:0:
320,192,195593,1,0,0:0:0:0:
64,192,195682,1,0,0:0:0:0:
192,192,195682,1,0,0:0:0:0:
448,192,195770,1,0,0:0:0:0:
192,192,195858,1,0,0:0:0:50:snare2.wav
320,192,195858,1,0,0:0:0:0:
64,192,195946,1,0,0:0:0:0:
320,192,196035,1,0,0:0:0:0:
448,192,196035,1,0,0:0:0:0:
192,192,196123,1,0,0:0:0:0:
64,192,196211,1,0,0:0:0:60:drum.wav
320,192,196211,128,0,196387:0:0:0:50:finish.wav
448,192,196211,128,0,196476:0:0:0:0:
192,192,196387,1,0,0:0:0:0:
320,192,196476,1,0,0:0:0:0:
64,192,196564,1,0,0:0:0:50:snare2.wav
192,192,196564,1,0,0:0:0:0:
448,192,196564,1,0,0:0:0:0:
320,192,196652,1,0,0:0:0:0:
64,192,196740,1,0,0:0:0:0:
192,192,196829,1,0,0:0:0:0:
64,192,196917,1,0,0:0:0:60:drum.wav
320,192,196917,1,0,0:0:0:0:
448,192,196917,1,0,0:0:0:0:
320,192,197093,128,0,197182:0:0:0:0:
448,192,197093,128,0,197182:0:0:0:0:
192,192,197182,1,0,0:0:0:0:
64,192,197270,1,0,0:0:0:50:snare2.wav
320,192,197270,128,0,197358:0:0:0:0:
448,192,197270,128,0,197358:0:0:0:0:
64,192,197446,1,0,0:0:0:0:
192,192,197446,1,0,0:0:0:0:
320,192,197535,1,0,0:0:0:0:
192,192,197623,1,0,0:0:0:60:drum.wav
448,192,197623,1,0,0:0:0:0:
64,192,197711,1,0,0:0:0:0:
320,192,197799,1,0,0:0:0:0:
448,192,197799,1,0,0:0:0:0:
192,192,197887,1,0,0:0:0:0:
64,192,197976,1,0,0:0:0:50:snare2.wav
320,192,197976,1,0,0:0:0:0:
448,192,198064,1,0,0:0:0:0:
192,192,198152,1,0,0:0:0:0:
320,192,198152,1,0,0:0:0:0:
64,192,198240,1,0,0:0:0:0:
320,192,198329,1,0,0:0:0:60:drum.wav
448,192,198329,1,0,0:0:0:50:finish.wav
192,192,198417,1,0,0:0:0:0:
320,192,198505,1,0,0:0:0:0:
448,192,198505,1,0,0:0:0:0:
64,192,198593,1,0,0:0:0:0:
192,192,198682,1,0,0:0:0:50:snare2.wav
320,192,198682,1,0,0:0:0:0:
448,192,198770,1,0,0:0:0:0:
64,192,198858,1,0,0:0:0:0:
192,192,198858,1,0,0:0:0:0:
320,192,198946,1,0,0:0:0:0:
64,192,199035,1,0,0:0:0:60:drum.wav
448,192,199035,1,0,0:0:0:0:
320,192,199123,1,0,0:0:0:0:
64,192,199211,1,0,0:0:0:0:
192,192,199211,1,0,0:0:0:0:
448,192,199299,1,0,0:0:0:0:
64,192,199387,1,0,0:0:0:50:snare2.wav
320,192,199387,1,0,0:0:0:0:
192,192,199476,1,0,0:0:0:0:
320,192,199564,1,0,0:0:0:0:
448,192,199564,1,0,0:0:0:0:
64,192,199652,1,0,0:0:0:0:
320,192,199740,1,0,0:0:0:60:drum.wav
448,192,199740,1,0,0:0:0:0:
192,192,199829,1,0,0:0:0:0:
64,192,199917,1,0,0:0:0:0:
320,192,199917,1,0,0:0:0:0:
448,192,200005,1,0,0:0:0:0:
64,192,200093,1,0,0:0:0:50:snare2.wav
192,192,200093,1,0,0:0:0:0:
320,192,200182,1,0,0:0:0:0:
64,192,200270,1,0,0:0:0:0:
192,192,200270,1,0,0:0:0:0:
448,192,200358,1,0,0:0:0:0:
64,192,200446,1,0,0:0:0:60:drum.wav
320,192,200446,1,0,0:0:0:0:
192,192,200623,1,0,0:0:0:0:
320,192,200711,1,0,0:0:0:0:
448,192,200711,1,0,0:0:0:0:
64,192,200799,1,0,0:0:0:50:snare2.wav
192,192,200799,1,0,0:0:0:0:
448,192,200887,1,0,0:0:0:0:
64,192,200976,1,0,0:0:0:0:
320,192,200976,1,0,0:0:0:0:
192,192,201064,1,0,0:0:0:0:
320,192,201152,1,0,0:0:0:60:drum.wav
448,192,201152,1,0,0:0:0:0:
64,192,201240,1,0,0:0:0:0:
192,192,201329,1,0,0:0:0:0:
320,192,201329,1,0,0:0:0:0:
448,192,201417,1,0,0:0:0:0:
64,192,201505,1,0,0:0:0:50:snare2.wav
192,192,201505,1,0,0:0:0:0:
320,192,201593,1,0,0:0:0:0:
64,192,201682,1,0,0:0:0:0:
192,192,201682,1,0,0:0:0:0:
448,192,201770,1,0,0:0:0:0:
64,192,201858,1,0,0:0:0:60:drum.wav
320,192,201858,1,0,0:0:0:0:
192,192,201946,1,0,0:0:0:0:
320,192,202035,1,0,0:0:0:0:
448,192,202035,1,0,0:0:0:0:
64,192,202123,1,0,0:0:0:0:
192,192,202211,1,0,0:0:0:50:snare2.wav
320,192,202211,1,0,0:0:0:0:
448,192,202299,1,0,0:0:0:0:
64,192,202387,1,0,0:0:0:0:
192,192,202387,1,0,0:0:0:0:
320,192,202476,1,0,0:0:0:0:
192,192,202564,1,0,0:0:0:60:drum.wav
448,192,202564,1,0,0:0:0:0:
64,192,202652,1,0,0:0:0:0:
320,192,202740,1,0,0:0:0:0:
448,192,202740,1,0,0:0:0:0:
192,192,202829,1,0,0:0:0:0:
64,192,202917,1,0,0:0:0:50:snare2.wav
320,192,202917,1,0,0:0:0:0:
448,192,203005,1,0,0:0:0:0:
192,192,203093,1,0,0:0:0:0:
320,192,203093,1,0,0:0:0:0:
64,192,203182,1,0,0:0:0:0:
192,192,203270,1,0,0:0:0:60:drum.wav
320,192,203270,1,0,0:0:0:0:
448,192,203270,1,0,0:0:0:0:
448,192,203446,1,0,0:0:0:0:
64,192,203535,1,0,0:0:0:60:drum.wav
192,192,203535,1,0,0:0:0:0:
320,192,203535,1,0,0:0:0:0:
192,192,203711,1,0,0:0:0:0:
64,192,203799,1,0,0:0:0:60:drum.wav
320,192,203799,1,0,0:0:0:0:
448,192,203799,1,0,0:0:0:0:
64,192,203976,1,0,0:0:0:60:drum.wav
192,192,203976,1,0,0:0:0:0:
320,192,203976,1,0,0:0:0:0:
64,192,204152,1,0,0:0:0:50:snare.wav
448,192,204152,1,0,0:0:0:0:
192,192,204329,1,0,0:0:0:50:snare.wav
448,192,204329,1,0,0:0:0:0:
64,192,204417,1,0,0:0:0:50:snare.wav
320,192,204417,1,0,0:0:0:0:
192,192,204505,1,0,0:0:0:50:snare.wav
448,192,204505,1,0,0:0:0:0:
64,192,204682,1,0,0:0:0:60:drum.wav
320,192,204682,128,0,204858:0:0:0:50:finish.wav
448,192,204682,128,0,204946:0:0:0:0:
192,192,204858,1,0,0:0:0:0:
320,192,204946,1,0,0:0:0:0:
64,192,205035,1,0,0:0:0:50:snare2.wav
192,192,205035,1,0,0:0:0:0:
448,192,205035,1,0,0:0:0:0:
320,192,205123,1,0,0:0:0:0:
64,192,205211,1,0,0:0:0:0:
192,192,205299,1,0,0:0:0:0:
64,192,205387,1,0,0:0:0:60:drum.wav
320,192,205387,1,0,0:0:0:0:
448,192,205387,1,0,0:0:0:0:
320,192,205564,128,0,205652:0:0:0:0:
448,192,205564,128,0,205652:0:0:0:0:
192,192,205652,1,0,0:0:0:0:
64,192,205740,1,0,0:0:0:50:snare2.wav
320,192,205740,128,0,205829:0:0:0:0:
448,192,205740,128,0,205829:0:0:0:0:
64,192,205917,1,0,0:0:0:0:
192,192,205917,1,0,0:0:0:0:
320,192,206005,1,0,0:0:0:0:
192,192,206093,1,0,0:0:0:60:drum.wav
448,192,206093,1,0,0:0:0:0:
64,192,206182,1,0,0:0:0:0:
320,192,206270,1,0,0:0:0:0:
448,192,206270,1,0,0:0:0:0:
192,192,206358,1,0,0:0:0:0:
64,192,206446,1,0,0:0:0:50:snare2.wav
320,192,206446,1,0,0:0:0:0:
448,192,206535,1,0,0:0:0:0:
192,192,206623,1,0,0:0:0:0:
320,192,206623,1,0,0:0:0:0:
64,192,206711,1,0,0:0:0:0:
320,192,206799,1,0,0:0:0:60:drum.wav
448,192,206799,1,0,0:0:0:0:
192,192,206887,1,0,0:0:0:0:
320,192,206976,1,0,0:0:0:0:
448,192,206976,1,0,0:0:0:0:
64,192,207064,1,0,0:0:0:0:
192,192,207152,1,0,0:0:0:50:snare2.wav
320,192,207152,1,0,0:0:0:0:
448,192,207240,1,0,0:0:0:0:
64,192,207329,1,0,0:0:0:0:
192,192,207329,1,0,0:0:0:0:
320,192,207417,1,0,0:0:0:0:
64,192,207505,128,0,207770:0:0:0:60:drum.wav
192,192,207505,128,0,207682:0:0:0:0:
448,192,207505,1,0,0:0:0:0:
320,192,207682,1,0,0:0:0:0:
192,192,207770,1,0,0:0:0:0:
64,192,207858,1,0,0:0:0:50:snare2.wav
320,192,207858,1,0,0:0:0:0:
448,192,207858,1,0,0:0:0:0:
192,192,207946,1,0,0:0:0:0:
64,192,208035,1,0,0:0:0:0:
448,192,208035,1,0,0:0:0:0:
320,192,208123,1,0,0:0:0:0:
192,192,208211,1,0,0:0:0:0:
320,192,208299,1,0,0:0:0:0:
64,192,208387,1,0,0:0:0:60:drum.wav
192,192,208387,1,0,0:0:0:0:
448,192,208387,1,0,0:0:0:0:
64,192,208652,1,0,0:0:0:60:drum.wav
320,192,208652,1,0,0:0:0:0:
448,192,208652,1,0,0:0:0:0:
64,192,208917,1,0,0:0:0:60:drum.wav
192,192,208917,1,0,0:0:0:50:finish.wav
448,192,208917,1,0,0:0:0:0:
320,192,209005,1,0,0:0:0:0:
64,192,209093,1,0,0:0:0:0:
192,192,209093,1,0,0:0:0:0:
448,192,209182,1,0,0:0:0:0:
192,192,209270,1,0,0:0:0:50:snare2.wav
320,192,209270,1,0,0:0:0:0:
64,192,209358,1,0,0:0:0:0:
320,192,209446,1,0,0:0:0:0:
448,192,209446,1,0,0:0:0:0:
192,192,209535,1,0,0:0:0:0:
64,192,209623,1,0,0:0:0:60:drum.wav
448,192,209623,1,0,0:0:0:50:finish.wav
192,192,209711,1,0,0:0:0:0:
320,192,209799,1,0,0:0:0:0:
448,192,209799,1,0,0:0:0:0:
64,192,209887,1,0,0:0:0:0:
192,192,209976,1,0,0:0:0:50:finish.wav
320,192,209976,1,0,0:0:0:50:snare2.wav
448,192,210064,1,0,0:0:0:0:
64,192,210152,1,0,0:0:0:0:
192,192,210152,1,0,0:0:0:0:
320,192,210240,1,0,0:0:0:0:
64,192,210329,1,0,0:0:0:60:drum.wav
448,192,210329,1,0,0:0:0:50:finish.wav
320,192,210417,1,0,0:0:0:0:
64,192,210505,1,0,0:0:0:0:
192,192,210505,1,0,0:0:0:0:
448,192,210593,1,0,0:0:0:0:
192,192,210682,1,0,0:0:0:50:snare2.wav
320,192,210682,1,0,0:0:0:0:
64,192,210770,1,0,0:0:0:0:
320,192,210858,1,0,0:0:0:0:
448,192,210858,1,0,0:0:0:0:
192,192,210946,1,0,0:0:0:0:
64,192,211035,1,0,0:0:0:60:drum.wav
320,192,211035,1,0,0:0:0:0:
448,192,211123,1,0,0:0:0:0:
64,192,211211,1,0,0:0:0:0:
192,192,211211,1,0,0:0:0:0:
320,192,211299,1,0,0:0:0:0:
192,192,211387,1,0,0:0:0:50:snare2.wav
448,192,211387,1,0,0:0:0:0:
64,192,211476,1,0,0:0:0:0:
192,192,211564,1,0,0:0:0:0:
320,192,211564,1,0,0:0:0:0:
448,192,211652,1,0,0:0:0:0:
64,192,211740,1,0,0:0:0:60:drum.wav
192,192,211740,1,0,0:0:0:0:
320,192,211917,1,0,0:0:0:0:
64,192,212005,1,0,0:0:0:0:
192,192,212005,1,0,0:0:0:0:
320,192,212093,1,0,0:0:0:50:snare2.wav
448,192,212093,1,0,0:0:0:0:
64,192,212182,1,0,0:0:0:0:
192,192,212270,1,0,0:0:0:0:
448,192,212270,1,0,0:0:0:0:
320,192,212358,1,0,0:0:0:0:
64,192,212446,1,0,0:0:0:60:drum.wav
192,192,212446,1,0,0:0:0:0:
448,192,212535,1,0,0:0:0:0:
192,192,212623,1,0,0:0:0:0:
320,192,212623,1,0,0:0:0:0:
64,192,212711,1,0,0:0:0:0:
320,192,212799,1,0,0:0:0:50:snare2.wav
448,192,212799,1,0,0:0:0:0:
64,192,212887,1,0,0:0:0:0:
192,192,212976,1,0,0:0:0:0:
320,192,212976,1,0,0:0:0:0:
448,192,213064,1,0,0:0:0:0:
64,192,213152,1,0,0:0:0:60:drum.wav
320,192,213152,1,0,0:0:0:50:finish.wav
192,192,213240,1,0,0:0:0:0:
320,192,213329,1,0,0:0:0:0:
448,192,213329,1,0,0:0:0:0:
64,192,213417,1,0,0:0:0:0:
192,192,213505,1,0,0:0:0:50:finish.wav
448,192,213505,1,0,0:0:0:50:snare2.wav
320,192,213593,1,0,0:0:0:0:
64,192,213682,1,0,0:0:0:0:
192,192,213682,1,0,0:0:0:0:
448,192,213770,1,0,0:0:0:0:
64,192,213858,1,0,0:0:0:60:drum.wav
320,192,213858,1,0,0:0:0:50:finish.wav
192,192,213946,1,0,0:0:0:0:
320,192,214035,1,0,0:0:0:0:
448,192,214035,1,0,0:0:0:0:
64,192,214123,1,0,0:0:0:0:
192,192,214211,1,0,0:0:0:50:finish.wav
448,192,214211,1,0,0:0:0:50:snare2.wav
320,192,214299,1,0,0:0:0:0:
64,192,214387,1,0,0:0:0:0:
448,192,214387,1,0,0:0:0:0:
192,192,214476,1,0,0:0:0:0:
64,192,214564,1,0,0:0:0:60:drum.wav
320,192,214564,1,0,0:0:0:0:
448,192,214564,1,0,0:0:0:0:
320,192,214740,1,0,0:0:0:0:
64,192,214829,1,0,0:0:0:60:drum.wav
192,192,214829,1,0,0:0:0:0:
448,192,214829,1,0,0:0:0:0:
64,192,215005,1,0,0:0:0:0:
192,192,215093,1,0,0:0:0:60:drum.wav
320,192,215093,1,0,0:0:0:0:
448,192,215093,1,0,0:0:0:0:
64,192,215270,1,0,0:0:0:60:drum.wav
320,192,215270,1,0,0:0:0:0:
448,192,215270,1,0,0:0:0:0:
64,192,215446,1,0,0:0:0:50:snare.wav
192,192,215490,1,0,0:0:0:0:
320,192,215535,1,0,0:0:0:0:
448,192,215579,1,0,0:0:0:0:
64,192,215623,1,0,0:0:0:50:snare.wav
192,192,215623,1,0,0:0:0:0:
320,192,215711,1,0,0:0:0:50:snare.wav
64,192,215799,1,0,0:0:0:50:snare.wav
448,192,215799,1,0,0:0:0:0:
192,192,215887,1,0,0:0:0:50:snare.wav
64,192,215976,128,0,216240:0:0:0:60:drum.wav
320,192,215976,1,0,0:0:0:50:finish.wav
448,192,215976,1,0,0:0:0:0:
192,192,216152,128,0,216329:0:0:0:0:
320,192,216240,128,0,216417:0:0:0:0:
64,192,216329,1,0,0:0:0:50:snare2.wav
448,192,216329,1,0,0:0:0:0:
192,192,216417,128,0,216593:0:0:0:0:
64,192,216505,128,0,216682:0:0:0:0:
192,192,216682,1,0,0:0:0:60:drum.wav
320,192,216682,1,0,0:0:0:0:
448,192,216682,128,0,216946:0:0:0:0:
320,192,216858,128,0,217035:0:0:0:0:
192,192,216946,128,0,217123:0:0:0:0:
64,192,217035,1,0,0:0:0:50:snare2.wav
448,192,217035,1,0,0:0:0:0:
320,192,217123,128,0,217299:0:0:0:0:
448,192,217211,128,0,217387:0:0:0:0:
64,192,217387,1,0,0:0:0:60:drum.wav
192,192,217387,128,0,217652:0:0:0:50:finish.wav
320,192,217387,1,0,0:0:0:0:
320,192,217564,128,0,217740:0:0:0:0:
448,192,217652,128,0,217829:0:0:0:0:
64,192,217740,1,0,0:0:0:50:snare2.wav
192,192,217740,1,0,0:0:0:0:
320,192,217829,128,0,218005:0:0:0:0:
192,192,217917,128,0,218093:0:0:0:0:
64,192,218093,1,0,0:0:0:60:drum.wav
320,192,218093,128,0,218358:0:0:0:0:
448,192,218093,1,0,0:0:0:0:
192,192,218270,128,0,218535:0:0:0:0:
64,192,218446,128,0,218711:0:0:0:50:snare2.wav
320,192,218446,1,0,0:0:0:0:
448,192,218446,1,0,0:0:0:0:
192,192,218623,128,0,218711:0:0:0:0:
64,192,218799,1,0,0:0:0:60:drum.wav
320,192,218799,1,0,0:0:0:50:finish.wav
448,192,218799,128,0,219064:0:0:0:0:
320,192,218976,128,0,219152:0:0:0:0:
192,192,219064,128,0,219240:0:0:0:0:
64,192,219152,1,0,0:0:0:50:snare2.wav
448,192,219152,1,0,0:0:0:0:
320,192,219240,128,0,219417:0:0:0:0:
448,192,219329,128,0,219505:0:0:0:0:
64,192,219505,128,0,219770:0:0:0:60:drum.wav
192,192,219505,1,0,0:0:0:0:
320,192,219505,1,0,0:0:0:0:
192,192,219682,128,0,219858:0:0:0:0:
320,192,219770,128,0,219946:0:0:0:0:
64,192,219858,1,0,0:0:0:50:snare2.wav
448,192,219858,1,0,0:0:0:0:
192,192,219946,128,0,220123:0:0:0:0:
64,192,220035,128,0,220211:0:0:0:0:
192,192,220211,1,0,0:0:0:60:drum.wav
320,192,220211,128,0,220476:0:0:0:0:
448,192,220211,1,0,0:0:0:0:
192,192,220387,128,0,220564:0:0:0:0:
64,192,220476,128,0,220652:0:0:0:0:
320,192,220564,1,0,0:0:0:50:snare2.wav
448,192,220564,1,0,0:0:0:0:
192,192,220652,128,0,220829:0:0:0:0:
320,192,220740,128,0,220917:0:0:0:0:
64,192,220917,1,0,0:0:0:60:drum.wav
192,192,220917,128,0,221182:0:0:0:0:
448,192,220917,1,0,0:0:0:0:
320,192,221093,128,0,221358:0:0:0:0:
64,192,221270,1,0,0:0:0:50:snare2.wav
192,192,221270,1,0,0:0:0:0:
448,192,221270,128,0,221535:0:0:0:0:
320,192,221446,128,0,221535:0:0:0:0:
64,192,221623,128,0,221887:0:0:0:60:drum.wav
192,192,221623,1,0,0:0:0:50:finish.wav
448,192,221623,1,0,0:0:0:0:
192,192,221799,128,0,221976:0:0:0:0:
320,192,221887,128,0,222064:0:0:0:0:
64,192,221976,1,0,0:0:0:50:snare2.wav
448,192,221976,1,0,0:0:0:0:
192,192,222064,128,0,222240:0:0:0:0:
64,192,222152,128,0,222329:0:0:0:0:
192,192,222329,1,0,0:0:0:60:drum.wav
320,192,222329,1,0,0:0:0:0:
448,192,222329,128,0,222593:0:0:0:0:
320,192,222505,128,0,222682:0:0:0:0:
192,192,222593,128,0,222770:0:0:0:0:
64,192,222682,1,0,0:0:0:50:snare2.wav
448,192,222682,1,0,0:0:0:0:
320,192,222770,128,0,222946:0:0:0:0:
448,192,222858,128,0,223035:0:0:0:0:
64,192,223035,1,0,0:0:0:60:drum.wav
192,192,223035,128,0,223299:0:0:0:0:
320,192,223035,1,0,0:0:0:0:
320,192,223211,128,0,223387:0:0:0:0:
448,192,223299,128,0,223476:0:0:0:0:
64,192,223387,1,0,0:0:0:50:snare2.wav
192,192,223387,1,0,0:0:0:0:
320,192,223476,128,0,223652:0:0:0:0:
192,192,223564,128,0,223740:0:0:0:0:
64,192,223740,1,0,0:0:0:60:drum.wav
320,192,223740,1,0,0:0:0:0:
448,192,223740,128,0,224005:0:0:0:0:
320,192,223917,128,0,224093:0:0:0:0:
192,192,224005,128,0,224182:0:0:0:0:
64,192,224093,128,0,224358:0:0:0:50:snare2.wav
448,192,224093,1,0,0:0:0:0:
192,192,224270,128,0,224358:0:0:0:0:
64,192,224446,128,0,224711:0:0:0:60:drum.wav
320,192,224446,1,0,0:0:0:0:
448,192,224446,1,0,0:0:0:0:
320,192,224623,128,0,224799:0:0:0:50:snare.wav
448,192,224623,1,0,0:0:0:0:
192,192,224711,128,0,224887:0:0:0:0:
64,192,224799,1,0,0:0:0:60:drum.wav
448,192,224799,128,0,225064:0:0:0:0:
320,192,224887,1,0,0:0:0:0:
64,192,224976,128,0,225240:0:0:0:50:snare.wav
192,192,224976,1,0,0:0:0:0:
320,192,225152,1,0,0:0:0:60:drum.wav
448,192,225152,128,0,225417:0:0:0:0:
64,192,225329,1,0,0:0:0:50:snare.wav
192,192,225329,128,0,225505:0:0:0:0:
320,192,225417,128,0,225593:0:0:0:0:
64,192,225505,128,0,225770:0:0:0:60:drum.wav
448,192,225505,1,0,0:0:0:0:
192,192,225593,1,0,0:0:0:0:
320,192,225682,1,0,0:0:0:50:snare.wav
448,192,225682,128,0,225858:0:0:0:0:
64,192,225858,1,0,0:0:0:60:drum.wav
192,192,225858,1,0,0:0:0:0:
320,192,225946,1,0,0:0:0:50:snare.wav
448,192,225946,1,0,0:0:0:0:
64,192,226035,1,0,0:0:0:50:snare.wav
192,192,226035,1,0,0:0:0:0:
320,192,226123,1,0,0:0:0:60:drum.wav
448,192,226123,1,0,0:0:0:0:
64,192,226211,1,0,0:0:0:50:snare.wav
192,192,226211,1,0,0:0:0:0:
320,192,226299,1,0,0:0:0:50:snare.wav
448,192,226299,1,0,0:0:0:0:
64,192,226387,1,0,0:0:0:60:drum.wav
192,192,226387,1,0,0:0:0:0:
320,192,226476,1,0,0:0:0:50:snare.wav
448,192,226476,1,0,0:0:0:0:
64,192,226564,1,0,0:0:0:60:drum.wav
192,192,226608,1,0,0:0:0:0:
448,192,226652,1,0,0:0:0:0:
320,192,226696,1,0,0:0:0:0:
64,192,226740,1,0,0:0:0:0:
192,192,226785,1,0,0:0:0:0:
448,192,226829,1,0,0:0:0:0:
320,192,226873,1,0,0:0:0:0:
64,192,226917,1,0,0:0:0:0:
192,192,226961,1,0,0:0:0:0:
448,192,227005,1,0,0:0:0:0:
320,192,227049,1,0,0:0:0:0:
64,192,227093,1,0,0:0:0:0:
192,192,227137,1,0,0:0:0:0:
448,192,227182,1,0,0:0:0:0:
320,192,227226,1,0,0:0:0:0:
64,192,227270,1,0,0:0:0:60:drum.wav
192,192,227270,1,0,0:0:0:50:finish.wav
192,192,227446,1,0,0:0:0:0:
64,192,227623,1,0,0:0:0:50:snare.wav
320,192,227623,1,0,0:0:0:0:
448,192,227623,1,0,0:0:0:0:
320,192,227799,1,0,0:0:0:0:
64,192,227976,1,0,0:0:0:60:drum.wav
192,192,227976,1,0,0:0:0:0:
448,192,227976,1,0,0:0:0:0:
64,192,228152,1,0,0:0:0:0:
192,192,228329,1,0,0:0:0:50:snare.wav
320,192,228329,1,0,0:0:0:0:
448,192,228329,1,0,0:0:0:0:
192,192,228505,1,0,0:0:0:0:
64,192,228682,1,0,0:0:0:60:drum.wav
320,192,228682,1,0,0:0:0:0:
448,192,228682,1,0,0:0:0:0:
192,192,228858,1,0,0:0:0:0:
320,192,228858,1,0,0:0:0:0:
64,192,229035,1,0,0:0:0:50:snare.wav
192,192,229035,1,0,0:0:0:0:
448,192,229035,1,0,0:0:0:0:
192,192,229211,1,0,0:0:0:0:
320,192,229211,1,0,0:0:0:0:
64,192,229387,1,0,0:0:0:60:drum.wav
192,192,229387,1,0,0:0:0:0:
448,192,229387,1,0,0:0:0:0:
320,192,229564,1,0,0:0:0:0:
448,192,229564,1,0,0:0:0:0:
64,192,229740,1,0,0:0:0:50:snare.wav
192,192,229740,1,0,0:0:0:0:
320,192,229740,1,0,0:0:0:0:
192,192,229917,1,0,0:0:0:0:
448,192,229917,1,0,0:0:0:0:
64,192,230093,1,0,0:0:0:60:drum.wav
320,192,230093,1,0,0:0:0:0:
448,192,230093,1,0,0:0:0:0:
64,192,230270,1,0,0:0:0:0:
192,192,230270,1,0,0:0:0:0:
192,192,230446,1,0,0:0:0:50:snare.wav
320,192,230446,1,0,0:0:0:0:
448,192,230446,1,0,0:0:0:0:
64,192,230623,1,0,0:0:0:0:
320,192,230623,1,0,0:0:0:0:
64,192,230799,1,0,0:0:0:60:drum.wav
192,192,230799,1,0,0:0:0:0:
448,192,230799,1,0,0:0:0:0:
320,192,230976,1,0,0:0:0:0:
448,192,230976,1,0,0:0:0:0:
64,192,231152,1,0,0:0:0:50:snare.wav
192,192,231152,1,0,0:0:0:0:
320,192,231152,1,0,0:0:0:0:
192,192,231329,1,0,0:0:0:0:
448,192,231329,1,0,0:0:0:0:
64,192,231505,1,0,0:0:0:60:drum.wav
320,192,231505,1,0,0:0:0:0:
448,192,231505,1,0,0:0:0:0:
64,192,231770,1,0,0:0:0:60:drum.wav
192,192,231770,1,0,0:0:0:0:
448,192,231770,1,0,0:0:0:0:
64,192,232035,1,0,0:0:0:60:drum.wav
320,192,232035,1,0,0:0:0:0:
448,192,232035,1,0,0:0:0:0:
64,192,232211,1,0,0:0:0:60:drum.wav
192,192,232211,1,0,0:0:0:0:
448,192,232211,1,0,0:0:0:0:
320,192,232299,1,0,0:0:0:0:
64,192,232387,1,0,0:0:0:50:snare.wav
192,192,232387,1,0,0:0:0:0:
64,192,232564,1,0,0:0:0:50:snare.wav
320,192,232564,1,0,0:0:0:0:
448,192,232564,1,0,0:0:0:0:
192,192,232652,1,0,0:0:0:50:snare.wav
64,192,232740,1,0,0:0:0:50:snare.wav
320,192,232740,1,0,0:0:0:0:
448,192,232829,1,0,0:0:0:50:snare.wav
64,192,232917,1,0,0:0:0:60:drum.wav
192,192,232917,1,0,0:0:0:50:finish.wav
320,192,232917,1,0,0:0:0:0:
448,192,233005,1,0,0:0:0:0:
64,192,233093,1,0,0:0:0:50:snare.wav
320,192,233093,1,0,0:0:0:0:
64,192,233270,1,0,0:0:0:60:drum.wav
192,192,233270,1,0,0:0:0:0:
448,192,233270,1,0,0:0:0:0:
320,192,233358,1,0,0:0:0:0:
192,192,233446,1,0,0:0:0:50:snare.wav
448,192,233446,1,0,0:0:0:0:
64,192,233623,1,0,0:0:0:60:drum.wav
320,192,233623,1,0,0:0:0:0:
448,192,233623,1,0,0:0:0:0:
192,192,233799,1,0,0:0:0:50:snare.wav
320,192,233799,1,0,0:0:0:0:
64,192,233887,1,0,0:0:0:0:
192,192,233976,1,0,0:0:0:60:drum.wav
320,192,233976,1,0,0:0:0:0:
448,192,233976,1,0,0:0:0:0:
64,192,234152,1,0,0:0:0:50:snare.wav
448,192,234152,1,0,0:0:0:0:
64,192,234329,1,0,0:0:0:60:drum.wav
192,192,234329,1,0,0:0:0:0:
320,192,234329,1,0,0:0:0:0:
192,192,234505,1,0,0:0:0:50:snare.wav
448,192,234505,1,0,0:0:0:0:
320,192,234593,1,0,0:0:0:0:
64,192,234682,1,0,0:0:0:60:drum.wav
192,192,234682,1,0,0:0:0:0:
448,192,234682,1,0,0:0:0:0:
64,192,234858,1,0,0:0:0:50:snare.wav
192,192,234917,1,0,0:0:0:0:
320,192,234976,1,0,0:0:0:0:
64,192,235035,1,0,0:0:0:60:drum.wav
448,192,235035,1,0,0:0:0:0:
192,192,235123,1,0,0:0:0:0:
64,192,235211,1,0,0:0:0:50:snare.wav
320,192,235211,1,0,0:0:0:0:
192,192,235299,1,0,0:0:0:0:
64,192,235387,1,0,0:0:0:60:drum.wav
320,192,235387,1,0,0:0:0:0:
448,192,235387,1,0,0:0:0:0:
320,192,235564,1,0,0:0:0:50:snare.wav
448,192,235564,1,0,0:0:0:0:
192,192,235652,1,0,0:0:0:50:snare.wav
64,192,235740,1,0,0:0:0:60:drum.wav
320,192,235740,1,0,0:0:0:50:finish.wav
448,192,235740,1,0,0:0:0:0:
64,192,235917,1,0,0:0:0:50:snare.wav
192,192,235917,1,0,0:0:0:0:
448,192,235917,1,0,0:0:0:0:
192,192,236093,1,0,0:0:0:60:drum.wav
320,192,236093,1,0,0:0:0:0:
64,192,236270,1,0,0:0:0:50:snare.wav
320,192,236270,1,0,0:0:0:0:
448,192,236270,1,0,0:0:0:0:
64,192,236446,1,0,0:0:0:60:drum.wav
192,192,236446,1,0,0:0:0:0:
192,192,236623,1,0,0:0:0:50:snare.wav
320,192,236623,1,0,0:0:0:0:
448,192,236623,1,0,0:0:0:0:
64,192,236799,1,0,0:0:0:60:drum.wav
320,192,236799,1,0,0:0:0:0:
64,192,236976,1,0,0:0:0:50:snare.wav
192,192,236976,1,0,0:0:0:0:
448,192,236976,1,0,0:0:0:0:
64,192,237152,1,0,0:0:0:60:drum.wav
320,192,237152,1,0,0:0:0:50:finish.wav
448,192,237152,1,0,0:0:0:0:
64,192,237417,1,0,0:0:0:60:drum.wav
192,192,237417,1,0,0:0:0:50:finish.wav
448,192,237417,1,0,0:0:0:0:
192,192,237682,1,0,0:0:0:60:drum.wav
320,192,237682,1,0,0:0:0:50:finish.wav
448,192,237682,1,0,0:0:0:0:
64,192,237858,1,0,0:0:0:60:drum.wav
192,192,237858,1,0,0:0:0:50:finish.wav
320,192,237858,1,0,0:0:0:0:
448,192,238035,1,0,0:0:0:0:
320,192,238123,1,0,0:0:0:50:snare.wav
64,192,238211,1,0,0:0:0:50:snare.wav
192,192,238211,1,0,0:0:0:0:
320,192,238299,1,0,0:0:0:50:snare.wav
448,192,238299,1,0,0:0:0:0:
64,192,238387,1,0,0:0:0:0:
192,192,238446,1,0,0:0:0:0:
320,192,238505,1,0,0:0:0:0:
64,192,238564,1,0,0:0:0:60:drum.wav
448,192,238564,1,0,0:0:0:50:finish.wav
64,192,238829,1,0,0:0:0:60:drum.wav
320,192,238829,1,0,0:0:0:50:finish.wav
448,192,238829,1,0,0:0:0:0:
64,192,239093,1,0,0:0:0:60:drum.wav
192,192,239093,1,0,0:0:0:50:finish.wav
448,192,239093,1,0,0:0:0:0:
64,192,239270,1,0,0:0:0:60:drum.wav
192,192,239270,1,0,0:0:0:50:finish.wav
448,192,239270,1,0,0:0:0:0:
