osu file format v14

[General]
AudioFilename: Spring Dragon.mp3
AudioLeadIn: 0
PreviewTime: 32246
Countdown: 0
SampleSet: None
StackLeniency: 1
Mode: 2
LetterboxInBreaks: 0
WidescreenStoryboard: 0

[Editor]
DistanceSpacing: 0.8
BeatDivisor: 4
GridSize: 8
TimelineZoom: 3.3

[Metadata]
Title:Spring Dragon
TitleUnicode:春竜 ~Haryu~
Artist:Azu
ArtistUnicode:あず♪
Creator:Mwallx
Version:Test2
Source:太鼓の達人
Tags:竜シリーズ dragon series taiko no tatsujin 太鼓达人 太鼓達人 春龙 春龍 chun long Murutattack mwalls ho
BeatmapID:2733152
BeatmapSetID:290194

[Difficulty]
HPDrainRate:5
CircleSize:4
OverallDifficulty:9.5
ApproachRate:9.5
SliderMultiplier:2.1
SliderTickRate:2

[Events]
//Background and Video events
0,0,"BG.jpg",0,0
//Break Periods
//Storyboard Layer 0 (Background)
//Storyboard Layer 1 (Fail)
//Storyboard Layer 2 (Pass)
//Storyboard Layer 3 (Foreground)
//Storyboard Layer 4 (Overlay)
//Storyboard Sound Samples

[TimingPoints]
697,275.229357798165,4,2,0,20,1,0
697,-166.666666666667,4,2,0,10,0,0
4722,-166.666666666667,4,2,1,100,0,1
4859,-166.666666666667,4,2,0,5,0,1
4963,-166.666666666667,4,2,0,30,0,1
5135,-166.666666666667,4,2,1,100,0,0
5238,-133.333333333333,4,2,0,30,0,0
6924,-133.333333333333,4,2,1,100,0,1
7268,-133.333333333333,4,2,0,5,0,1
7336,-133.333333333333,4,2,1,100,0,0
7474,-133.333333333333,4,2,0,30,0,0
8850,-66.6666666666667,4,2,0,30,0,0
9125,-100,4,2,1,100,0,1
9469,-100,4,2,0,5,0,1
9538,-100,4,2,1,100,0,0
9676,-133.333333333333,4,2,0,30,0,0
11327,-166.666666666667,4,2,1,100,0,1
11706,-166.666666666667,4,2,0,5,0,1
11740,-166.666666666667,4,2,1,100,0,1
12119,-166.666666666667,4,2,0,5,0,1
12153,-166.666666666667,4,2,1,100,0,1
12531,-166.666666666667,4,2,0,5,0,1
12566,-166.666666666667,4,2,1,100,0,1
12944,-166.666666666667,4,2,0,5,0,1
12979,-166.666666666667,4,2,1,100,0,1
13219,-100,4,2,0,5,0,1
13254,-100,4,2,1,100,0,1
13391,-100,4,2,1,5,0,1
13529,-100,4,2,1,100,0,0
13598,-100,4,2,0,30,0,0
14081,275.229357798165,4,2,0,30,1,0
14081,-100,4,2,0,30,0,0
16007,-100,4,2,0,60,0,0
16145,-100,4,2,0,30,0,0
16558,-100,4,2,0,60,0,0
16695,-100,4,2,0,30,0,0
17108,-100,4,2,0,60,0,0
17246,-100,4,2,0,30,0,0
17658,-100,4,2,0,60,0,0
17934,-100,4,2,0,5,0,0
18209,-100,4,2,0,60,0,0
18347,-100,4,2,0,30,0,0
18759,-100,4,2,0,60,0,0
18897,-100,4,2,0,30,0,0
19310,-100,4,2,0,60,0,0
19447,-100,4,2,0,5,0,0
19585,-100,4,2,0,30,0,0
19860,-100,4,2,0,60,0,0
20136,-100,4,2,0,5,0,0
20273,-100,4,2,0,30,0,0
20411,-100,4,2,0,60,0,0
20548,-100,4,2,0,30,0,0
20961,-100,4,2,0,60,0,0
21099,-100,4,2,0,30,0,0
21512,-100,4,2,0,60,0,0
21649,-100,4,2,0,30,0,0
22062,-100,4,2,0,60,0,0
22200,-100,4,2,0,30,0,0
22613,-100,4,2,0,60,0,0
22750,-100,4,2,0,30,0,0
23163,-100,4,2,0,60,0,0
23369,-100,4,2,0,5,0,0
23438,-100,4,2,0,30,0,0
23714,-100,4,2,0,60,0,0
23851,-100,4,2,0,5,0,0
23989,-100,4,2,0,30,0,0
24264,-100,4,2,0,60,0,0
24402,-100,4,2,0,30,0,0
24677,-100,4,2,0,5,0,0
24814,-100,4,2,0,60,0,0
24952,-100,4,2,0,30,0,0
25227,-100,4,2,0,5,0,0
25365,-100,4,2,0,60,0,0
25503,-100,4,2,0,30,0,0
25778,-100,4,2,0,5,0,0
25915,-100,4,2,0,60,0,0
25984,-100,4,2,0,30,0,0
26466,-100,4,2,0,60,0,0
26603,-100,4,2,0,30,0,0
26879,-100,4,2,0,5,0,0
27016,-100,4,2,0,60,0,0
27154,-100,4,2,0,30,0,0
27429,-100,4,2,0,5,0,0
27567,-100,4,2,0,60,0,0
27704,-100,4,2,0,30,0,0
27980,-100,4,2,0,5,0,0
28117,-100,4,2,0,60,0,0
28186,-100,4,2,0,30,0,0
28668,-100,4,2,0,60,0,0
28805,-100,4,2,0,30,0,0
29080,-100,4,2,0,5,0,0
29218,-100,4,2,0,60,0,0
29356,-100,4,2,0,30,0,0
29631,-100,4,2,0,5,0,0
29769,-100,4,2,0,60,0,0
29906,-100,4,2,0,30,0,0
30319,-100,4,2,0,60,0,0
30388,-100,4,2,0,30,0,0
30869,-100,4,2,0,60,0,0
31007,-100,4,2,0,30,0,0
31420,-100,4,2,0,60,0,0
31512,-100,4,2,0,30,0,0
31970,-100,4,2,0,60,0,0
32062,-100,4,2,0,30,0,0
32521,-100,4,2,0,60,0,0
32613,-100,4,2,0,5,0,0
32796,-100,4,2,0,30,0,0
33071,-100,4,2,0,60,0,0
33163,-100,4,2,0,30,0,0
33347,-100,4,2,0,30,0,1
33622,-100,4,2,0,60,0,1
33714,-100,4,2,0,30,0,1
34172,-100,4,2,0,60,0,1
34264,-100,4,2,0,30,0,1
34723,-100,4,2,0,60,0,1
34814,-100,4,2,0,30,0,1
35273,-100,4,2,0,60,0,1
35365,-100,4,2,0,30,0,1
35824,-100,4,2,0,60,0,1
35915,-100,4,2,0,30,0,1
36374,-100,4,2,0,60,0,1
36466,-100,4,2,0,30,0,1
36925,-100,4,2,0,60,0,1
37016,-100,4,2,0,30,0,1
37475,-100,4,2,0,60,0,1
37567,-100,4,2,0,30,0,1
38025,-100,4,2,0,60,0,1
38117,-100,4,2,0,30,0,1
38576,-100,4,2,0,60,0,1
38668,-100,4,2,0,30,0,1
39126,-100,4,2,0,60,0,1
39218,-100,4,2,0,30,0,1
39677,-100,4,2,0,60,0,1
39769,-100,4,2,0,30,0,1
40227,-100,4,2,0,60,0,1
40319,-100,4,2,0,30,0,1
40778,-100,4,2,0,60,0,1
40869,-100,4,2,0,30,0,1
41328,-100,4,2,0,60,0,1
41328,-100,4,2,0,60,0,1
41420,-50,4,2,0,30,0,1
41833,-50,4,2,0,5,0,1
41879,-50,4,2,0,60,0,1
41925,-50,4,2,0,5,0,1
41970,-50,4,2,0,30,0,1
42154,-200,4,2,1,100,0,1
42521,-200,4,2,0,5,0,1
42567,-200,4,2,1,100,0,1
42934,-200,4,2,0,5,0,1
42980,-200,4,2,1,100,0,1
43209,-200,4,2,0,5,0,1
43255,-200,4,2,1,100,0,1
43484,-200,4,2,0,5,0,1
43530,-200,4,2,1,100,0,1
43759,-200,4,2,0,5,0,1
43805,-200,4,2,1,100,0,1
44172,-200,4,2,0,5,0,1
44218,-200,4,2,1,100,0,1
44585,-200,4,2,0,5,0,1
44631,-200,4,2,1,100,0,1
44860,-200,4,2,0,5,0,1
44906,-200,4,2,1,100,0,1
45136,-133.333333333333,4,2,0,5,0,1
45181,-133.333333333333,4,2,1,100,0,1
45548,-133.333333333333,4,2,0,5,0,1
45594,-133.333333333333,4,2,1,100,0,1
45961,-133.333333333333,4,2,0,5,0,1
46007,-133.333333333333,4,2,1,100,0,1
46236,-133.333333333333,4,2,0,5,0,1
46282,-133.333333333333,4,2,1,100,0,1
46512,-133.333333333333,4,2,0,5,0,1
46558,-133.333333333333,4,2,1,100,0,1
46787,-133.333333333333,4,2,0,5,0,1
46833,-133.333333333333,4,2,1,100,0,1
47200,-133.333333333333,4,2,0,5,0,1
47246,-133.333333333333,4,2,1,100,0,1
47613,-133.333333333333,4,2,0,5,0,1
47658,-133.333333333333,4,2,1,100,0,1
47888,-133.333333333333,4,2,0,5,0,1
47934,-133.333333333333,4,2,1,100,0,1
48163,-100,4,2,0,5,0,1
48209,-100,4,2,1,100,0,1
48347,-100,4,2,0,5,0,1
48622,-100,4,2,1,100,0,1
48759,-100,4,2,0,5,0,1
49035,-100,4,2,1,100,0,1
49172,-100,4,2,0,5,0,1
49310,-100,4,2,1,100,0,1
49447,-100,4,2,0,5,0,1
49585,-100,4,2,1,100,0,1
49723,-100,4,2,0,5,0,1
49860,-100,4,2,1,100,0,1
49998,-100,4,2,0,5,0,1
50273,-100,4,2,1,100,0,1
50411,-100,4,2,0,5,0,1
50686,-100,4,2,1,100,0,1
50824,-100,4,2,0,5,0,1
50961,-100,4,2,1,100,0,1
55090,-100,4,2,1,100,0,0
55915,-100,4,2,0,30,0,0
79998,-50,4,2,0,30,0,0
80136,-100,4,2,1,100,0,1
80365,-100,4,2,0,5,0,1
80411,-100,4,2,1,100,0,1
80640,-100,4,2,0,5,0,0
80686,-100,4,2,1,100,0,0
81236,-100,4,2,0,30,0,0
88943,-100,4,2,2,60,0,0
93347,-66.6666666666667,4,2,0,30,0,0
93622,-66.6666666666667,4,2,0,60,0,0
93759,-66.6666666666667,4,2,0,30,0,0
94172,-66.6666666666667,4,2,0,60,0,0
94310,-66.6666666666667,4,2,0,30,0,0
94723,-66.6666666666667,4,2,0,60,0,0
94792,-66.6666666666667,4,2,0,30,0,0
95273,-66.6666666666667,4,2,0,60,0,0
95411,-66.6666666666667,4,2,0,30,0,0
95824,-66.6666666666667,4,2,0,60,0,0
95915,-66.6666666666667,4,2,0,30,0,0
96374,-66.6666666666667,4,2,0,60,0,0
96466,-66.6666666666667,4,2,0,30,0,0
96925,-66.6666666666667,4,2,0,60,0,0
97016,-66.6666666666667,4,2,0,30,0,0
97475,-66.6666666666667,4,2,0,60,0,0
97567,-66.6666666666667,4,2,0,30,0,0
97750,-66.6666666666667,4,2,2,60,0,0
102154,-66.6666666666667,4,2,0,30,0,0
102429,-66.6666666666667,4,2,0,60,0,0
102704,-66.6666666666667,4,2,0,30,0,0
102980,-66.6666666666667,4,2,0,60,0,0
103117,-66.6666666666667,4,2,0,30,0,0
103530,-66.6666666666667,4,2,0,60,0,0
103599,-66.6666666666667,4,2,0,30,0,0
104080,-66.6666666666667,4,2,0,60,0,0
104218,-66.6666666666667,4,2,0,30,0,0
104630,-66.6666666666667,4,2,0,60,0,0
104723,-66.6666666666667,4,2,0,30,0,0
105181,-66.6666666666667,4,2,0,60,0,0
105273,-66.6666666666667,4,2,0,30,0,0
106558,-166.666666666667,4,2,0,30,0,1
110824,-100,4,2,0,30,0,1
125548,-100,4,2,0,30,0,0

[Colours]
Combo1 : 255,182,47
Combo2 : 52,203,74
Combo3 : 32,163,225

[HitObjects]
394,220,697,5,0,0:0:0:0:
268,220,834,1,0,0:0:0:0:
449,320,972,1,0,0:0:0:0:
323,320,1110,1,0,0:0:0:0:
512,320,1248,5,0,0:0:0:0:
386,320,1385,1,0,0:0:0:0:
449,320,1523,1,0,0:0:0:0:
323,320,1660,1,0,0:0:0:0:
457,220,1798,1,0,0:0:0:0:
331,220,1936,1,0,0:0:0:0:
394,220,2073,1,0,0:0:0:0:
268,220,2210,1,0,0:0:0:0:
402,120,2348,1,0,0:0:0:0:
276,120,2486,1,0,0:0:0:0:
339,120,2624,1,0,0:0:0:0:
213,120,2760,1,0,0:0:0:0:
347,320,2899,5,0,0:0:0:0:
221,320,3036,1,0,0:0:0:0:
284,320,3174,1,0,0:0:0:0:
158,320,3311,1,0,0:0:0:0:
292,220,3450,1,0,0:0:0:0:
166,220,3587,1,0,0:0:0:0:
229,220,3725,1,0,0:0:0:0:
103,220,3861,1,0,0:0:0:0:
237,120,4000,1,0,0:0:0:0:
111,120,4137,1,0,0:0:0:0:
174,120,4275,1,0,0:0:0:0:
48,120,4412,1,0,0:0:0:0:
184,227,4481,5,0,0:0:0:0:
205,204,4549,1,0,0:0:0:0:
9,202,4619,1,0,0:0:0:0:
30,179,4687,1,0,0:0:0:0:
368,240,4722,2,8,L|432:240,1,62.9999980773926
512,176,4963,1,0,0:0:0:0:
464,176,5066,1,0,0:0:0:0:
0,176,5135,1,8,0:0:0:0:
143,112,5238,6,0,L|64:112,1,78.7500030040742
304,112,5514,2,0,L|224:112,1,78.7500030040742
464,112,5789,2,0,L|385:112,1,78.7500030040742
18,304,6064,2,0,L|96:304,1,78.7500030040742
256,304,6339,2,0,L|178:304,1,78.7500030040742
354,304,6614,2,0,L|432:304,1,78.7500030040742
368,240,6821,5,0,0:0:0:0:
80,256,6924,2,8,P|32:192|100:111,1,196.875007510186
464,160,7336,1,8,0:0:0:0:
320,128,7474,6,0,L|432:128,1,78.7500030040742
160,64,7749,2,0,L|256:64,1,78.7500030040742
32,144,8024,2,0,L|128:144,1,78.7500030040742
434,305,8300,2,0,L|530:305,1,78.7500030040742
275,241,8575,2,0,L|354:241,1,78.7500030040742
182,309,8850,2,0,P|89:240|83:162,1,196.875007510186
20,129,9057,1,0,0:0:0:0:
256,208,9125,6,8,L|528:208,1,262.5
256,144,9538,1,8,0:0:0:0:
27,99,9676,2,0,L|105:99,1,78.7500030040742
320,112,9951,2,0,L|432:112,1,78.7500030040742
128,240,10226,2,0,L|224:240,1,78.7500030040742
512,288,10502,2,0,L|416:288,1,78.7500030040742
209,320,10777,2,0,L|288:320,1,78.7500030040742
71,307,11052,1,0,0:0:0:0:
32,304,11121,1,0,0:0:0:0:
160,240,11190,1,0,0:0:0:0:
136,208,11258,1,0,0:0:0:0:
336,352,11328,6,8,P|448:320|480:272,1,173.24999471283
317,256,11741,2,8,L|144:256,1,173.24999471283
400,192,12153,2,8,P|449:96|417:80,1,173.24999471283
32,160,12566,2,8,P|122:102|187:111,1,173.24999471283
352,288,12979,2,8,B|416:288|416:288|368:288,1,110.249996635437
112,304,13254,2,8,P|59:302|0:304,2,105
432,208,13598,5,0,0:0:0:0:
512,208,13667,1,0,0:0:0:0:
422,208,13735,1,0,0:0:0:0:
502,208,13804,1,0,0:0:0:0:
412,208,13872,1,0,0:0:0:0:
492,208,13942,1,0,0:0:0:0:
402,208,14010,1,0,0:0:0:0:
240,208,14080,5,0,0:0:0:0:
80,208,14149,5,0,0:0:0:0:
0,208,14218,1,0,0:0:0:0:
90,208,14286,1,0,0:0:0:0:
10,208,14355,1,0,0:0:0:0:
100,208,14423,1,0,0:0:0:0:
20,208,14493,1,0,0:0:0:0:
110,208,14561,1,0,0:0:0:0:
240,208,14631,5,0,0:0:0:0:
432,208,14700,5,0,0:0:0:0:
512,208,14769,1,0,0:0:0:0:
422,208,14837,1,0,0:0:0:0:
502,208,14906,1,0,0:0:0:0:
412,208,14974,1,0,0:0:0:0:
492,208,15044,1,0,0:0:0:0:
402,208,15112,1,0,0:0:0:0:
336,152,15181,5,0,0:0:0:0:
176,152,15250,1,0,0:0:0:0:
331,152,15319,1,0,0:0:0:0:
171,152,15388,1,0,0:0:0:0:
326,152,15457,1,0,0:0:0:0:
166,152,15526,1,0,0:0:0:0:
336,152,15594,1,0,0:0:0:0:
176,152,15663,1,0,0:0:0:0:
48,160,15732,5,0,0:0:0:0:
0,64,15869,1,0,0:0:0:0:
264,328,16007,1,10,0:0:0:0:
368,264,16145,2,0,L|321:169,1,105
152,160,16420,1,0,0:0:0:0:
512,168,16558,1,10,0:0:0:0:
338,35,16695,2,0,L|400:120,1,105
280,328,16970,1,0,0:0:0:0:
400,328,17108,1,8,0:0:0:0:
248,240,17246,1,0,0:0:0:0:
432,240,17383,1,0,0:0:0:0:
280,160,17521,1,0,0:0:0:0:
472,72,17658,2,8,L|256:72,1,210
392,144,18071,5,0,0:0:0:0:
16,96,18209,1,8,0:0:0:0:
144,296,18347,2,0,L|272:296,1,105
128,208,18622,1,0,0:0:0:0:
424,240,18759,1,8,0:0:0:0:
312,240,18897,1,0,0:0:0:0:
80,144,19035,2,0,L|184:144,1,105
416,64,19310,2,8,L|304:64,1,105
192,320,19585,2,0,L|320:320,1,105
40,312,19860,2,8,P|64:208|160:208,1,210
304,168,20273,5,0,0:0:0:0:
184,112,20411,1,8,0:0:0:0:
432,248,20548,2,0,P|440:112|368:136,1,262.5
88,136,20961,1,8,0:0:0:0:
232,320,21099,2,0,L|232:208,1,105
496,264,21374,1,0,0:0:0:0:
391,264,21512,1,8,0:0:0:0:
256,104,21649,2,0,L|384:104,1,105
480,104,21925,1,0,0:0:0:0:
104,104,22062,1,8,0:0:0:0:
256,208,22200,2,0,L|328:208,2,52.5
40,224,22475,1,0,0:0:0:0:
192,128,22613,1,8,0:0:0:0:
464,280,22750,2,0,B|368:240|368:240|360:168,1,157.5
141,297,23025,2,0,P|13:225|5:105,1,262.5
45,264,23163,1,8,0:0:0:0:
295,232,23438,5,0,0:0:0:0:
455,180,23576,1,0,0:0:0:0:
116,172,23714,1,0,0:0:0:0:
254,141,23851,1,0,0:0:0:0:
36,299,23989,1,0,0:0:0:0:
11,275,24034,1,0,0:0:0:0:
484,269,24080,1,0,0:0:0:0:
506,242,24126,1,0,0:0:0:0:
509,210,24172,1,0,0:0:0:0:
239,186,24264,1,8,0:0:0:0:
64,80,24402,1,0,0:0:0:0:
86,65,24436,1,0,0:0:0:0:
111,57,24470,1,0,0:0:0:0:
392,56,24539,5,0,0:0:0:0:
296,184,24677,2,8,L|184:184,1,105
120,48,24952,1,0,0:0:0:0:
392,56,25090,1,0,0:0:0:0:
296,184,25227,2,8,L|184:184,1,105
120,48,25502,1,0,0:0:0:0:
392,56,25640,1,0,0:0:0:0:
496,296,25778,2,8,L|376:296,1,105
232,376,25985,1,0,0:0:0:0:
138,333,26053,1,0,0:0:0:0:
88,264,26122,1,0,0:0:0:0:
156,195,26191,1,0,0:0:0:0:
80,152,26259,1,0,0:0:0:0:
0,96,26328,1,0,0:0:0:0:
78,56,26397,1,0,0:0:0:0:
176,16,26466,1,8,0:0:0:0:
368,88,26603,1,0,0:0:0:0:
96,50,26741,5,0,0:0:0:0:
192,288,26879,2,8,L|296:288,1,105
368,88,27154,1,0,0:0:0:0:
96,50,27292,1,0,0:0:0:0:
192,288,27429,2,8,L|296:288,1,105
368,88,27704,1,0,0:0:0:0:
96,50,27842,1,0,0:0:0:0:
0,264,27980,2,8,L|128:264,1,105
312,295,28186,1,0,0:0:0:0:
413,317,28255,1,0,0:0:0:0:
477,261,28323,1,0,0:0:0:0:
421,189,28392,1,0,0:0:0:0:
333,157,28461,1,0,0:0:0:0:
357,77,28530,1,0,0:0:0:0:
453,61,28599,1,0,0:0:0:0:
512,135,28668,1,8,0:0:0:0:
315,189,28805,1,0,0:0:0:0:
96,232,28943,5,0,0:0:0:0:
192,288,29080,2,8,L|296:288,1,105
368,232,29356,1,0,0:0:0:0:
96,232,29493,1,0,0:0:0:0:
192,288,29631,2,8,L|296:288,1,105
368,232,29906,1,0,0:0:0:0:
144,352,30044,5,0,0:0:0:0:
64,352,30113,1,0,0:0:0:0:
16,304,30181,1,0,0:0:0:0:
104,288,30250,1,0,0:0:0:0:
176,264,30319,1,8,0:0:0:0:
96,232,30388,1,0,0:0:0:0:
0,216,30457,1,0,0:0:0:0:
80,176,30525,1,0,0:0:0:0:
176,168,30594,1,0,0:0:0:0:
152,112,30663,1,0,0:0:0:0:
64,112,30732,1,0,0:0:0:0:
0,64,30801,1,0,0:0:0:0:
104,32,30869,1,8,0:0:0:0:
240,88,31007,1,0,0:0:0:0:
408,336,31145,5,0,0:0:0:0:
467,302,31236,1,0,0:0:0:0:
488,236,31328,1,0,0:0:0:0:
200,320,31420,1,8,0:0:0:0:
140,286,31511,1,0,0:0:0:0:
119,220,31603,1,0,0:0:0:0:
312,320,31695,1,0,0:0:0:0:
371,286,31786,1,0,0:0:0:0:
392,220,31878,1,0,0:0:0:0:
104,336,31970,1,8,0:0:0:0:
44,302,32061,1,0,0:0:0:0:
23,236,32153,1,0,0:0:0:0:
288,248,32246,6,0,L|360:248,2,70
96,128,32521,2,8,L|24:128,2,70
352,184,32796,1,0,0:0:0:0:
464,184,32888,1,0,0:0:0:0:
352,184,32980,1,0,0:0:0:0:
176,48,33071,1,8,0:0:0:0:
64,48,33163,1,0,0:0:0:0:
176,48,33255,1,0,0:0:0:0:
424,328,33347,5,0,0:0:0:0:
354,328,33438,1,0,0:0:0:0:
284,328,33530,1,0,0:0:0:0:
16,256,33622,1,8,0:0:0:0:
86,256,33713,1,0,0:0:0:0:
156,256,33805,1,0,0:0:0:0:
400,278,33897,1,0,0:0:0:0:
456,184,33989,1,0,0:0:0:0:
400,89,34080,1,0,0:0:0:0:
64,280,34172,1,8,0:0:0:0:
8,186,34264,1,0,0:0:0:0:
64,91,34356,1,0,0:0:0:0:
304,288,34447,5,0,0:0:0:0:
359,247,34538,1,0,0:0:0:0:
373,180,34630,1,0,0:0:0:0:
96,208,34723,1,8,0:0:0:0:
40,168,34814,1,0,0:0:0:0:
25,101,34906,1,0,0:0:0:0:
496,288,34998,1,0,0:0:0:0:
491,220,35089,1,0,0:0:0:0:
435,183,35181,1,0,0:0:0:0:
104,112,35273,1,8,0:0:0:0:
107,44,35364,1,0,0:0:0:0:
163,7,35456,1,0,0:0:0:0:
490,24,35548,5,0,0:0:0:0:
400,24,35640,1,0,0:0:0:0:
310,24,35732,1,0,0:0:0:0:
400,24,35824,1,8,0:0:0:0:
490,24,35915,1,0,0:0:0:0:
400,24,36007,1,0,0:0:0:0:
12,352,36099,1,0,0:0:0:0:
102,352,36191,1,0,0:0:0:0:
192,352,36283,1,0,0:0:0:0:
102,352,36375,1,8,0:0:0:0:
12,352,36466,1,0,0:0:0:0:
102,352,36558,1,0,0:0:0:0:
402,96,36649,5,0,0:0:0:0:
312,96,36741,1,0,0:0:0:0:
222,96,36833,1,0,0:0:0:0:
312,96,36925,1,8,0:0:0:0:
402,96,37016,1,0,0:0:0:0:
312,96,37108,1,0,0:0:0:0:
70,280,37200,1,0,0:0:0:0:
160,280,37292,1,0,0:0:0:0:
250,280,37384,1,0,0:0:0:0:
160,280,37476,1,8,0:0:0:0:
70,280,37567,1,0,0:0:0:0:
160,280,37659,1,0,0:0:0:0:
496,176,37750,5,0,0:0:0:0:
406,176,37842,1,0,0:0:0:0:
316,176,37934,1,0,0:0:0:0:
8,40,38025,1,8,0:0:0:0:
288,40,38117,1,0,0:0:0:0:
384,40,38209,1,0,0:0:0:0:
186,184,38301,5,0,0:0:0:0:
96,184,38393,1,0,0:0:0:0:
6,184,38485,1,0,0:0:0:0:
96,184,38577,1,8,0:0:0:0:
186,184,38668,1,0,0:0:0:0:
276,184,38760,1,0,0:0:0:0:
490,24,38851,5,0,0:0:0:0:
400,24,38943,1,0,0:0:0:0:
310,24,39035,1,0,0:0:0:0:
400,24,39127,1,8,0:0:0:0:
490,24,39218,1,0,0:0:0:0:
400,24,39310,1,0,0:0:0:0:
112,320,39402,1,0,0:0:0:0:
46,300,39493,1,0,0:0:0:0:
8,243,39585,1,0,0:0:0:0:
311,220,39677,1,8,0:0:0:0:
245,200,39768,1,0,0:0:0:0:
207,143,39860,1,0,0:0:0:0:
432,344,39952,1,0,0:0:0:0:
474,293,40043,1,0,0:0:0:0:
441,236,40135,1,0,0:0:0:0:
152,216,40227,5,8,0:0:0:0:
368,280,40319,1,0,0:0:0:0:
419,234,40410,1,0,0:0:0:0:
435,167,40502,1,0,0:0:0:0:
411,102,40594,1,0,0:0:0:0:
354,63,40685,1,0,0:0:0:0:
88,216,40778,5,8,0:0:0:0:
302,88,40869,1,0,0:0:0:0:
392,88,40961,1,0,0:0:0:0:
482,88,41053,1,0,0:0:0:0:
392,88,41145,1,0,0:0:0:0:
302,88,41236,1,0,0:0:0:0:
24,216,41328,5,8,0:0:0:0:
256,192,41420,1,0,0:0:0:0:
440,192,41466,2,0,L|512:192,2,70
256,192,41603,1,0,0:0:0:0:
72,192,41649,2,0,L|0:192,2,70
256,192,41787,1,0,0:0:0:0:
440,192,41833,2,8,L|512:192,2,70
510,192,41879,1,0,0:0:0:0:
256,192,41970,1,0,0:0:0:0:
72,192,42016,2,0,L|0:192,2,70
256,256,42154,6,8,L|320:256|240:256,1,140
16,320,42567,2,8,L|160:320,1,140
384,320,42980,2,8,L|480:320,1,87.5
112,96,43255,2,8,L|16:96,1,87.5
320,208,43530,2,8,L|416:208,1,87.5
48,224,43805,2,8,L|192:224,1,140
432,296,44218,2,8,B|512:296|512:296|448:296,1,140
288,288,44631,2,8,L|200:288,1,87.5
0,224,44906,2,8,L|88:224,1,87.5
192,224,45181,6,8,L|416:224,1,210.000008010865
512,312,45594,2,8,L|288:312,1,210.000008010865
192,328,46007,2,8,P|104:304|80:256,1,131.25000500679
320,328,46282,2,8,P|408:304|432:256,1,131.25000500679
192,328,46558,2,8,P|104:304|80:256,1,131.25000500679
224,224,46833,2,8,P|296:144|408:144,1,210.000008010865
512,80,47246,2,8,P|368:24|304:48,1,210.000008010865
208,48,47658,2,8,P|112:72|80:112,1,131.25000500679
208,160,47934,2,8,P|304:208|312:240,1,131.25000500679
40,312,48209,6,8,L|160:312,2,105
384,272,48622,2,8,L|280:272,2,105
152,224,49035,2,8,L|80:136,1,105
416,200,49310,2,8,L|488:80,1,105
64,136,49585,2,8,L|200:136,1,105
497,88,49860,2,8,L|392:88,2,105
71,320,50273,2,8,L|176:320,2,105
408,320,50686,2,8,L|328:240,1,105
64,232,50961,1,8,0:0:0:0:
512,179,51099,1,8,0:0:0:0:
264,96,51236,5,8,0:0:0:0:
104,72,51374,1,0,0:0:0:0:
216,160,51512,1,0,0:0:0:0:
64,176,51649,1,8,0:0:0:0:
256,248,51787,1,0,0:0:0:0:
128,288,51925,1,0,0:0:0:0:
296,320,52062,1,8,0:0:0:0:
448,264,52200,1,0,0:0:0:0:
304,200,52337,1,8,0:0:0:0:
464,144,52475,1,0,0:0:0:0:
280,96,52613,1,8,0:0:0:0:
440,96,52750,1,0,0:0:0:0:
24,104,52888,1,8,0:0:0:0:
168,88,53025,1,0,0:0:0:0:
8,288,53163,6,8,L|8:176,1,105
80,184,53369,1,0,0:0:0:0:
256,192,53438,1,8,0:0:0:0:
184,272,53576,1,0,0:0:0:0:
504,288,53714,6,8,L|504:176,1,105
432,184,53920,1,0,0:0:0:0:
256,192,53989,1,8,0:0:0:0:
328,272,54126,1,0,0:0:0:0:
8,288,54264,6,8,L|8:176,1,105
80,184,54470,1,0,0:0:0:0:
256,192,54539,1,8,0:0:0:0:
286,175,54584,1,0,0:0:0:0:
304,145,54630,1,0,0:0:0:0:
307,111,54676,1,0,0:0:0:0:
292,79,54722,1,0,0:0:0:0:
264,59,54768,1,0,0:0:0:0:
8,288,54814,2,8,L|8:176,1,105
80,184,55020,1,0,0:0:0:0:
256,192,55090,1,8,0:0:0:0:
256,192,55915,5,0,0:0:0:0:
256,192,56053,1,0,0:0:0:0:
256,192,56191,1,0,0:0:0:0:
256,192,56603,1,0,0:0:0:0:
128,192,57016,5,0,0:0:0:0:
384,192,57292,1,0,0:0:0:0:
128,192,57567,1,0,0:0:0:0:
384,192,57843,1,0,0:0:0:0:
128,192,58117,1,0,0:0:0:0:
384,192,58393,1,0,0:0:0:0:
128,192,58668,1,0,0:0:0:0:
384,192,58943,1,0,0:0:0:0:
128,192,59218,1,0,0:0:0:0:
384,192,59493,1,0,0:0:0:0:
256,192,59631,1,0,0:0:0:0:
384,192,59769,1,0,0:0:0:0:
256,192,59906,1,0,0:0:0:0:
384,192,60044,1,0,0:0:0:0:
128,192,60319,5,0,0:0:0:0:
384,192,60594,1,0,0:0:0:0:
128,192,60869,1,0,0:0:0:0:
384,192,61145,1,0,0:0:0:0:
128,192,61420,1,0,0:0:0:0:
256,192,61558,1,0,0:0:0:0:
128,192,61695,1,0,0:0:0:0:
256,192,61833,1,0,0:0:0:0:
128,192,61970,1,0,0:0:0:0:
384,192,62246,1,0,0:0:0:0:
128,192,62521,1,0,0:0:0:0:
384,192,62796,1,0,0:0:0:0:
128,192,63071,1,0,0:0:0:0:
192,192,63140,1,0,0:0:0:0:
256,192,63209,1,0,0:0:0:0:
384,192,63347,1,0,0:0:0:0:
128,192,63622,5,0,0:0:0:0:
384,192,63897,1,0,0:0:0:0:
128,192,64172,1,0,0:0:0:0:
384,192,64447,1,0,0:0:0:0:
128,192,64723,1,0,0:0:0:0:
256,192,64860,1,0,0:0:0:0:
128,192,64998,1,0,0:0:0:0:
256,192,65136,1,0,0:0:0:0:
128,192,65273,1,0,0:0:0:0:
384,192,65548,1,0,0:0:0:0:
128,192,65824,1,0,0:0:0:0:
384,192,66099,1,0,0:0:0:0:
128,192,66374,1,0,0:0:0:0:
192,192,66443,1,0,0:0:0:0:
256,192,66512,1,0,0:0:0:0:
320,192,66580,1,0,0:0:0:0:
384,192,66649,1,0,0:0:0:0:
128,192,66925,5,0,0:0:0:0:
384,192,67200,1,0,0:0:0:0:
128,192,67475,1,0,0:0:0:0:
384,192,67750,1,0,0:0:0:0:
256,192,67888,1,0,0:0:0:0:
384,192,68025,1,0,0:0:0:0:
256,192,68163,1,0,0:0:0:0:
384,192,68301,1,0,0:0:0:0:
128,192,68576,1,0,0:0:0:0:
384,192,68851,1,0,0:0:0:0:
256,192,68989,1,0,0:0:0:0:
384,192,69126,1,0,0:0:0:0:
128,192,69402,1,0,0:0:0:0:
384,192,69677,1,0,0:0:0:0:
256,192,69814,1,0,0:0:0:0:
384,192,69952,1,0,0:0:0:0:
128,192,70227,5,0,0:0:0:0:
384,192,70503,1,0,0:0:0:0:
256,192,70640,1,0,0:0:0:0:
384,192,70778,1,0,0:0:0:0:
128,192,71053,1,0,0:0:0:0:
384,192,71191,1,0,0:0:0:0:
128,192,71328,1,0,0:0:0:0:
384,192,71466,1,0,0:0:0:0:
128,192,71603,1,0,0:0:0:0:
384,192,71879,1,0,0:0:0:0:
128,192,72154,1,0,0:0:0:0:
256,192,72292,1,0,0:0:0:0:
128,192,72429,1,0,0:0:0:0:
384,192,72704,1,0,0:0:0:0:
128,192,72842,1,0,0:0:0:0:
384,192,72980,1,0,0:0:0:0:
128,192,73117,1,0,0:0:0:0:
384,192,73255,1,0,0:0:0:0:
128,192,73392,1,0,0:0:0:0:
384,192,73530,5,0,0:0:0:0:
128,192,73805,1,0,0:0:0:0:
256,192,73943,1,0,0:0:0:0:
128,192,74080,1,0,0:0:0:0:
384,192,74356,1,0,0:0:0:0:
128,192,74493,1,0,0:0:0:0:
384,192,74631,1,0,0:0:0:0:
128,192,74769,1,0,0:0:0:0:
384,192,74906,1,0,0:0:0:0:
128,192,75044,1,0,0:0:0:0:
384,192,75181,5,0,0:0:0:0:
128,192,75457,1,0,0:0:0:0:
256,192,75594,1,0,0:0:0:0:
128,192,75732,1,0,0:0:0:0:
384,192,76007,1,0,0:0:0:0:
128,192,76282,1,0,0:0:0:0:
384,192,76558,1,0,0:0:0:0:
128,192,76833,5,0,0:0:0:0:
384,192,77108,1,0,0:0:0:0:
256,192,77246,1,0,0:0:0:0:
384,192,77383,1,0,0:0:0:0:
128,192,77658,1,0,0:0:0:0:
384,192,77934,1,0,0:0:0:0:
256,192,78071,1,0,0:0:0:0:
384,192,78209,1,0,0:0:0:0:
128,192,78484,1,0,0:0:0:0:
384,192,78759,1,0,0:0:0:0:
256,192,78897,1,0,0:0:0:0:
384,192,79035,1,0,0:0:0:0:
128,192,79310,1,0,0:0:0:0:
384,192,79585,1,0,0:0:0:0:
128,192,79860,1,0,0:0:0:0:
256,192,79998,2,0,L|424:192,1,140
256,192,80136,2,8,L|80:192,1,175
256,192,80411,2,8,L|432:192,1,175
256,192,80686,1,8,0:0:0:0:
128,80,81236,5,0,0:0:0:0:
400,296,81512,2,0,L|296:296,1,105
128,80,82337,5,0,0:0:0:0:
400,296,82613,2,0,L|296:296,1,105
120,272,83025,6,0,L|192:184,2,105
0,176,83438,2,0,L|40:72,1,105
357,77,83714,2,0,L|320:176,1,105
160,176,83989,2,0,L|200:72,1,105
512,80,84264,2,0,L|474:178,1,105
248,192,84539,6,0,L|144:104,1,105
80,184,84814,1,0,0:0:0:0:
336,192,84952,1,0,0:0:0:0:
80,184,85090,2,0,L|192:304,1,157.5
424,296,85365,2,0,P|468:231|512:144,1,175
191,295,85640,2,0,P|147:230|104:136,1,175
321,295,85915,5,0,0:0:0:0:
419,224,86053,1,0,0:0:0:0:
266,170,86191,1,0,0:0:0:0:
439,316,86328,2,0,L|376:288,1,70
120,216,86466,2,0,P|40:184|16:96,1,175
232,256,86741,6,0,L|344:256,1,105
448,176,87016,1,0,0:0:0:0:
136,256,87154,1,0,0:0:0:0:
448,176,87292,2,0,P|426:111|348:125,1,157.5
64,272,87567,2,0,P|92:191|171:159,1,175
408,255,87842,2,0,P|378:175|299:143,1,175
0,160,88117,2,0,L|192:160,1,157.5
256,256,88392,1,0,0:0:0:0:
364,256,88438,1,0,0:0:0:0:
472,256,88485,1,0,0:0:0:0:
364,256,88531,1,0,0:0:0:0:
256,256,88577,1,0,0:0:0:0:
148,256,88622,1,0,0:0:0:0:
40,256,88669,1,0,0:0:0:0:
148,256,88714,1,0,0:0:0:0:
256,256,88760,1,0,0:0:0:0:
512,195,88943,5,0,0:0:0:0:
24,96,89080,1,0,0:0:0:0:
328,88,89218,1,8,0:0:0:0:
88,152,89356,1,0,0:0:0:0:
480,209,89493,1,0,0:0:0:0:
233,131,89631,1,0,0:0:0:0:
5,173,89769,1,8,0:0:0:0:
320,272,89906,1,0,0:0:0:0:
1,286,90044,1,0,0:0:0:0:
236,195,90181,1,0,0:0:0:0:
512,113,90319,1,8,0:0:0:0:
273,61,90457,1,0,0:0:0:0:
0,248,90594,1,0,0:0:0:0:
386,183,90732,1,0,0:0:0:0:
114,160,90869,1,8,0:0:0:0:
481,325,91007,1,0,0:0:0:0:
240,208,91145,5,0,0:0:0:0:
448,215,91282,1,0,0:0:0:0:
107,111,91420,1,8,0:0:0:0:
328,112,91558,1,0,0:0:0:0:
60,53,91695,1,0,0:0:0:0:
256,0,91833,1,0,0:0:0:0:
454,315,91970,1,8,0:0:0:0:
256,192,92108,1,0,0:0:0:0:
54,301,92246,1,0,0:0:0:0:
256,192,92383,1,0,0:0:0:0:
458,192,92521,1,8,0:0:0:0:
256,192,92658,1,0,0:0:0:0:
41,192,92796,1,0,0:0:0:0:
256,333,92934,1,0,0:0:0:0:
489,60,93071,1,8,0:0:0:0:
0,252,93209,1,0,0:0:0:0:
204,63,93347,6,0,B|356:103|356:103|44:191|44:191|236:223|236:223,1,630.000024032594
204,146,93622,1,8,0:0:0:0:
448,256,94035,1,0,0:0:0:0:
152,256,94172,1,8,0:0:0:0:
376,256,94310,1,0,0:0:0:0:
72,256,94447,1,0,0:0:0:0:
296,247,94585,2,0,B|377:197|472:87|472:87,1,236.250009012223
417,144,94723,1,8,0:0:0:0:
16,160,94860,2,0,B|112:80|112:80|224:64,1,236.250009012223
424,320,95136,2,0,B|400:208|400:208|368:168|368:168|288:144|288:144|216:160|216:160,1,315.000012016297
373,175,95273,1,8,0:0:0:0:
0,192,95548,5,0,0:0:0:0:
35,192,95639,1,0,0:0:0:0:
70,192,95731,1,0,0:0:0:0:
512,192,95824,1,8,0:0:0:0:
477,192,95915,1,0,0:0:0:0:
442,192,96007,1,0,0:0:0:0:
0,192,96099,1,0,0:0:0:0:
56,192,96190,1,0,0:0:0:0:
112,192,96282,1,0,0:0:0:0:
512,192,96374,1,8,0:0:0:0:
456,192,96465,1,0,0:0:0:0:
400,192,96557,1,0,0:0:0:0:
0,192,96649,5,0,0:0:0:0:
77,192,96740,1,0,0:0:0:0:
154,192,96832,1,0,0:0:0:0:
512,192,96925,1,8,0:0:0:0:
435,192,97016,1,0,0:0:0:0:
358,192,97108,1,0,0:0:0:0:
0,192,97200,1,0,0:0:0:0:
98,192,97291,1,0,0:0:0:0:
196,192,97383,1,0,0:0:0:0:
512,192,97475,1,8,0:0:0:0:
414,192,97566,1,0,0:0:0:0:
316,192,97658,1,0,0:0:0:0:
63,82,97750,5,0,0:0:0:0:
260,73,97888,1,0,0:0:0:0:
0,49,98025,1,8,0:0:0:0:
370,312,98163,1,0,0:0:0:0:
144,40,98301,1,0,0:0:0:0:
480,264,98438,1,0,0:0:0:0:
248,232,98576,1,8,0:0:0:0:
32,240,98714,1,0,0:0:0:0:
234,193,98851,1,0,0:0:0:0:
32,240,98989,1,0,0:0:0:0:
273,246,99126,1,8,0:0:0:0:
32,240,99264,1,0,0:0:0:0:
368,240,99402,1,0,0:0:0:0:
224,112,99539,1,0,0:0:0:0:
368,240,99677,1,8,0:0:0:0:
160,152,99814,1,0,0:0:0:0:
288,192,99952,5,0,0:0:0:0:
224,192,100090,1,0,0:0:0:0:
344,192,100227,1,8,0:0:0:0:
168,192,100365,1,0,0:0:0:0:
288,192,100503,1,0,0:0:0:0:
224,192,100640,1,0,0:0:0:0:
400,192,100778,1,8,0:0:0:0:
112,192,100915,1,0,0:0:0:0:
344,192,101053,1,0,0:0:0:0:
168,192,101191,1,0,0:0:0:0:
456,192,101328,1,8,0:0:0:0:
56,192,101466,1,0,0:0:0:0:
400,192,101603,1,0,0:0:0:0:
112,192,101741,1,0,0:0:0:0:
456,192,101879,1,8,0:0:0:0:
56,192,102016,1,0,0:0:0:0:
256,304,102154,6,0,B|416:248|416:248|96:136|96:136|256:96|256:96,1,630.000024032594
279,200,102429,1,8,0:0:0:0:
408,96,102842,1,0,0:0:0:0:
128,72,102980,1,8,0:0:0:0:
344,152,103117,1,0,0:0:0:0:
56,112,103255,1,0,0:0:0:0:
384,304,103392,2,0,P|200:240|136:176,1,236.250009012223
215,144,103530,1,8,0:0:0:0:
340,224,103668,2,0,L|237:5,1,236.250009012223
512,256,103943,2,0,L|296:16,1,315.000012016297
407,140,104080,1,8,0:0:0:0:
103,216,104356,5,0,0:0:0:0:
32,216,104447,1,0,0:0:0:0:
142,216,104539,1,0,0:0:0:0:
71,216,104630,1,8,0:0:0:0:
183,216,104723,1,0,0:0:0:0:
112,216,104814,1,0,0:0:0:0:
223,216,104906,1,0,0:0:0:0:
152,216,104997,1,0,0:0:0:0:
264,216,105090,1,0,0:0:0:0:
193,216,105181,1,8,0:0:0:0:
303,216,105273,1,0,0:0:0:0:
232,216,105364,1,0,0:0:0:0:
496,280,105457,2,0,B|304:344|304:112|304:112,1,262.500010013581
0,264,105732,2,0,B|47:67|244:190|244:190,1,262.500010013581
384,288,106007,5,0,0:0:0:0:
512,288,106053,1,0,0:0:0:0:
384,288,106099,1,0,0:0:0:0:
256,288,106145,1,0,0:0:0:0:
128,288,106191,1,0,0:0:0:0:
0,288,106237,1,0,0:0:0:0:
128,288,106283,1,0,0:0:0:0:
256,288,106328,1,0,0:0:0:0:
384,288,106374,1,0,0:0:0:0:
512,288,106420,1,0,0:0:0:0:
384,288,106466,1,0,0:0:0:0:
256,288,106512,1,0,0:0:0:0:
208,128,106558,6,0,L|114:128,1,94.499997116089
308,128,106833,2,0,L|214:128,1,94.499997116089
408,128,107108,2,0,L|314:128,1,94.499997116089
508,128,107383,2,0,L|414:128,1,94.499997116089
304,48,107658,6,0,L|420:48,1,94.499997116089
204,48,107933,2,0,L|316:48,1,94.499997116089
104,48,108208,2,0,L|212:48,1,94.499997116089
4,48,108483,2,0,L|116:48,1,94.499997116089
120,200,108759,5,0,0:0:0:0:
45,200,108851,1,0,0:0:0:0:
0,200,108943,1,0,0:0:0:0:
240,200,109035,1,0,0:0:0:0:
165,200,109127,1,0,0:0:0:0:
120,200,109219,1,0,0:0:0:0:
360,200,109310,1,0,0:0:0:0:
285,200,109402,1,0,0:0:0:0:
240,200,109494,1,0,0:0:0:0:
512,200,109585,1,0,0:0:0:0:
392,200,109860,5,0,0:0:0:0:
467,200,109952,1,0,0:0:0:0:
512,200,110044,1,0,0:0:0:0:
272,200,110136,1,0,0:0:0:0:
347,200,110228,1,0,0:0:0:0:
392,200,110320,1,0,0:0:0:0:
152,200,110411,1,0,0:0:0:0:
227,200,110503,1,0,0:0:0:0:
272,200,110595,1,0,0:0:0:0:
0,200,110686,1,0,0:0:0:0:
151,272,110824,6,0,L|287:272,1,105
88,272,111099,1,0,0:0:0:0:
369,272,111236,1,0,0:0:0:0:
151,272,111374,1,0,0:0:0:0:
432,272,111512,1,0,0:0:0:0:
214,272,111650,1,0,0:0:0:0:
495,272,111787,1,0,0:0:0:0:
214,272,111925,1,0,0:0:0:0:
432,272,112062,1,0,0:0:0:0:
151,272,112200,1,0,0:0:0:0:
369,272,112337,1,0,0:0:0:0:
88,272,112475,1,0,0:0:0:0:
306,272,112613,1,0,0:0:0:0:
25,272,112750,1,0,0:0:0:0:
243,272,112888,1,0,0:0:0:0:
461,272,113025,1,0,0:0:0:0:
21,192,113163,5,0,0:0:0:0:
126,192,113255,1,0,0:0:0:0:
233,192,113347,1,0,0:0:0:0:
117,192,113438,1,0,0:0:0:0:
223,192,113530,1,0,0:0:0:0:
328,192,113622,1,0,0:0:0:0:
181,192,113714,1,0,0:0:0:0:
287,192,113806,1,0,0:0:0:0:
392,192,113898,1,0,0:0:0:0:
245,192,113989,1,0,0:0:0:0:
351,192,114080,1,0,0:0:0:0:
456,192,114173,1,0,0:0:0:0:
512,112,114241,2,0,L|480:112,1,17.5
264,154,114333,2,0,L|232:154,1,17.5
0,112,114425,2,0,L|18:112,1,17.5
472,288,114516,2,0,L|440:288,1,17.5
264,254,114608,2,0,L|232:254,1,17.5
95,300,114700,2,0,L|112:300,1,17.5
456,104,114792,2,0,L|424:104,1,17.5
223,50,114883,2,0,L|240:50,1,17.5
400,224,114975,2,0,L|368:224,1,17.5
16,232,115067,2,0,L|34:232,1,17.5
182,336,115158,2,0,L|200:336,1,17.5
360,32,115250,2,0,L|360:176,1,140
64,184,115503,6,0,L|0:184,1,52.5
312,224,115640,1,0,0:0:0:0:
290,224,115709,1,0,0:0:0:0:
269,224,115778,1,0,0:0:0:0:
246,224,115847,1,0,0:0:0:0:
496,288,115915,2,0,L|440:288,1,52.5
84,304,116053,1,0,0:0:0:0:
108,304,116122,1,0,0:0:0:0:
131,304,116191,1,0,0:0:0:0:
156,304,116260,1,0,0:0:0:0:
392,304,116328,5,0,0:0:0:0:
504,216,116397,1,0,0:0:0:0:
280,160,116466,1,0,0:0:0:0:
48,144,116535,1,0,0:0:0:0:
432,136,116603,2,0,L|496:136,1,52.5
124,88,116741,1,0,0:0:0:0:
148,88,116810,1,0,0:0:0:0:
172,88,116879,1,0,0:0:0:0:
196,88,116948,1,0,0:0:0:0:
480,72,117016,2,0,L|424:72,1,52.5
176,232,117154,1,0,0:0:0:0:
152,232,117223,1,0,0:0:0:0:
128,232,117292,1,0,0:0:0:0:
104,232,117361,1,0,0:0:0:0:
352,296,117429,6,0,P|424:248|456:152,1,157.5
176,168,117704,2,0,P|112:144|96:128,1,52.5
416,112,117842,2,0,B|360:72|264:64|264:64,1,157.5
144,320,118117,2,0,L|56:304,1,52.5
384,184,118255,2,0,P|279:176|264:98,1,157.5
16,288,118530,2,0,L|16:200,1,52.5
176,264,118668,2,0,L|176:208,1,52.5
336,248,118805,2,0,L|336:184,1,52.5
496,232,118943,2,0,L|496:72,1,157.5
56,120,119218,2,0,L|112:120,1,52.5
480,80,119356,2,0,L|320:80,1,157.5
168,75,119631,1,0,0:0:0:0:
258,192,119769,5,0,0:0:0:0:
237,192,119860,1,0,0:0:0:0:
258,192,119953,1,0,0:0:0:0:
296,192,120044,1,0,0:0:0:0:
258,192,120136,1,0,0:0:0:0:
205,192,120227,1,0,0:0:0:0:
258,192,120319,1,0,0:0:0:0:
318,192,120411,1,0,0:0:0:0:
258,192,120503,1,0,0:0:0:0:
173,192,120594,1,0,0:0:0:0:
258,192,120686,1,0,0:0:0:0:
360,192,120778,1,0,0:0:0:0:
258,192,120869,1,0,0:0:0:0:
131,192,120961,1,0,0:0:0:0:
258,192,121053,1,0,0:0:0:0:
402,192,121145,1,0,0:0:0:0:
258,192,121236,1,0,0:0:0:0:
89,192,121328,1,0,0:0:0:0:
258,192,121420,1,0,0:0:0:0:
444,192,121512,1,0,0:0:0:0:
258,192,121603,1,0,0:0:0:0:
47,192,121695,1,0,0:0:0:0:
258,192,121787,1,0,0:0:0:0:
486,192,121879,1,0,0:0:0:0:
512,63,121970,6,0,L|491:63,1,13.125
364,63,122062,1,0,0:0:0:0:
217,63,122154,2,0,L|236:63,1,13.125
512,176,122246,2,0,L|492:176,1,13.125
358,176,122337,1,0,0:0:0:0:
207,176,122429,2,0,L|222:176,1,13.125
512,280,122521,2,0,L|492:280,1,13.125
342,280,122613,1,0,0:0:0:0:
176,280,122704,2,0,L|191:280,1,13.125
512,0,122796,2,0,L|494:0,1,17.5
342,0,122888,1,0,0:0:0:0:
175,0,122980,2,0,L|189:0,1,13.125
512,96,123071,2,0,L|494:96,1,17.5
325,96,123163,1,0,0:0:0:0:
138,96,123255,2,0,L|155:96,1,17.5
512,196,123347,2,0,L|494:196,1,17.5
306,196,123438,1,0,0:0:0:0:
100,196,123530,2,0,L|117:196,1,17.5
512,296,123622,2,0,L|494:296,1,17.5
288,296,123714,1,0,0:0:0:0:
59,295,123805,2,0,L|77:295,1,17.5
512,96,123897,2,0,L|494:96,1,17.5
263,99,123989,1,0,0:0:0:0:
16,94,124080,2,0,L|30:94,1,13.125
512,376,124172,6,0,L|512:-16,1,385
240,312,124723,2,0,B|185:119|185:119|-11:95,1,385
272,128,125273,2,0,B|240:56|240:56|144:40,1,175
480,120,125548,1,0,0:0:0:0:
