osu file format v14

[General]
AudioFilename: Haryu.mp3
AudioLeadIn: 0
PreviewTime: 42156
Countdown: 0
SampleSet: Normal
StackLeniency: 0.7
Mode: 0
LetterboxInBreaks: 0
WidescreenStoryboard: 1

[Editor]
Bookmarks: 33347,106559
DistanceSpacing: 1.7
BeatDivisor: 4
GridSize: 16
TimelineZoom: 2.000006

[Metadata]
Title:Haryu
TitleUnicode:春竜 ~Haryu~
Artist:Azu
ArtistUnicode:あず♪
Creator:yaspo
Version:Three Waterfalls
Source:Taiko no Tatsujin
Tags:太鼓の達人 Simple_Star richardfeder
BeatmapID:1212248
BeatmapSetID:572046

[Difficulty]
HPDrainRate:6
CircleSize:4.5
OverallDifficulty:8
ApproachRate:9.3
SliderMultiplier:1.4
SliderTickRate:1

[Events]
//Background and Video events
0,0,"bg.jpg",0,0
//Break Periods
2,80887,83986
//Storyboard Layer 0 (Background)
//Storyboard Layer 1 (Fail)
//Storyboard Layer 2 (Pass)
//Storyboard Layer 3 (Foreground)
//Storyboard Sound Samples

[TimingPoints]
4723,275.229357798165,4,1,0,30,1,0
4723,-133.333333333333,4,1,0,30,0,0
13530,-500,4,1,0,30,0,0
14631,-100,4,1,0,30,0,0
17383,-133.333333333333,4,1,0,30,0,0
19998,-100,4,1,0,30,0,0
21511,-133.333333333333,4,1,0,30,0,0
23438,-500,4,1,0,30,0,0
24539,-100,4,1,0,30,0,0
25778,-133.333333333333,4,1,0,30,0,0
31970,-80,4,1,0,30,0,0
42154,-66.6666666666667,4,1,0,30,0,1
55089,-200,4,1,0,30,0,0
57016,275.229357798165,6,1,0,30,1,0
57016,-133.333333333333,6,1,0,30,0,0
70227,-100,6,1,0,30,0,0
80137,275.229357798165,4,1,0,30,1,0
84540,-100,4,1,0,30,0,0
93348,-333.745316905488,4,1,0,30,0,0
94448,-66.6666666666667,4,1,0,30,0,0
94724,-100,4,1,0,30,0,0
103256,-66.6666666666667,4,1,0,30,0,0
103531,-100,4,1,0,30,0,0
106559,-100,4,1,0,30,0,1
108760,-100,4,1,0,30,0,0
110962,-66.6666666666667,4,1,0,30,0,0
111237,-80,4,1,0,30,0,0
111513,-100,4,1,0,30,0,0
111788,-133.333333333333,4,1,0,30,0,0
112063,-200,4,1,0,30,0,0
119770,-100,4,1,0,30,0,0
125549,-100,4,1,0,30,0,0

[HitObjects]
256,42,4723,6,0,L|210:87,2,52.5000020027161,0|0|0,0:3|0:3|0:3,0:3:0:0:
146,72,5135,2,0,L|213:139,2,52.5000020027161,0|0|0,0:3|0:3|0:3,0:3:0:0:
255,113,5549,5,0,0:3:0:0:
218,149,5687,1,0,0:3:0:0:
145,147,5823,1,0,0:3:0:0:
182,183,5961,1,0,0:3:0:0:
257,183,6099,5,0,0:3:0:0:
220,219,6237,1,0,0:3:0:0:
144,215,6374,1,0,0:3:0:0:
181,251,6512,1,0,0:3:0:0:
258,251,6649,5,0,0:3:0:0:
221,287,6787,1,0,0:3:0:0:
256,43,6925,6,0,L|324:110,2,52.5000020027161,0|0|0,0:3|0:3|0:3,0:3:0:0:
366,72,7337,2,0,L|299:139,2,52.5000020027161,0|0|0,0:3|0:3|0:3,0:3:0:0:
257,113,7751,5,0,0:3:0:0:
294,149,7889,1,0,0:3:0:0:
367,147,8025,1,0,0:3:0:0:
330,183,8163,1,0,0:3:0:0:
255,183,8301,5,0,0:3:0:0:
292,219,8439,1,0,0:3:0:0:
368,215,8576,1,0,0:3:0:0:
331,251,8714,1,0,0:3:0:0:
254,251,8851,5,0,0:3:0:0:
291,287,8989,1,0,0:3:0:0:
256,43,9127,6,0,L|188:110,2,52.5000020027161,0|0|0,0:3|0:3|0:3,0:3:0:0:
146,72,9540,2,0,L|213:139,2,52.5000020027161,0|0|0,0:3|0:3|0:3,0:3:0:0:
255,113,9953,5,0,0:3:0:0:
218,149,10090,1,0,0:3:0:0:
145,147,10227,1,0,0:3:0:0:
182,183,10365,1,0,0:3:0:0:
257,183,10503,5,0,0:3:0:0:
220,219,10641,1,0,0:3:0:0:
144,215,10778,1,0,0:3:0:0:
181,251,10916,1,0,0:3:0:0:
258,251,11053,5,0,0:3:0:0:
221,287,11191,1,0,0:3:0:0:
256,43,11329,6,0,L|324:110,2,52.5000020027161,0|0|0,0:3|0:3|0:3,0:3:0:0:
366,72,11741,2,0,L|299:139,2,52.5000020027161,0|0|0,0:3|0:3|0:3,0:3:0:0:
366,211,12155,6,0,L|298:144,2,52.5000020027161,0|0|0,0:3|0:3|0:3,0:3:0:0:
256,182,12567,2,0,L|323:115,2,52.5000020027161,0|0|0,0:3|0:3|0:3,0:3:0:0:
190,39,12980,2,0,L|153:77,1,52.5000020027161,0|0,0:3|0:3,0:3:0:0:
57,165,13256,2,0,L|94:201,1,52.5000020027161,0|0,0:3|0:3,0:3:0:0:
319,37,13530,6,0,P|365:49|386:101,1,105,0|0,0:3|0:3,0:3:0:0:
414,122,14631,1,0,0:3:0:0:
417,135,14700,1,0,0:3:0:0:
417,148,14768,1,0,0:3:0:0:
411,160,14837,1,0,0:3:0:0:
419,191,14906,5,0,0:3:0:0:
411,209,14975,1,0,0:3:0:0:
399,227,15044,1,0,0:3:0:0:
381,238,15112,1,0,0:3:0:0:
366,267,15181,5,0,0:3:0:0:
343,283,15250,1,0,0:3:0:0:
315,289,15319,1,0,0:3:0:0:
286,287,15388,1,0,0:3:0:0:
242,305,15456,5,0,0:3:0:0:
207,300,15525,1,0,0:3:0:0:
176,279,15594,1,0,0:3:0:0:
153,251,15663,1,0,0:3:0:0:
128,175,15732,5,0,0:3:0:0:
126,348,15869,1,0,0:3:0:0:
233,209,16007,1,0,0:3:0:0:
94,70,16282,5,0,0:3:0:0:
267,68,16420,1,0,0:3:0:0:
128,175,16558,1,0,0:3:0:0:
361,298,16833,5,0,0:3:0:0:
317,362,16970,1,0,0:3:0:0:
271,298,17108,1,0,0:3:0:0:
319,228,17245,1,0,0:3:0:0:
375,157,17383,2,0,P|379:117|364:93,1,52.5000020027161,0|0,0:3|0:3,0:3:0:0:
335,44,17658,2,0,P|302:20|274:21,1,52.5000020027161,0|0,0:3|0:3,0:3:0:0:
421,174,17934,5,0,0:3:0:0:
423,347,18071,1,0,0:3:0:0:
316,208,18209,1,0,0:3:0:0:
455,69,18484,5,0,0:3:0:0:
282,67,18621,1,0,0:3:0:0:
421,174,18759,1,0,0:3:0:0:
151,298,19034,5,0,0:3:0:0:
195,362,19171,1,0,0:3:0:0:
241,298,19309,1,0,0:3:0:0:
193,228,19446,1,0,0:3:0:0:
137,157,19584,2,0,P|133:117|148:93,1,52.5000020027161,0|0,0:3|0:3,0:3:0:0:
190,37,19860,1,0,0:3:0:0:
190,37,19998,2,0,L|242:81,1,35,0|0,0:3|0:3,0:3:0:0:
331,156,20135,5,0,0:3:0:0:
106,34,20411,1,0,0:3:0:0:
27,189,20548,1,0,0:3:0:0:
406,34,20824,1,0,0:3:0:0:
477,193,20961,1,0,0:3:0:0:
129,191,21236,5,0,0:0:0:0:
194,359,21374,1,0,0:0:0:0:
240,185,21511,1,0,0:0:0:0:
100,297,21649,1,0,0:0:0:0:
279,287,21787,6,0,P|301:277|322:251,1,52.5000020027161
353,197,22062,1,0,0:0:0:0:
353,197,22199,2,0,L|376:152,2,26.2500010013581
289,359,22475,1,0,0:3:0:0:
240,185,22612,1,0,0:3:0:0:
100,297,22750,1,0,0:3:0:0:
274,56,23025,1,0,0:3:0:0:
274,56,23163,2,0,L|339:84,1,52.5000020027161,0|0,0:3|0:3,0:3:0:0:
146,108,23438,6,0,P|104:131|96:181,1,98,0|0,0:3|0:3,0:3:0:0:
118,289,24539,6,0,L|161:231,1,70,0|0,0:3|0:3,0:3:0:0:
218,146,24814,1,0,0:3:0:0:
394,289,25089,2,0,L|351:231,1,70,0|0,0:3|0:3,0:3:0:0:
294,146,25365,1,0,0:3:0:0:
437,55,25640,5,0,0:3:0:0:
283,98,25778,2,0,P|297:143|346:161,1,78.7500030040742,0|0,0:3|0:3,0:3:0:0:
362,178,26053,2,0,L|341:220,1,26.2500010013581,0|0,0:3|0:3,0:3:0:0:
395,206,26190,2,0,L|362:234,1,26.2500010013581,0|0,0:3|0:3,0:3:0:0:
418,245,26328,2,0,L|381:260,1,26.2500010013581,0|0,0:3|0:3,0:3:0:0:
428,289,26466,2,0,L|352:290,1,52.5000020027161,0|0,0:3|0:3,0:3:0:0:
394,95,26740,6,0,L|351:153,1,70,0|0,0:3|0:3,0:3:0:0:
294,238,27015,1,0,0:3:0:0:
118,95,27291,2,0,L|161:153,1,70,0|0,0:3|0:3,0:3:0:0:
218,238,27566,1,0,0:3:0:0:
75,55,27842,5,0,0:3:0:0:
229,98,27980,2,0,P|215:143|166:161,1,78.7500030040742,0|0,0:3|0:3,0:3:0:0:
150,178,28255,2,0,L|172:220,1,26.2500010013581,0|0,0:3|0:3,0:3:0:0:
117,206,28392,2,0,L|151:234,1,26.2500010013581,0|0,0:3|0:3,0:3:0:0:
94,245,28530,2,0,L|132:260,1,26.2500010013581,0|0,0:3|0:3,0:3:0:0:
84,289,28668,2,0,L|161:291,1,52.5000020027161,0|0,0:3|0:3,0:3:0:0:
366,302,28942,6,0,L|320:256,1,52.5000020027161,0|0,0:3|0:3,0:3:0:0:
144,80,29218,2,0,L|189:125,1,52.5000020027161,0|0,0:3|0:3,0:3:0:0:
366,302,29493,2,0,L|320:256,1,52.5000020027161,0|0,0:3|0:3,0:3:0:0:
144,80,29768,2,0,L|189:125,1,52.5000020027161,0|0,0:3|0:3,0:3:0:0:
385,45,30044,5,0,0:3:0:0:
368,65,30112,1,0,0:3:0:0:
350,84,30181,2,0,L|326:110,1,26.2500010013581
390,139,30319,1,0,0:3:0:0:
373,158,30387,1,0,0:3:0:0:
354,177,30456,2,0,L|330:203,1,26.2500010013581
392,233,30594,1,0,0:3:0:0:
375,252,30662,1,0,0:3:0:0:
358,272,30731,2,0,P|320:304|264:306,1,105.000004005432,0|0,0:3|0:3,0:3:0:0:
146,302,31145,6,0,L|191:256,1,52.5000020027161,0|0,0:3|0:3,0:3:0:0:
368,80,31420,2,0,L|322:125,1,52.5000020027161,0|0,0:3|0:3,0:3:0:0:
146,302,31695,2,0,L|191:256,1,52.5000020027161,0|0,0:3|0:3,0:3:0:0:
368,80,31970,6,0,L|324:102,1,43.75,0|0,0:3|0:3,0:3:0:0:
390,130,32108,2,0,L|335:136,1,43.75,0|0,0:3|0:3,0:3:0:0:
390,184,32245,2,0,L|346:179,1,43.75,0|0,0:3|0:3,0:3:0:0:
368,234,32383,2,0,L|328:214,1,43.75,0|0,0:3|0:3,0:3:0:0:
344,285,32521,2,0,L|270:221,1,87.5,0|0,0:3|0:3,0:3:0:0:
144,80,32796,6,0,L|188:102,1,43.75,0|0,0:3|0:3,0:3:0:0:
122,130,32934,2,0,L|177:136,1,43.75,0|0,0:3|0:3,0:3:0:0:
122,184,33071,2,0,L|165:179,1,43.75,0|0,0:3|0:3,0:3:0:0:
144,234,33209,2,0,L|183:214,1,43.75,0|0,0:3|0:3,0:3:0:0:
167,275,33346,6,0,L|124:306,3,43.75,0|0|0|0,0:3|0:3|0:3|0:3,0:3:0:0:
215,283,33621,2,0,L|241:328,3,43.75,0|0|0|0,0:3|0:3|0:3|0:3,0:3:0:0:
167,109,33896,2,0,L|124:78,3,43.75,0|0|0|0,0:3|0:3|0:3|0:3,0:3:0:0:
215,101,34172,2,0,L|241:56,3,43.75,0|0|0|0,0:3|0:3|0:3|0:3,0:3:0:0:
396,153,34447,5,0,0:3:0:0:
378,183,34516,1,0,0:3:0:0:
350,204,34585,1,0,0:3:0:0:
319,221,34654,1,0,0:3:0:0:
286,232,34722,1,0,0:3:0:0:
251,236,34791,1,0,0:3:0:0:
217,227,34860,1,0,0:3:0:0:
185,210,34929,1,0,0:3:0:0:
161,184,34998,5,0,0:3:0:0:
168,227,35067,1,0,0:3:0:0:
189,264,35135,1,0,0:3:0:0:
222,292,35204,1,0,0:3:0:0:
261,310,35273,1,0,0:3:0:0:
304,312,35342,1,0,0:3:0:0:
346,299,35411,1,0,0:3:0:0:
383,278,35479,1,0,0:3:0:0:
416,255,35548,6,0,L|459:224,3,43.75,0|0|0|0,0:3|0:3|0:3|0:3,0:3:0:0:
383,216,35824,2,0,L|351:178,3,43.75,0|0|0|0,0:3|0:3|0:3|0:3,0:3:0:0:
96,255,36099,2,0,L|53:224,3,43.75,0|0|0|0,0:3|0:3|0:3|0:3,0:3:0:0:
135,220,36375,2,0,L|171:180,3,43.75,0|0|0|0,0:3|0:3|0:3|0:3,0:3:0:0:
372,106,36649,5,0,0:3:0:0:
337,110,36718,1,0,0:0:0:0:
303,119,36787,1,0,0:0:0:0:
272,137,36856,1,0,0:0:0:0:
246,159,36924,1,0,0:0:0:0:
225,188,36993,1,0,0:0:0:0:
212,220,37062,1,0,0:0:0:0:
205,254,37131,1,0,0:0:0:0:
203,289,37200,5,0,0:0:0:0:
175,255,37268,1,0,0:0:0:0:
157,214,37337,1,0,0:0:0:0:
152,170,37406,1,0,0:0:0:0:
158,126,37475,1,0,0:0:0:0:
177,86,37544,1,0,0:0:0:0:
209,57,37612,1,0,0:0:0:0:
250,43,37681,1,0,0:0:0:0:
293,39,37750,6,0,L|362:35,3,43.75,0|0|0|0,0:3|0:3|0:3|0:3,0:3:0:0:
275,85,38025,2,0,L|287:133,3,43.75,0|0|0|0,0:3|0:3|0:3|0:3,0:3:0:0:
236,303,38300,2,0,L|225:345,3,43.75,0|0|0|0,0:3|0:3|0:3|0:3,0:3:0:0:
218,257,38575,2,0,L|174:254,3,43.75,0|0|0|0,0:3|0:3|0:3|0:3,0:3:0:0:
439,280,38851,5,0,0:3:0:0:
447,245,38920,1,0,0:3:0:0:
448,209,38989,1,0,0:0:0:0:
440,175,39057,1,0,0:0:0:0:
425,143,39126,1,0,0:0:0:0:
404,114,39195,1,0,0:0:0:0:
380,87,39264,1,0,0:0:0:0:
351,66,39333,1,0,0:0:0:0:
320,49,39401,5,0,0:3:0:0:
316,93,39470,1,0,0:3:0:0:
308,136,39539,1,0,0:3:0:0:
287,174,39608,1,0,0:3:0:0:
256,205,39677,1,0,0:3:0:0:
217,224,39745,1,0,0:3:0:0:
173,230,39814,1,0,0:3:0:0:
129,223,39883,1,0,0:3:0:0:
86,210,39952,6,0,L|28:184,3,43.75,0|0|0|0,0:3|0:3|0:3|0:3,0:3:0:0:
264,298,40227,2,0,L|288:362,3,43.75,0|0|0|0,0:3|0:3|0:3|0:3,0:3:0:0:
198,71,40502,2,0,L|182:30,3,43.75,0|0|0|0,0:3|0:3|0:3|0:3,0:3:0:0:
370,159,40777,2,0,L|425:170,3,43.75,0|0|0|0,0:3|0:3|0:3|0:3,0:3:0:0:
146,108,41053,5,0,0:3:0:0:
173,142,41122,1,0,0:3:0:0:
207,168,41190,1,0,0:3:0:0:
247,185,41259,1,0,0:3:0:0:
290,190,41328,1,0,0:3:0:0:
333,181,41397,1,0,0:3:0:0:
370,159,41466,1,0,0:3:0:0:
401,129,41534,1,0,0:3:0:0:
426,93,41603,5,0,0:3:0:0:
430,145,41672,1,0,0:3:0:0:
417,196,41741,1,0,0:3:0:0:
386,238,41810,1,0,0:3:0:0:
343,267,41878,1,0,0:3:0:0:
292,282,41947,1,0,0:3:0:0:
240,268,42016,1,0,0:3:0:0:
197,240,42085,1,0,0:3:0:0:
93,135,42154,6,0,L|204:136,1,105.000004005432,0|0,0:3|0:3,0:3:0:0:
416,243,42567,2,0,L|304:243,1,105.000004005432,0|0,0:3|0:3,0:3:0:0:
93,240,42979,6,0,L|93:102,1,105.000004005432,0|0,0:3|0:3,0:3:0:0:
93,135,43255,2,0,L|93:240,1,105.000004005432,0|0,0:3|0:3,0:3:0:0:
256,240,43530,2,0,L|256:135,1,105.000004005432,0|0,0:3|0:3,0:3:0:0:
421,135,43805,2,0,L|421:240,1,105.000004005432,0|0,0:3|0:3,0:3:0:0:
150,322,44218,2,0,L|255:322,1,105.000004005432,0|0,0:3|0:3,0:3:0:0:
255,63,44631,6,0,L|150:63,1,105.000004005432,0|0,0:3|0:3,0:3:0:0:
150,63,44906,2,0,L|255:63,1,105.000004005432,0|0,0:3|0:3,0:3:0:0:
359,320,45181,2,0,L|359:192,1,105.000004005432,0|0,0:3|0:3,0:3:0:0:
150,62,45594,2,0,L|150:190,1,105.000004005432,0|0,0:3|0:3,0:3:0:0:
150,321,46007,6,0,L|255:321,1,105.000004005432,0|0,0:3|0:3,0:3:0:0:
255,321,46282,2,0,L|150:321,1,105.000004005432,0|0,0:3|0:3,0:3:0:0:
150,191,46557,2,0,L|255:191,1,105.000004005432,0|0,0:3|0:3,0:3:0:0:
254,57,46833,2,0,L|149:57,1,105.000004005432,0|0,0:3|0:3,0:3:0:0:
64,191,47245,2,0,L|64:296,1,105.000004005432,0|0,0:3|0:3,0:3:0:0:
348,194,47658,6,0,L|348:299,1,105.000004005432,0|0,0:3|0:3,0:3:0:0:
348,299,47934,2,0,L|348:194,1,105.000004005432,0|0,0:3|0:3,0:3:0:0:
348,73,48209,1,0,0:3:0:0:
348,73,48346,2,0,B|296:73|296:73|256:128,1,105.000004005432,0|0,0:3|0:3,0:3:0:0:
211,180,48622,1,0,0:3:0:0:
211,180,48759,2,0,B|159:180|159:180|101:98,1,105.000004005432,0|0,0:3|0:3,0:3:0:0:
79,63,49034,5,0,0:3:0:0:
131,63,49172,1,0,0:3:0:0:
64,179,49310,1,0,0:3:0:0:
38,133,49448,1,0,0:3:0:0:
170,134,49585,1,0,0:0:0:0:
144,180,49723,1,0,0:0:0:0:
79,299,49860,5,0,0:3:0:0:
79,299,49997,2,0,B|131:299|131:299|171:244,1,105.000004005432,0|0,0:3|0:3,0:3:0:0:
216,192,50273,1,0,0:3:0:0:
216,192,50410,2,0,B|268:192|268:192|326:274,1,105.000004005432,0|0,0:3|0:3,0:3:0:0:
341,314,50686,5,0,0:3:0:0:
289,314,50824,1,0,0:3:0:0:
356,198,50962,1,0,0:3:0:0:
356,198,51100,1,0,0:3:0:0:
356,198,51236,1,0,0:0:0:0:
79,85,51511,5,0,0:3:0:0:
79,85,51649,2,0,B|131:85|131:85|171:140,1,105.000004005432,0|0,0:3|0:3,0:3:0:0:
216,192,51924,1,0,0:3:0:0:
216,192,52062,2,0,B|268:192|268:192|326:110,1,105.000004005432,0|0,0:3|0:3,0:3:0:0:
347,74,52337,5,0,0:3:0:0:
295,74,52475,1,0,0:3:0:0:
362,190,52613,1,0,0:3:0:0:
388,144,52751,1,0,0:3:0:0:
256,145,52888,1,0,0:0:0:0:
282,191,53026,1,0,0:0:0:0:
349,305,53163,5,0,0:0:0:0:
349,305,53300,1,0,0:0:0:0:
349,305,53438,2,0,B|297:305|297:305|239:223,1,105.000004005432,0|0,0:3|0:3,0:3:0:0:
225,208,53713,1,0,0:0:0:0:
225,208,53850,1,0,0:0:0:0:
225,208,53988,2,0,B|173:208|173:208|115:290,1,105.000004005432,0|0,0:3|0:3,0:3:0:0:
120,331,54264,5,0,0:0:0:0:
120,331,54401,1,0,0:0:0:0:
120,331,54539,2,0,L|35:332,7,52.5000020027161
253,331,55089,1,0,0:0:0:0:
433,182,55915,5,0,0:0:0:0:
433,182,56053,1,0,0:0:0:0:
433,182,56190,2,0,P|408:138|378:129,1,70
328,103,56603,2,0,P|303:147|273:156,1,70
129,66,57017,6,0,P|135:99|164:122,1,52.5000020027161
207,160,57292,1,0,0:0:0:0:
207,160,57567,1,0,0:0:0:0:
268,198,57842,6,0,P|247:223|210:228,1,52.5000020027161
154,240,58117,1,0,0:0:0:0:
138,260,58254,1,0,0:0:0:0:
154,240,58392,1,0,0:0:0:0:
128,235,58530,1,0,0:0:0:0:
290,67,58668,6,0,P|268:92|231:97,1,52.5000020027161
175,109,58943,1,0,0:0:0:0:
175,109,59218,1,0,0:0:0:0:
208,168,59494,6,0,P|184:178|158:175,1,52.5000020027161,0|0,3:0|3:0,3:0:0:0:
88,147,59769,1,0,3:0:0:0:
64,156,59905,1,0,3:0:0:0:
88,147,60043,1,0,3:0:0:0:
68,130,60181,1,0,3:0:0:0:
302,170,60319,6,0,P|295:201|265:225,1,52.5000020027161
224,262,60594,1,0,0:0:0:0:
224,262,60869,1,0,0:0:0:0:
251,322,61145,6,0,P|220:332|185:318,1,52.5000020027161
131,300,61420,1,0,0:0:0:0:
107,310,61558,1,0,0:0:0:0:
131,300,61694,1,0,0:0:0:0:
111,283,61832,1,0,0:0:0:0:
208,68,61971,6,0,P|230:93|266:98,1,52.5000020027161
311,134,62246,2,0,P|289:159|252:164,1,52.5000020027161
211,205,62521,2,0,P|233:230|269:235,1,52.5000020027161
314,271,62795,2,0,P|292:296|255:301,1,52.5000020027161
202,303,63072,2,0,L|164:289,2,26.2500010013581
202,303,63347,1,0,0:0:0:0:
185,47,63621,5,0,0:0:0:0:
316,144,63897,1,0,0:0:0:0:
316,144,64172,1,0,0:0:0:0:
381,96,64447,5,0,0:0:0:0:
250,193,64722,2,0,L|261:147,1,26.2500010013581
250,193,64860,2,0,L|235:172,1,26.2500010013581
250,193,64997,2,0,B|217:194,1,26.2500010013581
250,193,65135,2,0,L|225:236,1,26.2500010013581
182,341,65272,5,0,0:0:0:0:
304,241,65548,1,0,0:0:0:0:
304,241,65823,1,0,0:0:0:0:
234,174,66098,5,0,3:0:0:0:
380,309,66374,2,0,L|414:337,3,26.2500010013581
380,309,66650,1,0,0:0:0:0:
225,342,66924,5,0,0:0:0:0:
311,243,67199,1,0,0:0:0:0:
215,154,67474,1,0,3:0:0:0:
312,64,67749,2,0,L|308:32,1,26.2500010013581
312,64,67887,2,0,L|340:47,1,26.2500010013581
312,64,68025,2,0,L|332:87,1,26.2500010013581
312,64,68162,2,0,L|292:95,1,26.2500010013581
312,64,68300,2,0,L|275:54,1,26.2500010013581
230,174,68576,6,0,P|207:164|181:167,1,52.5000020027161,0|0,3:0|3:0,3:0:0:0:
100,193,68851,1,0,0:0:0:0:
100,193,68989,1,0,0:0:0:0:
100,193,69127,1,0,0:0:0:0:
158,246,69401,6,0,P|181:236|207:239,1,52.5000020027161,0|0,3:0|3:0,3:0:0:0:
288,265,69676,1,0,0:0:0:0:
288,265,69814,1,0,0:0:0:0:
288,265,69952,1,0,0:0:0:0:
421,61,70227,6,0,P|445:80|420:100,1,70
340,113,70502,1,0,0:0:0:0:
304,132,70639,1,0,0:0:0:0:
280,166,70777,1,0,0:0:0:0:
211,295,71052,5,0,0:0:0:0:
177,284,71190,1,0,0:0:0:0:
144,257,71327,1,0,0:0:0:0:
117,215,71465,1,0,0:0:0:0:
106,159,71603,1,0,0:0:0:0:
106,119,71878,6,0,P|82:138|107:158,1,70
187,171,72153,1,0,0:0:0:0:
223,190,72290,1,0,0:0:0:0:
247,224,72428,1,0,0:0:0:0:
304,327,72704,5,0,0:0:0:0:
338,316,72842,1,0,0:0:0:0:
371,289,72979,1,0,0:0:0:0:
398,247,73117,1,0,0:0:0:0:
370,205,73255,1,0,0:0:0:0:
397,164,73392,1,0,0:0:0:0:
421,130,73529,6,0,P|389:135|399:165,1,70
443,250,73804,1,0,0:0:0:0:
431,290,73942,1,0,0:0:0:0:
400,319,74080,1,0,0:0:0:0:
240,317,74355,5,0,0:0:0:0:
218,289,74493,1,0,0:0:0:0:
205,249,74630,1,0,0:0:0:0:
232,208,74768,1,0,0:0:0:0:
216,169,74905,1,0,0:0:0:0:
196,140,75043,1,0,0:0:0:0:
176,97,75181,6,0,P|164:120|209:127,1,70
301,137,75456,1,0,0:0:0:0:
340,151,75593,1,0,0:0:0:0:
364,185,75731,1,0,0:0:0:0:
366,346,76006,6,0,L|254:302,1,105
193,266,76282,2,0,L|305:222,1,105
361,173,76557,2,0,L|249:129,1,105
203,120,76832,6,0,P|209:101|161:56,1,70
117,73,77107,1,0,0:0:0:0:
103,112,77245,1,0,0:0:0:0:
132,141,77382,1,0,0:0:0:0:
203,120,77658,6,0,P|216:134|279:115,1,70
286,68,77933,1,0,0:0:0:0:
259,36,78071,1,0,0:0:0:0:
220,47,78208,1,0,0:0:0:0:
203,120,78483,6,0,P|183:124|168:188,1,70
206,217,78758,1,0,0:0:0:0:
247,210,78896,1,0,0:0:0:0:
257,171,79033,1,0,0:0:0:0:
252,344,79309,6,0,L|364:300,1,105
425,264,79585,2,0,L|313:220,1,105
257,171,79860,2,0,L|369:127,1,105
429,104,80137,5,0,0:0:0:0:
429,104,80412,1,0,0:0:0:0:
429,104,80687,1,0,0:0:0:0:
397,319,84540,5,0,0:0:0:0:
372,68,84815,1,0,0:0:0:0:
445,170,84953,1,0,0:0:0:0:
319,181,85091,1,0,0:0:0:0:
397,319,85366,5,0,0:0:0:0:
281,96,85641,1,0,0:0:0:0:
165,318,85916,1,0,0:0:0:0:
165,318,86467,5,0,0:0:0:0:
165,318,86742,1,0,0:0:0:0:
190,67,87017,1,0,0:0:0:0:
117,169,87155,1,0,0:0:0:0:
243,180,87293,1,0,0:0:0:0:
165,318,87568,5,0,0:0:0:0:
281,95,87843,1,0,0:0:0:0:
397,317,88118,1,0,0:0:0:0:
306,202,88393,6,0,B|278:173|272:202|272:202|264:226|264:226|256:196|256:196|252:169|188:155|144:188,1,210
75,197,88944,5,0,0:0:0:0:
348,137,89219,2,0,L|311:178,1,35
196,313,89494,1,0,0:0:0:0:
210,169,89632,1,0,0:0:0:0:
210,169,89770,2,0,L|247:210,1,35
376,350,90045,5,0,0:0:0:0:
472,161,90320,2,0,L|441:144,1,35
246,66,90595,1,0,0:0:0:0:
246,66,90733,2,0,L|278:136,2,70
327,84,91146,5,0,0:0:0:0:
229,345,91421,2,0,L|216:307,1,35
164,121,91696,1,0,0:0:0:0:
280,200,91834,1,0,0:0:0:0:
280,200,91971,2,0,L|226:217,1,35
44,271,92247,5,0,0:0:0:0:
316,339,92522,2,0,L|331:294,1,35
396,107,92797,1,0,0:0:0:0:
396,107,92935,2,0,L|306:157,2,70
261,53,93348,6,0,P|293:62|294:88,1,62.9222286016664
228,159,93898,5,0,0:0:0:0:
197,187,94036,1,0,0:0:0:0:
173,221,94173,1,0,0:0:0:0:
160,261,94311,1,0,0:0:0:0:
148,301,94448,6,0,P|102:253|101:195,1,105.000004005432
111,125,94724,2,0,L|148:151,1,35
197,187,94861,1,0,0:0:0:0:
46,71,95136,2,0,L|189:35,1,140
410,50,95549,5,0,0:0:0:0:
418,76,95618,1,0,0:0:0:0:
421,103,95687,1,0,0:0:0:0:
417,130,95756,1,0,0:0:0:0:
393,145,95825,5,0,0:0:0:0:
389,168,95893,1,0,0:0:0:0:
383,191,95962,1,0,0:0:0:0:
370,212,96031,1,0,0:0:0:0:
346,219,96100,5,0,0:0:0:0:
334,236,96169,1,0,0:0:0:0:
319,251,96237,1,0,0:0:0:0:
302,264,96306,1,0,0:0:0:0:
282,257,96375,5,0,0:0:0:0:
265,262,96444,1,0,0:0:0:0:
247,265,96513,1,0,0:0:0:0:
229,266,96581,1,0,0:0:0:0:
205,250,96650,6,0,L|180:278,3,35
184,228,96925,2,0,L|136:249,3,35
172,209,97201,6,0,L|134:209,3,35
177,186,97476,2,0,L|130:173,3,35
185,158,97751,6,0,P|217:142|269:154,1,70
329,187,98026,2,0,L|286:201,1,35
136,222,98302,2,0,P|112:195|110:141,1,70
111,62,98577,2,0,L|108:105,1,35
105,283,98852,6,0,P|140:290|187:265,1,70
236,240,99127,2,0,L|228:203,1,35
205,93,99403,2,0,P|236:76|289:88,1,70
343,94,99678,2,0,L|348:132,1,35
364,272,99953,6,0,P|332:288|280:276,1,70
236,240,100228,2,0,L|275:223,1,35
390,200,100503,2,0,P|419:219|435:270,1,70
460,349,100779,2,0,L|451:309,1,35
414,124,101054,6,0,P|378:116|331:141,1,70
272,173,101329,2,0,L|280:212,1,35
299,322,101604,2,0,P|267:338|215:326,1,70
152,319,101880,2,0,L|147:283,1,35
120,85,102155,5,0,0:0:0:0:
392,85,102430,2,0,L|372:124,1,35
254,323,102705,1,0,0:0:0:0:
220,297,102843,1,0,0:0:0:0:
200,259,102981,1,0,0:0:0:0:
195,217,103118,1,0,0:0:0:0:
198,173,103256,6,0,P|256:140|312:155,1,105.000004005432
363,180,103531,2,0,L|318:212,1,35
267,247,103669,1,0,0:0:0:0:
441,135,103944,2,0,L|421:281,1,140
410,50,104357,5,0,0:0:0:0:
382,48,104425,1,0,0:0:0:0:
354,53,104494,1,0,0:0:0:0:
327,63,104563,1,0,0:0:0:0:
317,89,104632,5,0,0:0:0:0:
293,95,104701,1,0,0:0:0:0:
271,106,104770,1,0,0:0:0:0:
252,121,104838,1,0,0:0:0:0:
246,144,104907,5,0,0:0:0:0:
228,155,104976,1,0,0:0:0:0:
214,170,105045,1,0,0:0:0:0:
203,188,105114,1,0,0:0:0:0:
208,207,105182,5,0,0:0:0:0:
201,223,105251,1,0,0:0:0:0:
196,239,105320,1,0,0:0:0:0:
192,256,105389,1,0,0:0:0:0:
129,190,105458,5,0,0:0:0:0:
228,50,105733,1,0,0:0:0:0:
391,136,106008,6,0,L|362:136,1,17.5
399,155,106077,2,0,L|367:151,1,17.5
404,178,106146,2,0,L|372:169,1,17.5
402,198,106214,2,0,L|376:186,1,17.5
397,217,106283,2,0,L|370:199,1,17.5
387,238,106352,2,0,L|375:218,1,17.5
257,323,106559,6,0,L|275:280,1,35
311,187,106696,1,0,0:0:0:0:
311,187,106765,1,0,0:0:0:0:
311,187,106834,6,0,L|266:200,1,35
163,212,106971,1,0,0:0:0:0:
163,212,107040,1,0,0:0:0:0:
163,212,107109,6,0,L|180:177,1,35
234,77,107247,1,0,0:0:0:0:
234,77,107315,1,0,0:0:0:0:
234,77,107384,6,0,L|183:99,1,35
84,94,107522,1,0,0:0:0:0:
84,94,107591,1,0,0:0:0:0:
84,94,107659,6,0,L|114:139,1,35
163,212,107797,1,0,0:0:0:0:
163,212,107866,1,0,0:0:0:0:
163,212,107935,6,0,L|180:177,1,35
234,77,108072,1,0,0:0:0:0:
234,77,108141,1,0,0:0:0:0:
234,77,108210,6,0,L|260:108,1,35
341,197,108348,1,0,0:0:0:0:
341,197,108416,1,0,0:0:0:0:
341,197,108485,6,0,L|370:159,1,35
439,79,108623,1,0,0:0:0:0:
439,79,108692,1,0,0:0:0:0:
439,79,108760,6,0,L|443:125,1,35
441,145,108898,1,0,0:0:0:0:
436,176,108967,1,0,0:0:0:0:
424,205,109036,1,0,0:0:0:0:
408,231,109104,1,0,0:0:0:0:
385,253,109173,1,0,0:0:0:0:
357,269,109242,1,0,0:0:0:0:
327,280,109311,1,0,0:0:0:0:
295,281,109380,1,0,0:0:0:0:
264,275,109448,1,0,0:0:0:0:
235,262,109517,1,0,0:0:0:0:
209,243,109586,1,0,0:0:0:0:
439,79,109861,6,0,L|458:127,3,35
367,127,110136,2,0,L|369:171,3,35
283,131,110412,2,0,L|268:165,4,35
324,32,110962,6,0,P|310:57|222:66,1,105.000004005432
169,71,111237,6,0,P|180:114|223:143,1,87.5
283,131,111513,6,0,P|278:172|241:200,1,70
191,207,111788,6,0,P|204:240|239:252,1,52.5000020027161
288,257,112063,6,0,P|280:280|271:291,1,35
209,319,112338,5,0,0:0:0:0:
159,316,112476,1,0,0:0:0:0:
119,302,112614,1,0,0:0:0:0:
90,282,112751,1,0,0:0:0:0:
73,259,112889,1,0,0:0:0:0:
407,97,113164,6,0,L|425:104,3,17.5
390,123,113440,2,0,L|402:135,3,17.5
355,119,113714,6,0,L|341:97,3,17.5
341,140,113990,2,0,L|318:122,3,17.5
348,163,114265,5,0,0:0:0:0:
341,175,114334,1,0,0:0:0:0:
328,187,114403,1,0,0:0:0:0:
312,193,114472,1,0,0:0:0:0:
294,218,114540,5,0,0:0:0:0:
272,225,114609,1,0,0:0:0:0:
248,226,114678,1,0,0:0:0:0:
223,222,114747,1,0,0:0:0:0:
195,240,114815,5,0,0:0:0:0:
166,227,114884,1,0,0:0:0:0:
140,207,114953,1,0,0:0:0:0:
124,179,115022,1,0,0:0:0:0:
116,148,115091,6,0,L|111:119,2,17.5
384,56,115503,5,0,0:0:0:0:
469,200,115641,1,0,0:0:0:0:
130,56,115916,1,0,0:0:0:0:
43,200,116054,1,0,0:0:0:0:
43,200,116192,2,0,L|71:199,1,17.5
254,200,116329,6,0,L|246:209,8,8.75
138,340,116742,2,0,L|155:320,1,17.5
384,56,117017,5,0,0:0:0:0:
130,56,117155,1,0,0:0:0:0:
130,56,117292,2,0,L|143:71,1,17.5
254,200,117430,1,0,0:0:0:0:
455,189,117705,5,0,0:0:0:0:
374,340,117843,1,0,0:0:0:0:
57,189,118118,1,0,0:0:0:0:
138,340,118256,1,0,0:0:0:0:
138,340,118393,2,0,L|156:318,1,17.5
254,200,118531,5,0,0:0:0:0:
254,210,118669,1,0,0:0:0:0:
254,220,118806,1,0,0:0:0:0:
254,230,118944,1,0,0:0:0:0:
362,200,119219,5,0,0:0:0:0:
150,200,119357,1,0,0:0:0:0:
150,200,119494,2,0,L|161:216,1,17.5
254,347,119632,1,0,0:0:0:0:
311,271,119770,6,0,L|347:294,3,35
296,257,120045,1,0,0:0:0:0:
280,243,120114,1,0,0:0:0:0:
269,224,120182,1,0,0:0:0:0:
260,204,120251,1,0,0:0:0:0:
226,128,120320,6,0,L|181:148,3,35
248,118,120595,1,0,0:0:0:0:
270,108,120664,1,0,0:0:0:0:
294,106,120733,1,0,0:0:0:0:
318,110,120802,1,0,0:0:0:0:
406,130,120870,6,0,L|426:95,3,35
393,157,121146,1,0,0:0:0:0:
377,179,121214,1,0,0:0:0:0:
355,196,121283,1,0,0:0:0:0:
331,210,121352,1,0,0:0:0:0:
240,248,121421,6,0,L|285:283,3,35
211,226,121696,1,0,0:0:0:0:
191,201,121765,1,0,0:0:0:0:
175,173,121834,1,0,0:0:0:0:
166,142,121903,1,0,0:0:0:0:
152,56,121971,6,0,L|184:28,3,35
126,83,122247,1,0,0:0:0:0:
104,114,122315,1,0,0:0:0:0:
92,150,122384,1,0,0:0:0:0:
90,188,122453,1,0,0:0:0:0:
97,286,122522,6,0,L|36:278,3,35
141,290,122797,1,0,0:0:0:0:
186,286,122866,1,0,0:0:0:0:
229,273,122935,1,0,0:0:0:0:
266,248,123003,1,0,0:0:0:0:
353,152,123072,6,0,L|387:196,3,35
318,114,123348,1,0,0:0:0:0:
278,80,123416,1,0,0:0:0:0:
228,63,123485,1,0,0:0:0:0:
175,63,123554,1,0,0:0:0:0:
59,71,123623,6,0,L|30:24,3,35
89,115,123898,1,0,0:0:0:0:
127,160,123967,1,0,0:0:0:0:
176,192,124036,1,0,0:0:0:0:
233,206,124104,1,0,0:0:0:0:
353,193,124173,5,0,0:0:0:0:
246,41,124724,1,0,0:0:0:0:
166,206,125274,1,0,0:0:0:0:
353,193,125549,1,0,0:0:0:0:
