osu file format v14

[General]
AudioFilename: audio.mp3
AudioLeadIn: 0
PreviewTime: 56855
Countdown: 0
SampleSet: Soft
StackLeniency: 0.4
Mode: 0
LetterboxInBreaks: 0
WidescreenStoryboard: 1

[Editor]
Bookmarks: 4788
DistanceSpacing: 0.8
BeatDivisor: 6
GridSize: 8
TimelineZoom: 2

[Metadata]
Title:Haryu
TitleUnicode:春竜 ~Haryu~
Artist:Azu
ArtistUnicode:あず♪
Creator:milr_
Version:Expert
Source:太鼓の達人
Tags:Taiko no Tatsujin Down electronic instrumental video game ソライロ sorairo ver. version オリジナルサウンドトラック やきとうもろこし 第2弾 original soundtrack yakitoumorokoshi daini-dan dainidan second edition
BeatmapID:2243948
BeatmapSetID:576232

[Difficulty]
HPDrainRate:7
CircleSize:4.2
OverallDifficulty:8.2
ApproachRate:9.2
SliderMultiplier:1.8
SliderTickRate:1

[Events]
//Background and Video events
0,0,"spring-landscapes-wallpapers-photo.jpg",0,0
//Break Periods
//Storyboard Layer 0 (Background)
//Storyboard Layer 1 (Fail)
//Storyboard Layer 2 (Pass)
//Storyboard Layer 3 (Foreground)
//Storyboard Layer 4 (Overlay)
//Storyboard Sound Samples

[TimingPoints]
170,275.229357798165,4,2,1,70,1,0
13381,-166.666666666667,4,2,1,70,0,0
14413,-166.666666666667,4,2,1,5,0,0
14481,-100,4,2,1,70,0,0
16614,-100,4,2,1,5,0,0
16683,-100,4,2,1,70,0,0
42004,275.229357798165,6,2,1,75,1,1
42004,-83.3333333333333,6,2,1,75,0,1
45031,275.229357798165,6,2,1,75,1,1
45031,-83.3333333333333,4,2,1,75,0,1
48058,275.229357798165,6,2,1,75,1,1
48058,-83.3333333333333,4,2,1,75,0,1
51085,275.229357798165,6,2,1,75,1,1
51085,-83.3333333333333,4,2,1,75,0,1
52736,275.229357798165,4,2,1,75,1,1
52736,-83.3333333333333,4,2,1,75,0,1
54937,-83.3333333333333,4,2,1,70,0,0
55763,-83.3333333333333,4,2,2,60,0,0
55832,-83.3333333333333,4,2,2,5,0,0
55901,-83.3333333333333,4,2,2,60,0,0
55969,-83.3333333333333,4,2,2,5,0,0
56038,-166.666666666667,4,2,2,60,0,0
56864,275.229357798165,3,2,2,60,1,0
66703,-100,4,2,2,5,0,0
66772,-100,4,2,2,60,0,0
68354,-100,4,2,2,5,0,0
68423,-100,4,2,2,60,0,0
68630,-100,4,2,2,5,0,0
68698,-100,4,2,2,60,0,0
69455,-100,4,2,2,5,0,0
69524,-100,4,2,2,60,0,0
71657,-100,4,2,2,5,0,0
71726,-100,4,2,2,60,0,0
76061,-100,4,2,2,5,0,0
76130,-100,4,2,2,60,0,0
76336,-100,4,2,2,5,0,0
76405,-100,4,2,2,60,0,0
76611,-100,4,2,2,5,0,0
76680,-100,4,2,2,60,0,0
77712,-100,4,2,2,5,0,0
77781,-100,4,2,2,60,0,0
79363,-100,4,2,2,5,0,0
79432,-100,4,2,2,60,0,0
79639,-100,4,2,2,5,0,0
79708,-100,4,2,2,60,0,0
79914,-100,4,2,2,5,0,0
79983,275.229357798165,4,2,1,70,1,0
81083,-166.666666666667,4,2,1,70,0,0
84386,-100,4,2,1,70,0,0
88790,-90.9090909090909,4,2,1,70,0,0

[Colours]
Combo1 : 181,124,237
Combo2 : 250,135,207
Combo3 : 255,207,45
Combo4 : 254,10,163
Combo5 : 164,66,238
Combo6 : 238,115,129
Combo7 : 238,0,27
Combo8 : 202,0,255

[HitObjects]
183,205,4573,6,0,P|200:133|226:6,1,180,4|0,1:2|0:0,0:0:0:0:
246,271,4986,1,4,1:2:0:0:
246,271,6775,102,0,P|176:260|206:343,1,180,4|0,1:2|0:0,0:0:0:0:
107,114,7188,1,4,1:2:0:0:
107,114,8977,70,0,P|163:185|286:161,1,180,4|0,1:2|0:0,0:0:0:0:
73,362,9390,1,4,1:2:0:0:
73,362,11179,102,0,P|94:300|9:226,1,180,4|0,1:2|0:0,0:0:0:0:
85,7,11591,2,0,P|75:82|118:180,1,180,4|0,1:2|0:0,0:0:0:0:
127,273,12004,2,0,P|202:287|187:213,1,180,4|0,1:2|0:0,0:0:0:0:
167,39,12417,2,0,P|169:95|280:132,1,180,4|0,1:2|0:0,0:0:0:0:
216,368,12830,2,0,P|255:355|214:321,1,90,4|0,1:2|0:0,0:0:0:0:
338,88,13105,2,0,P|382:110|361:135,1,90,4|0,1:2|0:0,0:0:0:0:
512,194,13381,70,0,B|487:280|321:301|396:215|247:198|191:365,1,404.999987640381,4|0,1:2|0:0,0:0:0:0:
216,368,14481,102,0,P|205:313|158:329,1,90
274,161,14757,2,0,P|263:218|246:281,1,90,0|0,0:0|0:0,0:0:0:0:
8,295,15032,2,0,P|9:280|37:282,1,45
72,347,15169,2,0,P|64:326|58:305,1,45,0|0,0:0|0:0,0:0:0:0:
117,208,15307,1,0,0:0:0:0:
105,203,15376,1,0,0:0:0:0:
91,201,15445,1,0,0:0:0:0:
79,203,15513,1,0,0:0:0:0:
67,209,15582,70,0,P|35:136|55:101,1,90,4|0,1:2|0:0,0:0:0:0:
105,8,15858,2,0,P|100:78|-22:80,1,180,8|0,0:0|0:0,0:0:0:0:
273,187,16270,1,0,1:0:0:0:
188,247,16408,2,0,P|191:202|269:243,1,135,8|0,0:0|0:0,0:0:0:0:
274,216,16683,102,0,P|266:265|259:336,1,90,0|0,1:0|0:0,0:0:0:0:
209,102,16958,1,8,0:0:0:0:
341,281,17096,1,0,0:0:0:0:
214,374,17234,1,0,0:0:0:0:
208,357,17371,1,0,1:0:0:0:
356,168,17509,1,8,0:0:0:0:
352,188,17646,1,0,0:0:0:0:
233,62,17784,70,0,P|270:103|314:110,1,90,0|0,1:0|0:0,0:0:0:0:
465,221,18059,2,0,P|472:155|362:143,1,180,8|0,0:0|0:0,0:0:0:0:
419,288,18472,1,0,1:0:0:0:
436,10,18610,2,0,P|420:90|412:138,1,90,8|0,0:0|0:0,0:0:0:0:
475,155,18816,1,0,0:0:0:0:
475,155,18885,102,0,P|435:112|449:80,1,90,0|0,1:0|0:0,0:0:0:0:
311,22,19160,1,8,0:0:0:0:
378,204,19298,1,0,0:0:0:0:
209,368,19435,1,0,0:0:0:0:
206,352,19573,1,0,1:0:0:0:
335,334,19711,2,0,P|343:302|350:270,1,45,10|2,0:0|0:0,0:0:0:0:
280,262,19848,2,0,P|282:289|313:294,1,45,2|2,0:0|0:0,0:0:0:0:
412,377,19986,70,0,P|364:307|338:306,1,90,0|0,1:0|0:0,0:0:0:0:
464,210,20261,1,8,0:0:0:0:
354,70,20399,2,0,P|365:133|382:184,1,90,0|0,0:0|0:0,0:0:0:0:
270,332,20674,1,0,1:0:0:0:
268,199,20812,2,0,P|313:255|347:255,1,90,8|0,0:0|0:0,0:0:0:0:
485,113,21087,101,0,1:0:0:0:
380,1,21224,2,0,P|367:59|334:28,1,90,0|8,0:0|0:0,0:0:0:0:
224,3,21500,1,0,1:0:0:0:
256,148,21637,2,0,P|271:104|281:51,1,90,0|0,0:0|1:0,0:0:0:0:
221,372,21913,2,0,P|199:324|161:309,1,90,8|0,0:0|1:0,0:0:0:0:
49,282,22119,1,0,1:0:0:0:
63,307,22188,70,0,P|121:292|165:274,1,90,0|0,1:0|0:0,0:0:0:0:
151,145,22463,1,8,0:0:0:0:
301,289,22601,2,0,P|243:291|198:228,1,135,0|0,1:0|0:0,0:0:0:0:
163,155,22876,2,0,P|176:207|147:227,1,90,0|8,1:0|0:0,0:0:0:0:
16,137,23151,1,0,0:0:0:0:
70,0,23289,102,0,P|76:55|89:116,1,90,0|0,1:0|1:0,0:0:0:0:
243,188,23564,1,8,0:0:0:0:
130,312,23702,1,0,0:0:0:0:
75,235,23839,2,0,P|63:252|59:247,2,22.5,0|0|0,1:0|1:0|1:0,0:0:0:0:
134,299,23977,2,0,P|128:244|166:223,1,90,0|8,1:0|0:0,0:0:0:0:
250,365,24252,2,0,P|265:382|256:397,2,22.5,0|0|0,1:0|1:0|1:0,0:0:0:0:
213,341,24390,70,0,P|275:331|340:325,1,90,4|0,1:2|0:0,0:0:0:0:
297,81,24665,2,0,P|334:151|244:165,1,180,8|0,0:0|0:0,0:0:0:0:
234,24,25078,1,0,1:0:0:0:
405,60,25215,2,0,P|359:80|345:131,1,90,8|0,0:0|0:0,0:0:0:0:
295,256,25491,102,0,P|289:187|275:142,1,90,0|0,1:0|0:0,0:0:0:0:
490,84,25766,1,8,0:0:0:0:
442,11,25903,2,0,P|436:32|413:20,1,45,0|0,0:0|0:0,0:0:0:0:
451,154,26041,1,0,0:0:0:0:
460,159,26110,1,0,0:0:0:0:
474,164,26179,1,0,1:0:0:0:
488,164,26247,1,0,0:0:0:0:
490,84,26316,2,0,P|446:146|467:229,1,135,8|0,0:0|0:0,0:0:0:0:
498,276,26591,70,0,P|465:237|416:198,1,90,0|0,1:0|0:0,0:0:0:0:
264,373,26867,2,0,P|329:355|360:246,1,180,8|0,0:0|0:0,0:0:0:0:
214,113,27280,1,0,1:0:0:0:
183,267,27417,2,0,P|219:258|244:312,1,90,8|0,0:0|0:0,0:0:0:0:
300,111,27692,102,0,P|283:181|275:226,1,90,0|0,1:0|0:0,0:0:0:0:
149,18,27968,1,8,0:0:0:0:
168,112,28105,2,0,P|192:94|200:109,1,45,0|0,0:0|0:0,0:0:0:0:
257,43,28243,1,0,0:0:0:0:
247,51,28312,1,0,0:0:0:0:
235,56,28380,1,0,1:0:0:0:
220,58,28449,1,0,0:0:0:0:
149,18,28518,2,0,P|159:92|84:109,1,135,8|0,0:0|0:0,0:0:0:0:
39,84,28793,70,0,P|77:127|111:189,1,90,0|0,1:0|0:0,0:0:0:0:
17,317,29069,2,0,P|30:243|60:137,1,180,8|0,0:0|0:0,0:0:0:0:
232,248,29481,1,0,1:0:0:0:
121,363,29619,2,0,P|62:320|76:276,1,90,8|0,0:0|0:0,0:0:0:0:
182,194,29894,102,0,P|192:249|208:296,1,90,0|0,1:0|0:0,0:0:0:0:
151,76,30169,2,0,P|146:124|106:121,1,90,8|0,0:0|1:0,0:0:0:0:
232,19,30445,1,0,0:0:0:0:
232,19,30513,1,0,0:0:0:0:
232,19,30582,1,0,0:0:0:0:
161,153,30720,2,0,P|196:164|215:190,2,60,8|0|0,0:0|0:0|0:0,0:0:0:0:
392,64,30995,69,0,1:0:0:0:
343,49,31087,1,0,0:0:0:0:
308,78,31179,1,0,0:0:0:0:
295,165,31270,2,0,P|292:204|273:252,2,60,8|0|0,0:0|0:0|0:0,0:0:0:0:
430,135,31546,1,0,0:0:0:0:
442,184,31637,1,0,0:0:0:0:
492,212,31729,1,0,0:0:0:0:
512,140,31821,2,0,P|475:132|446:122,2,60,8|0|0,0:0|0:0|0:0,0:0:0:0:
388,13,32096,102,0,P|381:42|413:67,2,60,0|0|0,1:0|0:0|0:0,0:0:0:0:
342,159,32371,2,0,P|350:129|315:152,2,60,8|0|0,0:0|0:0|0:0,0:0:0:0:
313,380,32646,1,0,0:0:0:0:
347,339,32738,1,0,0:0:0:0:
323,292,32830,1,0,0:0:0:0:
278,266,32922,1,8,0:0:0:0:
246,221,33013,1,0,0:0:0:0:
265,169,33105,1,0,0:0:0:0:
341,177,33197,70,0,P|376:185|419:193,2,60,4|0|0,1:2|0:0|0:0,0:0:0:0:
177,3,33472,1,8,1:2:0:0:
228,17,33564,1,0,0:0:0:0:
243,67,33656,1,0,0:0:0:0:
184,126,33747,2,0,P|160:104|162:67,2,60,0|0|0,1:0|0:0|0:0,0:0:0:0:
332,25,34023,2,0,P|321:61|313:94,2,60,8|0|0,1:2|0:0|0:0,0:0:0:0:
212,209,34298,102,0,P|224:193|266:189,2,60,0|0|0,1:0|0:0|0:0,0:0:0:0:
343,365,34573,1,8,1:2:0:0:
291,378,34665,1,0,0:0:0:0:
255,337,34757,1,0,0:0:0:0:
298,266,34848,2,0,P|334:275|371:284,2,60,0|0|0,1:0|0:0|0:0,0:0:0:0:
190,378,35124,2,0,P|188:340|164:334,2,60,8|0|0,1:2|0:0|0:0,0:0:0:0:
126,248,35399,70,0,P|101:276|112:320,2,60,0|0|0,1:0|0:0|0:0,0:0:0:0:
231,76,35674,1,8,1:2:0:0:
223,129,35766,1,0,0:0:0:0:
171,146,35858,1,0,0:0:0:0:
126,82,35949,2,0,P|133:38|139:9,2,60,0|0|0,1:0|0:0|0:0,0:0:0:0:
14,190,36224,2,0,P|44:208|26:233,2,60,8|0|0,1:2|0:0|0:0,0:0:0:0:
44,355,36500,102,0,P|77:366|110:386,2,60,0|0|0,1:0|0:0|0:0,0:0:0:0:
120,208,36775,1,8,1:2:0:0:
128,259,36867,1,0,0:0:0:0:
177,271,36958,1,0,0:0:0:0:
241,228,37050,2,0,P|230:200|219:163,2,60,0|0|0,1:0|0:0|0:0,0:0:0:0:
172,351,37325,2,0,P|208:356|211:384,2,60,8|0|0,1:2|0:0|0:0,0:0:0:0:
312,283,37601,70,0,P|283:266|250:242,2,60,0|0|0,1:0|0:0|0:0,0:0:0:0:
469,351,37876,1,12,1:2:0:0:
436,310,37968,1,0,0:0:0:0:
383,324,38059,1,0,0:0:0:0:
324,382,38151,2,0,P|288:373|288:343,2,60,0|0|0,1:0|0:0|0:0,0:0:0:0:
413,246,38426,2,0,P|408:286|401:331,2,60,8|0|0,1:2|0:0|0:0,0:0:0:0:
300,165,38702,102,0,P|329:184|314:202,2,60,0|0|0,1:0|0:0|0:0,0:0:0:0:
390,10,38977,1,8,1:2:0:0:
441,30,39069,1,0,0:0:0:0:
442,83,39160,1,0,0:0:0:0:
373,114,39252,2,0,P|350:84|336:58,2,60,0|0|0,1:0|0:0|0:0,0:0:0:0:
502,155,39527,2,0,P|472:160|475:192,2,60,8|0|0,1:2|0:0|0:0,0:0:0:0:
268,191,39802,69,0,1:0:0:0:
319,175,39894,1,0,0:0:0:0:
358,213,39986,1,0,0:0:0:0:
368,289,40078,2,0,P|354:326|334:361,2,60,12|0|0,1:2|0:0|0:0,0:0:0:0:
214,365,40353,1,0,1:0:0:0:
253,328,40445,1,0,0:0:0:0:
229,280,40536,1,0,0:0:0:0:
148,256,40628,2,0,P|124:282|158:306,2,60,8|0|0,1:2|0:0|0:0,0:0:0:0:
207,164,40903,101,0,1:0:0:0:
255,186,40995,1,0,0:0:0:0:
294,149,41087,1,0,0:0:0:0:
340,85,41179,1,8,1:2:0:0:
310,38,41270,1,0,0:0:0:0:
354,1,41362,1,0,0:0:0:0:
426,35,41454,2,0,P|436:45|402:52,2,60,0|0|0,1:0|1:0|1:0,0:0:0:0:
381,150,41729,2,0,P|399:147|394:186,2,60,0|0|0,1:0|0:0|1:0,0:0:0:0:
483,186,42004,22,0,P|410:217|278:291,1,215.999993408203,4|0,1:2|0:0,0:0:0:0:
120,343,42416,2,0,B|146:390|218:378|240:333|226:270|153:220,1,215.999993408203,4|0,1:2|0:0,0:0:0:0:
296,23,42829,2,0,P|250:35|269:99,1,107.999996704102,4|0,1:2|0:0,0:0:0:0:
56,148,43104,2,0,P|129:164|181:178,1,107.999996704102,4|0,1:2|0:0,0:0:0:0:
297,300,43380,1,4,1:2:0:0:
106,369,43517,2,0,P|122:368|117:347,2,35.9999989013672,0|0|0,1:0|1:0|1:0,0:0:0:0:
74,321,43655,6,0,P|143:342|201:222,1,215.999993408203,4|0,1:2|0:0,0:0:0:0:
182,4,44068,2,0,P|154:77|124:240,1,215.999993408203,4|0,1:2|0:0,0:0:0:0:
273,374,44481,2,0,P|214:347|218:294,1,107.999996704102,4|0,1:2|0:0,0:0:0:0:
41,117,44756,2,0,P|53:140|8:121,1,107.999996704102,4|0,1:2|0:0,0:0:0:0:
290,35,45031,38,0,P|209:36|128:170,1,215.999993408203,4|0,1:2|0:0,0:0:0:0:
255,371,45443,2,0,B|301:371|351:308|319:245|269:196|238:166,1,215.999993408203,4|0,1:2|0:0,0:0:0:0:
335,19,45856,2,0,P|307:66|291:120,1,107.999996704102,4|0,1:2|0:0,0:0:0:0:
191,280,46131,2,0,P|157:222|117:251,1,107.999996704102,4|0,1:2|0:0,0:0:0:0:
367,371,46407,1,4,1:2:0:0:
443,348,46544,1,0,1:0:0:0:
443,348,46613,1,0,1:0:0:0:
443,348,46682,6,0,P|372:342|229:267,1,215.999993408203,4|0,1:2|0:0,0:0:0:0:
295,16,47095,2,0,P|332:47|227:133,1,215.999993408203,4|0,1:2|0:0,0:0:0:0:
246,372,47508,2,0,P|282:317|304:272,1,107.999996704102,4|0,1:2|1:0,0:0:0:0:
405,231,47714,1,0,1:0:0:0:
405,231,47783,2,0,P|349:205|368:163,1,107.999996704102,4|0,1:2|1:0,0:0:0:0:
463,100,47989,1,0,0:0:0:0:
463,100,48058,38,0,P|394:90|357:60,2,107.999996704102,4|0|0,1:2|0:0|0:0,0:0:0:0:
489,311,48470,2,0,P|414:274|365:387,1,215.999993408203,4|0,1:2|0:0,0:0:0:0:
439,152,48883,2,0,P|470:201|507:176,1,107.999996704102,4|0,1:2|0:0,0:0:0:0:
269,19,49158,2,0,P|294:85|304:142,1,107.999996704102,4|0,1:2|0:0,0:0:0:0:
267,363,49434,2,0,P|276:348|287:360,5,35.9999989013672,4|0|0|0|0|0,1:2|1:0|1:0|1:0|1:0|1:0,0:0:0:0:
316,327,49709,6,0,P|261:292|277:254,1,107.999996704102,4|0,1:2|0:0,0:0:0:0:
387,61,49984,1,0,0:0:0:0:
387,61,50122,2,0,P|326:130|194:175,1,215.999993408203,4|0,1:2|0:0,0:0:0:0:
29,297,50535,2,0,P|74:313|70:372,1,107.999996704102,4|0,1:2|0:0,0:0:0:0:
236,253,50810,1,4,1:2:0:0:
105,38,50947,1,4,1:2:0:0:
32,74,51085,38,0,P|102:88|149:101,1,107.999996704102,4|0,1:2|0:0,0:0:0:0:
81,284,51360,1,0,0:0:0:0:
81,284,51497,2,0,P|114:216|254:196,1,215.999993408203,4|0,1:2|0:0,0:0:0:0:
351,356,51910,2,0,P|329:377|285:332,1,107.999996704102,4|0,1:2|0:0,0:0:0:0:
178,107,52185,2,0,P|196:172|204:234,1,107.999996704102,4|0,1:2|0:0,0:0:0:0:
436,16,52461,2,0,P|377:29|369:81,1,107.999996704102,4|0,1:2|0:0,0:0:0:0:
482,119,52736,6,0,P|416:102|306:82,1,161.999995056153,4|0,1:2|0:0,0:0:0:0:
255,121,53011,1,0,1:0:0:0:
393,352,53148,1,0,1:0:0:0:
393,352,53286,2,0,P|327:366|313:268,1,161.999995056153,4|0,1:2|0:0,0:0:0:0:
320,214,53561,1,0,1:0:0:0:
496,108,53699,1,0,1:0:0:0:
221,0,53836,38,0,P|252:75|269:191,1,161.999995056153,4|0,1:2|0:0,0:0:0:0:
243,227,54112,1,0,1:0:0:0:
326,38,54249,1,0,1:0:0:0:
173,118,54387,1,4,1:2:0:0:
137,119,54456,1,0,1:0:0:0:
101,100,54524,1,0,1:0:0:0:
82,63,54593,1,0,1:0:0:0:
131,0,54662,2,0,P|147:4|143:21,5,35.9999989013672,4|0|0|4|0|0,1:2|1:0|1:0|1:2|1:0|1:0,0:0:0:0:
7,44,54937,101,4,1:2:0:0:
7,44,55763,2,0,P|34:58|71:71,1,53.9999983520508,0|0,0:0|0:0,0:0:0:0:
6,185,55901,2,0,P|9:153|39:144,1,53.9999983520508,0|0,0:0|0:0,0:0:0:0:
198,6,56038,2,0,B|133:28|198:82|63:151,2,161.999995056153,0|0|8,0:0|0:0|1:2,0:0:0:0:
276,47,57001,101,0,0:0:0:0:
276,47,57139,2,0,P|262:94|257:137,1,90,2|0,0:0|0:0,0:0:0:0:
146,163,57414,2,0,P|174:204|215:184,1,90,2|0,0:0|0:0,0:0:0:0:
369,373,57689,2,0,P|361:314|298:289,1,90,8|0,1:2|0:0,0:0:0:0:
180,333,57964,1,2,0:0:0:0:
277,233,58102,1,0,0:0:0:0:
293,238,58240,1,8,1:2:0:0:
307,225,58377,1,0,0:0:0:0:
149,146,58515,70,0,P|196:160|239:167,1,90,8|0,1:2|0:0,0:0:0:0:
402,28,58790,2,0,P|363:18|356:69,1,90,2|0,0:0|0:0,0:0:0:0:
420,199,59065,2,0,P|389:237|391:281,1,90,2|0,0:0|0:0,0:0:0:0:
498,129,59341,1,8,1:2:0:0:
326,187,59478,1,0,0:0:0:0:
463,308,59616,1,2,0:0:0:0:
234,369,59753,1,0,0:0:0:0:
252,378,59891,1,8,1:2:0:0:
264,366,60029,1,0,0:0:0:0:
219,239,60166,102,0,P|180:286|208:333,1,90,8|0,1:2|0:0,0:0:0:0:
381,263,60441,2,0,P|326:269|267:282,1,90,2|0,0:0|0:0,0:0:0:0:
246,13,60717,2,0,P|289:37|262:76,1,90,2|0,0:0|0:0,0:0:0:0:
150,181,60992,2,0,P|180:130|196:72,1,90,8|0,1:2|0:0,0:0:0:0:
163,0,61267,1,2,0:0:0:0:
331,159,61405,1,0,0:0:0:0:
325,177,61542,1,8,1:2:0:0:
345,187,61680,1,0,0:0:0:0:
192,333,61818,70,0,P|140:346|114:388,1,90,8|0,1:2|0:0,0:0:0:0:
105,180,62093,2,0,P|118:236|121:290,1,90,2|0,0:0|0:0,0:0:0:0:
277,348,62368,2,0,P|214:333|223:285,1,90,2|0,0:0|0:0,0:0:0:0:
20,239,62643,2,0,P|58:194|110:216,1,90,8|0,1:2|0:0,0:0:0:0:
126,53,62918,1,2,0:0:0:0:
155,47,62987,1,0,0:0:0:0:
171,12,63056,1,0,0:0:0:0:
171,12,63194,2,0,P|155:94|151:169,1,135,8|0,1:2|0:0,0:0:0:0:
172,174,63469,102,0,P|232:178|252:222,1,90,8|0,1:2|0:0,0:0:0:0:
224,361,63744,2,0,P|214:292|200:254,1,90,2|0,0:0|0:0,0:0:0:0:
351,226,64019,2,0,P|315:281|275:290,1,90,2|0,0:0|0:0,0:0:0:0:
78,281,64295,2,0,P|132:300|177:326,1,90,8|0,1:2|0:0,0:0:0:0:
60,194,64570,1,2,0:0:0:0:
9,373,64707,1,0,0:0:0:0:
1,354,64845,1,8,1:2:0:0:
18,344,64983,1,0,0:0:0:0:
187,221,65120,70,0,P|198:266|153:309,1,90,8|0,1:2|0:0,0:0:0:0:
120,132,65396,2,0,P|179:144|225:150,1,90,2|0,0:0|0:0,0:0:0:0:
262,326,65671,2,0,P|232:369|264:360,1,90,2|0,0:0|0:0,0:0:0:0:
174,245,65946,1,8,1:2:0:0:
356,175,66084,1,0,0:0:0:0:
460,364,66221,1,2,0:0:0:0:
417,352,66290,1,0,0:0:0:0:
391,312,66359,1,0,0:0:0:0:
398,273,66428,1,0,0:0:0:0:
416,242,66496,2,0,P|393:195|371:103,1,135,8|0,1:2|0:0,0:0:0:0:
466,95,66772,102,0,P|447:151|404:163,1,90,8|0,1:2|0:0,0:0:0:0:
282,10,67047,2,0,P|332:36|304:61,1,90,2|0,0:0|0:0,0:0:0:0:
228,183,67322,2,0,P|297:197|347:211,1,90,2|0,0:0|0:0,0:0:0:0:
211,46,67597,1,8,1:2:0:0:
149,145,67735,1,0,0:0:0:0:
310,297,67873,1,2,0:0:0:0:
299,315,68010,1,0,0:0:0:0:
166,363,68148,2,0,P|158:292|228:261,1,135,8|0,1:2|0:0,0:0:0:0:
153,240,68423,70,0,P|175:191|199:108,1,135,8|0,1:2|0:0,0:0:0:0:
177,20,68698,1,2,0:0:0:0:
220,101,68836,1,0,0:0:0:0:
380,48,68974,1,2,0:0:0:0:
380,48,69249,2,0,P|412:56|393:-11,1,135,8|0,1:2|0:0,0:0:0:0:
300,75,69524,1,2,0:0:0:0:
224,318,69662,1,0,0:0:0:0:
328,377,69799,2,0,P|313:326|295:270,1,90,8|0,1:2|0:0,0:0:0:0:
435,181,70074,102,0,P|459:252|355:314,1,180,8|2,1:2|0:0,0:0:0:0:
342,127,70487,1,0,0:0:0:0:
356,141,70625,1,2,0:0:0:0:
356,141,70900,2,0,P|380:88|406:84,1,90,8|0,1:2|0:0,0:0:0:0:
237,7,71175,2,0,P|263:53|284:105,1,90,2|0,0:0|0:0,0:0:0:0:
334,250,71451,2,0,B|327:220|360:197|438:235|369:311,1,135,8|0,1:2|0:0,0:0:0:0:
416,323,71726,70,0,P|338:302|336:385,1,180,8|2,1:2|0:0,0:0:0:0:
280,165,72139,1,0,0:0:0:0:
271,183,72276,1,2,0:0:0:0:
271,183,72552,2,0,P|218:209|175:211,1,90,8|0,1:2|0:0,0:0:0:0:
172,367,72827,2,0,P|162:316|211:307,1,90,2|0,0:0|0:0,0:0:0:0:
125,160,73102,2,0,P|170:195|141:242,1,90,8|0,1:2|0:0,0:0:0:0:
0,279,73377,102,0,B|31:320|80:338|188:284,1,180,8|2,1:2|0:0,0:0:0:0:
45,99,73790,1,0,0:0:0:0:
65,108,73928,1,2,0:0:0:0:
65,108,74203,2,0,P|107:123|78:156,1,90,8|0,1:2|0:0,0:0:0:0:
231,179,74478,2,0,P|172:205|130:232,1,90,2|0,0:0|0:0,0:0:0:0:
125,7,74753,2,0,P|125:56|175:89,1,90,8|0,1:2|0:0,0:0:0:0:
310,61,75029,70,0,B|257:56|226:86|225:129|243:176|284:216,1,180,8|2,1:2|0:0,0:0:0:0:
341,363,75441,1,0,0:0:0:0:
346,348,75579,1,2,0:0:0:0:
346,348,75854,2,0,P|298:319|206:328,1,135,8|0,1:2|0:0,0:0:0:0:
283,239,76129,2,0,P|330:299|283:302,1,135,2|0,0:0|0:0,0:0:0:0:
372,232,76405,2,0,P|420:195|475:133,1,135,8|0,1:2|0:0,0:0:0:0:
498,262,76680,102,0,P|409:217|418:109,1,180,8|2,1:2|0:0,0:0:0:0:
486,19,77093,1,0,0:0:0:0:
468,11,77230,1,2,0:0:0:0:
468,11,77506,2,0,P|472:68|514:159,1,135,8|0,1:2|0:0,0:0:0:0:
428,76,77781,2,0,P|386:65|379:110,1,90,2|0,0:0|0:0,0:0:0:0:
351,264,78056,1,8,1:2:0:0:
351,264,78331,70,0,P|335:185|249:130,1,180,8|2,1:2|0:0,0:0:0:0:
244,357,78744,1,0,0:0:0:0:
266,365,78882,1,2,0:0:0:0:
266,365,79157,2,0,P|206:341|243:291,1,135,8|0,1:2|0:0,0:0:0:0:
273,231,79432,2,0,P|217:267|136:308,1,135,2|0,0:0|0:0,0:0:0:0:
53,326,79707,2,0,P|98:385|112:332,1,135,8|0,1:2|0:0,0:0:0:0:
103,241,79982,101,4,1:2:0:0:
165,14,80258,1,4,1:2:0:0:
25,254,80533,1,4,1:2:0:0:
25,254,81083,70,0,P|64:263|20:288,1,107.999996704102,0|0,0:0|0:0,0:0:0:0:
237,373,81496,1,0,0:0:0:0:
237,373,82184,102,0,P|186:331|154:284,1,107.999996704102,0|0,0:0|0:0,0:0:0:0:
289,88,82597,1,0,0:0:0:0:
289,88,83285,69,0,0:0:0:0:
353,140,83423,2,0,P|325:172|293:168,1,53.9999983520508,0|0,0:0|0:0,0:0:0:0:
185,15,83698,2,0,P|229:24|249:28,1,53.9999983520508,0|0,0:0|0:0,0:0:0:0:
212,237,83973,2,0,P|222:197|237:206,2,53.9999983520508,0|0|0,0:0|0:0|0:0,0:0:0:0:
161,297,84386,102,0,P|237:288|305:372,1,180,0|0,1:0|0:0,0:0:0:0:
348,240,84799,1,0,0:0:0:0:
483,354,84937,2,0,P|428:336|297:308,1,180,0|0,0:0|0:0,0:0:0:0:
426,51,85487,70,0,P|468:62|465:10,1,90,0|0,1:0|0:0,0:0:0:0:
412,176,85762,2,0,P|399:134|348:140,1,90,0|0,0:0|0:0,0:0:0:0:
296,5,86037,2,0,B|337:43|354:93|363:131|305:185,1,180,0|0,0:0|0:0,0:0:0:0:
174,380,86588,102,0,P|160:300|138:199,1,180,0|0,1:0|0:0,0:0:0:0:
76,335,87001,1,0,0:0:0:0:
236,261,87138,2,0,P|158:208|197:116,1,180,0|0,1:0|0:0,0:0:0:0:
3,10,87689,70,0,P|38:10|41:62,1,90,0|0,1:0|0:0,0:0:0:0:
143,157,87964,2,0,P|129:106|128:53,1,90,0|0,1:0|0:0,0:0:0:0:
44,333,88239,1,0,1:0:0:0:
227,194,88377,1,0,1:0:0:0:
227,194,88446,1,0,1:0:0:0:
227,194,88515,1,0,1:0:0:0:
59,246,88652,1,0,1:0:0:0:
21,234,88721,1,0,1:0:0:0:
7,196,88790,102,0,P|85:223|184:294,1,198.000006042481,4|8,1:2|0:0,0:0:0:0:
316,180,89203,1,0,0:0:0:0:
280,361,89340,2,0,P|209:324|222:292,1,99.0000030212403,0|0,0:0|1:0,0:0:0:0:
225,152,89615,2,0,P|240:206|247:258,1,99.0000030212403,8|0,0:0|0:0,0:0:0:0:
424,384,89891,70,0,P|446:345|502:355,1,99.0000030212403,0|0,1:0|0:0,0:0:0:0:
320,221,90166,2,0,B|378:263|458:293|506:231,1,198.000006042481,8|0,0:0|0:0,0:0:0:0:
346,22,90579,1,0,1:0:0:0:
346,22,90648,1,0,0:0:0:0:
346,22,90716,1,8,0:0:0:0:
310,92,90854,1,0,0:0:0:0:
412,62,90992,102,0,P|397:122|369:291,1,198.000006042481,0|8,1:0|0:0,0:0:0:0:
246,165,91404,1,0,0:0:0:0:
315,376,91542,2,0,P|323:315|273:303,1,99.0000030212403,0|0,0:0|1:0,0:0:0:0:
485,233,91817,2,0,P|415:263|381:282,1,99.0000030212403,8|0,0:0|0:0,0:0:0:0:
280,101,92093,70,0,P|232:111|249:156,1,99.0000030212403,0|0,1:0|0:0,0:0:0:0:
343,5,92368,2,0,P|299:64|170:83,1,198.000006042481,8|0,0:0|0:0,0:0:0:0:
2,28,92781,1,0,1:0:0:0:
2,28,92849,1,0,0:0:0:0:
2,28,92918,1,8,0:0:0:0:
68,73,93056,1,0,1:0:0:0:
13,169,93193,102,0,P|92:144|225:112,1,198.000006042481,0|8,1:0|1:2,0:0:0:0:
203,116,93744,1,0,0:0:0:0:
127,262,93882,2,0,P|84:216|98:182,1,99.0000030212403,0|8,1:0|0:0,0:0:0:0:
304,222,94157,1,0,0:0:0:0:
251,84,94294,70,0,P|240:134|234:189,1,99.0000030212403,0|0,1:0|0:0,0:0:0:0:
321,363,94570,1,8,0:0:0:0:
321,363,94707,2,0,P|344:325|296:306,1,99.0000030212403,0|0,1:0|0:0,0:0:0:0:
139,365,94982,1,0,1:0:0:0:
281,265,95120,2,0,P|333:276|401:287,1,99.0000030212403,8|0,1:2|1:0,0:0:0:0:
486,236,95326,1,0,1:0:0:0:
444,264,95395,102,0,P|443:288|476:316,2,66.0000020141602,0|0|0,1:0|0:0|0:0,0:0:0:0:
483,146,95671,2,0,P|495:188|513:231,2,66.0000020141602,8|0|0,0:0|0:0|0:0,0:0:0:0:
389,126,95946,2,0,P|390:159|342:141,2,66.0000020141602,0|0|0,0:0|0:0|0:0,0:0:0:0:
430,60,96221,2,0,P|469:54|507:43,2,66.0000020141602,8|0|0,0:0|0:0|0:0,0:0:0:0:
315,7,96496,69,0,1:0:0:0:
257,24,96588,1,0,0:0:0:0:
264,78,96680,1,0,0:0:0:0:
325,140,96771,2,0,P|345:102|334:75,2,66.0000020141602,8|0|0,0:0|0:0|0:0,0:0:0:0:
193,203,97047,1,0,0:0:0:0:
203,258,97138,1,0,0:0:0:0:
255,273,97230,1,0,0:0:0:0:
316,220,97322,2,0,P|296:173|286:133,2,66.0000020141602,8|0|0,0:0|0:0|0:0,0:0:0:0:
392,298,97597,102,0,P|321:295|237:404,1,198.000006042481,4|8,1:2|0:0,0:0:0:0:
456,173,98010,1,0,0:0:0:0:
439,361,98148,2,0,P|366:340|366:306,1,99.0000030212403,0|0,0:0|1:0,0:0:0:0:
416,184,98423,2,0,P|473:199|522:210,1,99.0000030212403,8|0,0:0|0:0,0:0:0:0:
278,31,98698,70,0,P|327:27|299:71,1,99.0000030212403,0|0,1:0|0:0,0:0:0:0:
265,281,98973,2,0,P|245:214|224:76,1,198.000006042481,8|0,0:0|0:0,0:0:0:0:
352,321,99386,1,0,1:0:0:0:
352,321,99455,1,0,0:0:0:0:
352,321,99524,1,8,0:0:0:0:
292,377,99661,1,0,0:0:0:0:
173,279,99799,102,0,P|202:213|329:202,1,198.000006042481,0|8,1:0|0:0,0:0:0:0:
248,135,100212,1,0,0:0:0:0:
366,3,100349,2,0,P|338:66|310:43,1,99.0000030212403,0|0,0:0|1:0,0:0:0:0:
179,78,100625,2,0,P|228:98|272:122,1,99.0000030212403,8|0,0:0|0:0,0:0:0:0:
348,317,100900,70,0,P|319:319|313:263,1,99.0000030212403,0|0,1:0|0:0,0:0:0:0:
442,165,101175,2,0,B|384:137|314:121|255:165|277:233,1,198.000006042481,8|0,0:0|0:0,0:0:0:0:
91,373,101588,1,0,1:0:0:0:
91,373,101657,1,0,0:0:0:0:
91,373,101726,1,8,0:0:0:0:
69,226,101863,1,0,1:0:0:0:
190,314,102001,102,0,P|140:253|78:144,1,198.000006042481,4|8,1:2|1:2,0:0:0:0:
80,149,102551,2,0,P|118:105|89:69,1,99.0000030212403,4|0,0:0|1:0,0:0:0:0:
0,311,102826,2,0,P|57:289|109:277,1,99.0000030212403,8|0,0:0|0:0,0:0:0:0:
208,65,103102,69,4,1:2:0:0:
153,124,103239,1,0,0:0:0:0:
294,205,103377,1,8,0:0:0:0:
294,205,103515,2,0,P|272:147|241:9,1,198.000006042481,0|0,1:0|1:0,0:0:0:0:
163,320,103927,2,0,P|207:330|205:387,1,99.0000030212403,8|0,0:0|1:0,0:0:0:0:
337,230,104203,102,0,P|295:220|314:184,2,66.0000020141602,4|0|0,1:2|0:0|0:0,0:0:0:0:
297,114,104478,2,0,P|260:137|220:152,2,66.0000020141602,8|0|0,0:0|0:0|0:0,0:0:0:0:
379,18,104753,2,0,P|344:41|386:63,2,66.0000020141602,4|0|0,0:0|0:0|0:0,0:0:0:0:
251,39,105028,2,0,P|273:86|288:109,2,66.0000020141602,8|0|0,0:0|0:0|0:0,0:0:0:0:
473,138,105304,69,4,1:2:0:0:
376,214,105441,1,0,1:0:0:0:
376,214,105510,1,0,1:0:0:0:
376,214,105579,1,0,1:0:0:0:
499,267,105716,1,0,1:0:0:0:
499,267,105785,1,0,1:0:0:0:
499,267,105854,2,0,P|443:298|451:322,1,99.0000030212403,0|0,1:0|1:0,0:0:0:0:
287,374,106060,1,0,1:0:0:0:
287,374,106129,2,0,P|302:378|305:350,3,49.5000015106202,0|0|0|0,1:0|1:0|1:0|1:0,0:0:0:0:
338,356,106404,102,0,P|322:299|317:247,1,99.0000030212403,4|0,1:2|0:0,0:0:0:0:
167,164,106680,2,0,P|160:220|208:223,1,99.0000030212403,8|0,1:2|1:0,0:0:0:0:
350,68,106955,2,0,P|291:11|276:-13,1,99.0000030212403,0|0,1:0|0:0,0:0:0:0:
265,201,107230,2,0,P|313:203|361:252,1,99.0000030212403,8|0,1:2|0:0,0:0:0:0:
460,63,107505,70,0,P|403:80|353:91,1,99.0000030212403,0|0,1:0|0:0,0:0:0:0:
151,90,107781,2,0,P|197:80|206:34,1,99.0000030212403,8|0,1:2|0:0,0:0:0:0:
291,213,108056,2,0,P|279:143|270:83,1,99.0000030212403,0|0,1:0|0:0,0:0:0:0:
87,330,108331,2,0,P|122:323|158:382,1,99.0000030212403,8|0,1:2|1:0,0:0:0:0:
367,311,108606,101,0,1:0:0:0:
322,334,108698,1,0,0:0:0:0:
279,301,108790,1,0,0:0:0:0:
323,232,108882,2,0,P|356:238|405:245,2,66.0000020141602,8|0|0,1:2|0:0|0:0,0:0:0:0:
222,83,109157,1,0,1:0:0:0:
272,110,109248,1,0,0:0:0:0:
253,160,109340,1,0,0:0:0:0:
160,181,109432,2,0,P|161:106|235:33,1,132.00000402832,8|0,1:2|0:0,0:0:0:0:
341,11,109707,69,0,1:0:0:0:
351,62,109799,1,0,0:0:0:0:
397,77,109891,1,0,0:0:0:0:
481,51,109982,2,0,P|443:38|401:14,2,66.0000020141602,8|0|0,1:2|0:0|0:0,0:0:0:0:
479,231,110258,1,0,1:0:0:0:
442,192,110349,1,0,0:0:0:0:
392,206,110441,1,0,0:0:0:0:
346,278,110533,2,0,P|365:327|421:349,1,99.0000030212403,8|0,1:2|0:0,0:0:0:0:
431,352,110739,1,0,0:0:0:0:
451,341,110808,102,0,P|462:278|475:204,1,99.0000030212403,0|0,1:0|1:0,0:0:0:0:
261,247,111083,2,0,P|316:274|322:333,1,99.0000030212403,8|0,1:2|0:0,0:0:0:0:
402,99,111359,2,0,P|401:165|424:202,1,99.0000030212403,0|0,1:0|1:0,0:0:0:0:
227,152,111634,2,0,P|286:166|348:187,1,99.0000030212403,8|0,1:2|0:0,0:0:0:0:
484,38,111909,70,0,P|456:84|405:35,1,99.0000030212403,0|0,1:0|0:0,0:0:0:0:
235,24,112184,2,0,P|248:81|260:158,1,99.0000030212403,8|0,1:2|0:0,0:0:0:0:
310,303,112459,2,0,P|332:250|375:239,1,99.0000030212403,0|0,1:0|0:0,0:0:0:0:
211,180,112735,2,0,P|198:137|157:153,1,99.0000030212403,8|0,1:2|1:0,0:0:0:0:
151,379,113010,102,0,P|153:333|157:301,2,66.0000020141602,0|0|0,1:0|0:0|0:0,0:0:0:0:
223,257,113285,2,0,P|233:293|266:297,2,66.0000020141602,8|0|0,1:2|0:0|0:0,0:0:0:0:
142,225,113560,2,0,P|139:258|111:251,2,66.0000020141602,0|0|0,1:0|0:0|0:0,0:0:0:0:
250,180,113836,2,0,P|256:227|265:269,2,66.0000020141602,8|0|0,1:2|0:0|0:0,0:0:0:0:
121,137,114111,69,0,1:0:0:0:
91,89,114203,1,0,0:0:0:0:
127,49,114294,1,0,0:0:0:0:
207,56,114386,2,0,P|164:28|139:1,2,66.0000020141602,8|0|0,1:2|0:0|0:0,0:0:0:0:
288,7,114661,1,0,1:0:0:0:
292,61,114753,1,0,0:0:0:0:
345,78,114845,1,0,0:0:0:0:
417,40,114937,2,0,P|402:71|363:65,2,66.0000020141602,8|0|0,1:2|0:0|0:0,0:0:0:0:
297,147,115212,101,0,1:0:0:0:
385,359,115349,1,2,1:2:0:0:
404,275,115487,2,0,P|345:298|358:338,1,99.0000030212403,10|0,1:2|0:0,0:0:0:0:
499,258,115762,1,2,1:2:0:0:
284,233,115900,2,0,P|273:184|262:117,1,99.0000030212403,2|8,0:0|1:2,0:0:0:0:
372,9,116175,1,2,0:0:0:0:
372,9,116244,1,0,0:0:0:0:
372,9,116313,70,0,P|398:28|422:24,2,49.5000015106202,2|0|2,1:2|0:0|0:0,0:0:0:0:
155,154,116588,2,0,P|183:137|223:195,1,99.0000030212403,10|0,1:2|0:0,0:0:0:0:
247,378,116863,1,2,1:2:0:0:
198,311,117001,2,0,P|207:254|221:194,1,99.0000030212403,2|8,0:0|1:2,0:0:0:0:
310,54,117276,1,2,1:2:0:0:
310,54,117414,101,0,1:0:0:0:
342,245,117551,1,2,0:0:0:0:
292,176,117689,2,0,P|313:215|389:224,1,99.0000030212403,10|0,1:2|0:0,0:0:0:0:
493,130,117964,1,2,1:2:0:0:
227,78,118102,2,0,P|217:128|212:193,1,99.0000030212403,2|8,0:0|1:2,0:0:0:0:
307,366,118377,1,2,0:0:0:0:
267,250,118515,69,2,1:2:0:0:
32,289,118652,1,2,0:0:0:0:
114,312,118790,2,0,P|115:368|67:383,1,99.0000030212403,10|0,1:2|0:0,0:0:0:0:
197,155,119065,1,2,1:2:0:0:
145,222,119203,2,0,P|159:280|169:338,1,99.0000030212403,2|8,0:0|1:2,0:0:0:0:
22,30,119478,1,2,1:2:0:0:
138,10,119615,101,0,1:0:0:0:
101,49,119707,1,0,0:0:0:0:
120,96,119799,1,0,0:0:0:0:
183,148,119891,2,0,P|190:125|149:98,2,66.0000020141602,8|0|0,1:2|0:0|0:0,0:0:0:0:
209,284,120166,1,0,1:0:0:0:
220,234,120258,1,0,0:0:0:0:
270,219,120349,1,0,0:0:0:0:
324,276,120441,2,0,P|279:267|235:255,2,66.0000020141602,8|0|0,1:2|0:0|0:0,0:0:0:0:
391,153,120716,69,0,1:0:0:0:
336,167,120808,1,0,0:0:0:0:
301,124,120900,1,0,0:0:0:0:
334,44,120992,2,0,P|288:56|280:85,2,66.0000020141602,8|0|0,1:2|0:0|0:0,0:0:0:0:
449,3,121267,1,0,1:0:0:0:
498,26,121359,1,0,0:0:0:0:
491,75,121450,1,0,0:0:0:0:
425,136,121542,2,0,P|420:99|415:62,2,66.0000020141602,8|0|0,1:2|0:0|0:0,0:0:0:0:
502,242,121817,101,4,1:2:0:0:
457,255,121909,1,0,0:0:0:0:
437,303,122001,1,0,0:0:0:0:
481,375,122093,1,8,1:2:0:0:
443,340,122184,1,0,0:0:0:0:
390,352,122276,1,0,0:0:0:0:
311,376,122368,1,4,1:2:0:0:
341,333,122459,1,0,0:0:0:0:
317,285,122551,1,0,0:0:0:0:
281,214,122643,1,8,1:2:0:0:
236,182,122735,1,0,0:0:0:0:
251,130,122826,1,0,0:0:0:0:
326,103,122918,70,0,P|321:145|311:190,2,66.0000020141602,4|0|0,1:2|0:0|0:0,0:0:0:0:
199,223,123193,2,0,P|236:222|246:260,2,66.0000020141602,8|0|0,1:2|0:0|0:0,0:0:0:0:
355,286,123469,2,0,P|318:289|320:340,2,66.0000020141602,4|0|0,1:2|0:0|0:0,0:0:0:0:
137,371,123744,1,8,1:2:0:0:
189,348,123836,1,0,0:0:0:0:
171,297,123927,1,0,0:0:0:0:
95,266,124019,101,4,1:2:0:0:
428,113,124570,1,4,1:2:0:0:
200,10,125120,1,4,1:2:0:0:
312,374,125395,1,4,1:2:0:0:
