osu file format v14

[General]
AudioFilename: preview.mp3
AudioLeadIn: 1000
PreviewTime: 46709
Countdown: 0
SampleSet: Normal
StackLeniency: 0.7
Mode: 1
LetterboxInBreaks: 0
WidescreenStoryboard: 1

[Editor]
DistanceSpacing: 0.8
BeatDivisor: 4
GridSize: 32
TimelineZoom: 1

[Metadata]
Title:Hop
TitleUnicode:Хоп
Artist:Azis
ArtistUnicode:Азис
Creator:Stefan
Version:Futsuu
Source:
Tags:bulgarian chalga pop folk gadna poroda crystalloid _gezo_ gezoda unmei muma thenutritiousguy tng
BeatmapID:1611054
BeatmapSetID:85488

[Difficulty]
HPDrainRate:7
CircleSize:5
OverallDifficulty:3
ApproachRate:5
SliderMultiplier:2.8
SliderTickRate:2

[Events]
//Background and Video events
0,0,"dayum.jpg",0,-115
//Break Periods
//Storyboard Layer 0 (Background)
//Storyboard Layer 1 (Fail)
//Storyboard Layer 2 (Pass)
//Storyboard Layer 3 (Foreground)
//Storyboard Sound Samples

[TimingPoints]
1037,714.285714285714,4,1,0,100,1,0
46751,-100,4,1,0,100,0,1
69608,-100,4,1,0,100,0,0
103894,-100,4,1,0,100,0,1
126751,-100,4,1,0,100,0,0
172465,-100,4,1,0,100,0,1
183894,-100,4,1,0,100,0,0

[HitObjects]
128,192,1037,5,0,0:0:0:0:
128,192,2108,1,8,0:0:0:0:
128,192,2465,1,0,0:0:0:0:
128,192,3179,1,0,0:0:0:0:
128,192,3536,1,8,0:0:0:0:
128,192,3894,1,0,0:0:0:0:
128,192,4965,1,8,0:0:0:0:
128,192,5322,1,0,0:0:0:0:
128,192,6036,1,0,0:0:0:0:
128,192,6394,1,8,0:0:0:0:
128,192,6751,1,8,0:0:0:0:
128,192,7822,1,0,0:0:0:0:
128,192,8179,1,8,0:0:0:0:
128,192,8894,1,0,0:0:0:0:
128,192,9251,1,8,0:0:0:0:
128,192,9608,1,8,0:0:0:0:
128,192,10322,1,0,0:0:0:0:
256,192,11036,12,0,12108,0:0:0:0:
128,192,12465,5,4,0:0:0:0:
416,192,13179,1,0,0:0:0:0:
416,192,13536,1,8,0:0:0:0:
416,192,14251,1,8,0:0:0:0:
416,192,14965,1,8,0:0:0:0:
256,192,15322,5,0,0:0:0:0:
416,192,16036,1,0,0:0:0:0:
416,192,16394,1,8,0:0:0:0:
416,192,16751,1,0,0:0:0:0:
416,192,17822,1,8,0:0:0:0:
256,192,18179,5,0,0:0:0:0:
416,192,18894,1,0,0:0:0:0:
416,192,19251,1,8,0:0:0:0:
416,192,19965,1,8,0:0:0:0:
416,192,20679,1,8,0:0:0:0:
384,192,21036,2,0,P|160:128|256:320,1,560
256,192,23894,5,4,0:0:0:0:
416,192,24608,1,0,0:0:0:0:
416,192,24965,1,8,0:0:0:0:
416,192,25679,1,8,0:0:0:0:
416,192,26394,1,8,0:0:0:0:
256,192,26751,5,0,0:0:0:0:
416,192,27465,1,0,0:0:0:0:
416,192,27822,1,8,0:0:0:0:
416,192,28179,1,0,0:0:0:0:
416,192,28536,1,8,0:0:0:0:
416,192,29251,1,8,0:0:0:0:
256,192,29608,5,0,0:0:0:0:
416,192,30322,1,0,0:0:0:0:
416,192,30679,1,8,0:0:0:0:
416,192,31394,1,8,0:0:0:0:
416,192,32108,1,8,0:0:0:0:
320,160,32465,2,0,P|96:96|192:288,1,560
256,256,35322,5,4,0:0:0:0:
256,256,36036,1,8,0:0:0:0:
256,256,36751,1,0,0:0:0:0:
256,256,37465,1,0,0:0:0:0:
256,256,37822,1,8,0:0:0:0:
256,256,38894,1,8,0:0:0:0:
256,256,39608,1,0,0:0:0:0:
256,256,40322,1,8,0:0:0:0:
256,256,40679,1,0,0:0:0:0:
256,256,41394,1,8,0:0:0:0:
256,256,41751,1,0,0:0:0:0:
256,256,42465,1,0,0:0:0:0:
256,256,43179,1,0,0:0:0:0:
256,256,43536,1,8,0:0:0:0:
256,256,44608,1,8,0:0:0:0:
256,256,45322,1,0,0:0:0:0:
256,256,46036,1,8,0:0:0:0:
256,256,46394,1,8,0:0:0:0:
256,256,46751,1,4,0:0:0:0:
256,256,47822,1,8,0:0:0:0:
256,256,48179,1,0,0:0:0:0:
256,256,48894,1,8,0:0:0:0:
256,256,49608,1,4,0:0:0:0:
256,256,50679,1,8,0:0:0:0:
256,256,51036,1,0,0:0:0:0:
256,256,51751,1,8,0:0:0:0:
256,256,52108,1,8,0:0:0:0:
256,256,52465,1,4,0:0:0:0:
256,256,53536,1,8,0:0:0:0:
256,256,53894,1,0,0:0:0:0:
256,256,54608,1,8,0:0:0:0:
256,256,56036,5,0,0:0:0:0:
256,256,56751,1,0,0:0:0:0:
256,256,57465,1,8,0:0:0:0:
256,256,57822,1,8,0:0:0:0:
256,256,58179,1,4,0:0:0:0:
256,256,59251,1,8,0:0:0:0:
256,256,59608,1,0,0:0:0:0:
256,256,60322,1,8,0:0:0:0:
256,256,61036,1,4,0:0:0:0:
256,256,62108,1,8,0:0:0:0:
256,256,62465,1,0,0:0:0:0:
256,256,63179,1,8,0:0:0:0:
256,256,63536,1,8,0:0:0:0:
256,256,63894,1,4,0:0:0:0:
256,256,64965,1,8,0:0:0:0:
256,256,65322,1,0,0:0:0:0:
256,256,66036,1,8,0:0:0:0:
256,256,67465,5,0,0:0:0:0:
256,256,68179,1,0,0:0:0:0:
256,256,68894,5,8,0:0:0:0:
256,256,69251,1,8,0:0:0:0:
128,192,69608,5,4,0:0:0:0:
128,192,71036,1,12,0:0:0:0:
128,192,71751,1,0,0:0:0:0:
128,192,72108,1,8,0:0:0:0:
128,192,72465,1,8,0:0:0:0:
128,192,73894,1,12,0:0:0:0:
128,192,74608,1,0,0:0:0:0:
128,192,74965,1,8,0:0:0:0:
128,192,75322,1,8,0:0:0:0:
128,192,76036,1,0,0:0:0:0:
128,192,76751,1,12,0:0:0:0:
128,192,77465,1,0,0:0:0:0:
160,96,78179,2,0,B|416:320|256:192,3,280
256,192,81036,1,4,0:0:0:0:
256,192,81751,1,0,0:0:0:0:
256,192,82108,1,0,0:0:0:0:
256,192,82465,1,12,0:0:0:0:
256,192,83894,1,8,0:0:0:0:
256,192,84251,1,8,0:0:0:0:
256,192,84608,1,0,0:0:0:0:
256,192,85322,1,12,0:0:0:0:
256,192,86751,1,8,0:0:0:0:
256,192,87465,1,0,0:0:0:0:
256,192,88179,1,12,0:0:0:0:
256,192,89608,1,8,0:0:0:0:
256,192,89965,1,8,0:0:0:0:
256,192,90322,1,0,0:0:0:0:
256,192,91036,1,8,0:0:0:0:
256,256,92465,5,4,0:0:0:0:
256,256,93179,1,8,0:0:0:0:
256,256,93894,1,0,0:0:0:0:
256,256,94608,1,8,0:0:0:0:
256,256,94965,1,0,0:0:0:0:
256,256,96036,1,0,0:0:0:0:
256,256,96751,1,8,0:0:0:0:
256,256,97465,1,0,0:0:0:0:
256,256,97822,1,8,0:0:0:0:
256,256,98536,1,8,0:0:0:0:
256,256,98894,1,0,0:0:0:0:
256,256,99608,1,0,0:0:0:0:
256,256,100322,1,8,0:0:0:0:
256,256,101394,1,8,0:0:0:0:
256,256,102108,1,8,0:0:0:0:
256,256,102465,1,0,0:0:0:0:
256,256,103179,1,8,0:0:0:0:
256,256,103536,1,8,0:0:0:0:
256,256,103894,1,4,0:0:0:0:
256,256,104965,1,8,0:0:0:0:
256,256,105322,1,0,0:0:0:0:
256,256,106036,1,8,0:0:0:0:
256,256,106751,1,4,0:0:0:0:
256,256,107822,1,8,0:0:0:0:
256,256,108179,1,0,0:0:0:0:
256,256,108894,1,8,0:0:0:0:
256,256,109251,1,8,0:0:0:0:
256,256,109608,1,4,0:0:0:0:
256,256,110679,1,8,0:0:0:0:
256,256,111036,1,0,0:0:0:0:
256,256,111751,1,8,0:0:0:0:
256,256,113179,5,0,0:0:0:0:
256,256,113894,1,0,0:0:0:0:
256,256,114608,1,8,0:0:0:0:
256,256,114965,1,8,0:0:0:0:
256,256,115322,1,4,0:0:0:0:
256,256,116394,1,8,0:0:0:0:
256,256,116751,1,0,0:0:0:0:
256,256,117465,1,8,0:0:0:0:
256,256,118179,1,4,0:0:0:0:
256,256,119251,1,8,0:0:0:0:
256,256,119608,1,0,0:0:0:0:
256,256,120322,1,8,0:0:0:0:
256,256,120679,1,8,0:0:0:0:
256,256,121036,1,4,0:0:0:0:
256,256,122108,1,8,0:0:0:0:
256,256,122465,1,0,0:0:0:0:
256,256,123179,1,8,0:0:0:0:
256,256,124608,5,0,0:0:0:0:
256,256,125322,1,0,0:0:0:0:
256,256,126036,5,8,0:0:0:0:
256,256,126394,1,8,0:0:0:0:
128,192,126751,5,4,0:0:0:0:
256,64,129608,1,12,0:0:0:0:
256,64,132465,1,12,0:0:0:0:
256,64,135322,1,8,0:0:0:0:
256,64,137465,1,8,0:0:0:0:
160,256,138179,1,4,0:0:0:0:
160,256,138894,1,0,0:0:0:0:
160,256,139608,1,0,0:0:0:0:
160,256,139965,1,8,0:0:0:0:
160,256,140679,1,8,0:0:0:0:
160,256,141036,1,4,0:0:0:0:
160,256,141751,1,0,0:0:0:0:
160,256,142465,1,0,0:0:0:0:
160,256,142822,1,8,0:0:0:0:
160,256,143179,1,0,0:0:0:0:
160,256,143536,1,8,0:0:0:0:
160,256,143894,1,4,0:0:0:0:
160,256,144608,1,0,0:0:0:0:
160,256,145322,1,0,0:0:0:0:
160,256,145679,1,8,0:0:0:0:
160,256,146394,1,8,0:0:0:0:
224,192,146751,2,0,B|256:224|256:224|288:192|288:192|256:160|256:160|192:224|192:224|224:256|224:256|288:256|288:256|320:224|320:224|320:192|320:192|320:160|320:160|288:128|288:128|256:128|256:128|224:128|224:128|192:160|192:160,1,560
256,192,149608,1,4,0:0:0:0:
256,192,150679,1,8,0:0:0:0:
256,192,151036,1,0,0:0:0:0:
256,192,151751,1,0,0:0:0:0:
256,192,152108,1,8,0:0:0:0:
256,192,152465,1,0,0:0:0:0:
256,192,153179,1,0,0:0:0:0:
256,192,153894,1,0,0:0:0:0:
256,192,154251,1,0,0:0:0:0:
256,192,154608,1,8,0:0:0:0:
256,192,155322,1,4,0:0:0:0:
256,192,156394,1,8,0:0:0:0:
256,192,156751,1,0,0:0:0:0:
256,192,157465,1,0,0:0:0:0:
256,192,157822,5,8,0:0:0:0:
256,192,158179,1,0,0:0:0:0:
256,192,158894,1,0,0:0:0:0:
256,192,159608,1,0,0:0:0:0:
256,192,159965,1,0,0:0:0:0:
256,192,160322,1,8,0:0:0:0:
256,256,161036,5,4,0:0:0:0:
256,256,162465,1,8,0:0:0:0:
256,256,163179,1,8,0:0:0:0:
256,256,163894,1,0,0:0:0:0:
256,256,164965,1,8,0:0:0:0:
256,256,165322,1,0,0:0:0:0:
256,256,166036,1,8,0:0:0:0:
256,256,166751,5,0,0:0:0:0:
256,256,167822,1,8,0:0:0:0:
256,256,168536,1,8,0:0:0:0:
256,256,168894,1,0,0:0:0:0:
256,256,169965,5,8,0:0:0:0:
256,256,170679,5,8,0:0:0:0:
256,256,171036,1,0,0:0:0:0:
256,256,171751,1,8,0:0:0:0:
256,256,172108,1,8,0:0:0:0:
256,256,172465,1,4,0:0:0:0:
256,256,173536,1,8,0:0:0:0:
256,256,173894,1,0,0:0:0:0:
256,256,174608,1,8,0:0:0:0:
256,256,175322,1,4,0:0:0:0:
256,256,176394,1,8,0:0:0:0:
256,256,176751,1,0,0:0:0:0:
256,256,177465,1,8,0:0:0:0:
256,256,177822,1,8,0:0:0:0:
256,256,178179,1,4,0:0:0:0:
256,256,179251,1,8,0:0:0:0:
256,256,179608,1,0,0:0:0:0:
256,256,180322,1,8,0:0:0:0:
256,256,181751,5,0,0:0:0:0:
256,256,182465,1,0,0:0:0:0:
256,256,183179,1,8,0:0:0:0:
256,256,183536,1,8,0:0:0:0:
256,256,183894,1,4,0:0:0:0:
