osu file format v14

[General]
AudioFilename: audio.mp3
AudioLeadIn: 0
PreviewTime: 137281
Countdown: 1
SampleSet: Normal
StackLeniency: 0.7
Mode: 1
LetterboxInBreaks: 0
WidescreenStoryboard: 1

[Editor]
Bookmarks: 181864
DistanceSpacing: 1.8
BeatDivisor: 4
GridSize: 8
TimelineZoom: 1.5

[Metadata]
Title:212 (feat. Lazy Jay)
TitleUnicode:212 (feat. Lazy Jay)
Artist:Azealia Banks
ArtistUnicode:Azealia Banks
Creator:Ney
Version:Oni
Source:
Tags:broke with expensive taste 1991 ep english hip hop house rap miss bank$ basto! jef martens fieryrage vulkin
BeatmapID:1522659
BeatmapSetID:716931

[Difficulty]
HPDrainRate:5.5
CircleSize:2.1
OverallDifficulty:5.5
ApproachRate:2.1
SliderMultiplier:1.4
SliderTickRate:1

[Events]
//Background and Video events
0,0,"ab.png",0,50
//Break Periods
//Storyboard Layer 0 (Background)
//Storyboard Layer 1 (Fail)
//Storyboard Layer 2 (Pass)
//Storyboard Layer 3 (Foreground)
//Storyboard Layer 4 (Overlay)
//Storyboard Sound Samples

[TimingPoints]
208,476.190476190476,4,1,0,55,1,0
208,-111.111111111111,4,1,0,55,0,0
7827,-105.263157894737,4,1,0,65,0,0
15446,-100,4,1,0,75,0,0
46160,-105.263157894737,4,1,0,65,0,0
48065,-111.111111111111,4,1,0,55,0,0
49969,-117.647058823529,4,1,0,50,0,0
52946,-114.942528735632,4,1,0,55,0,0
53065,-111.111111111111,4,1,0,60,0,0
53303,-105.263157894737,4,1,0,65,0,0
53541,-100,4,1,0,70,0,0
67827,-99.009900990099,4,1,0,70,0,0
68303,-97.0873786407767,4,1,0,70,0,0
68779,-95.2380952380952,4,1,0,70,0,0
83065,-94.3396226415094,4,1,0,70,0,0
83541,-92.5925925925926,4,1,0,70,0,0
84017,-90.9090909090909,4,1,0,70,0,0
98065,-91.743119266055,4,1,0,70,0,0
98303,-92.5925925925926,4,1,0,70,0,0
98461,-93.4579439252336,4,1,0,70,0,0
98620,-95.2380952380952,4,1,0,70,0,0
98779,-96.1538461538461,4,1,0,70,0,0
99255,-100,4,1,0,65,0,0
99731,-102.040816326531,4,1,0,65,0,0
100207,-104.166666666667,4,1,0,65,0,0
100684,-106.382978723404,4,1,0,65,0,0
101160,-108.695652173913,4,1,0,65,0,0
101636,-111.111111111111,4,1,0,65,0,0
102112,-113.636363636364,4,1,0,65,0,0
102588,-116.279069767442,4,1,0,65,0,0
103065,-117.647058823529,4,1,0,60,0,0
105207,-125,4,1,0,55,0,0
137350,-100,4,1,0,75,0,0
151636,-99.009900990099,4,1,0,75,0,0
152112,-97.0873786407767,4,1,0,75,0,0
152588,-95.2380952380952,4,1,0,75,0,0
182112,-93.4579439252336,4,1,0,75,0,0
182271,-92.5925925925926,4,1,0,75,0,0
182430,-91.743119266055,4,1,0,75,0,0
182588,-90.0900900900901,4,1,0,75,0,0
183065,-86.9565217391304,4,1,0,80,0,1
197350,-88.4955752212389,4,1,0,80,0,1
197509,-90.0900900900901,4,1,0,80,0,1
197668,-91.743119266055,4,1,0,80,0,1
197827,-93.4579439252336,4,1,0,80,0,1
197985,-95.2380952380952,4,1,0,80,0,1
198144,-97.0873786407767,4,1,0,80,0,1
198303,-99.009900990099,4,1,0,70,0,0
200207,-100,4,1,0,50,0,0

[HitObjects]
224,192,208,5,0,0:0:0:0:
224,176,565,1,8,0:0:0:0:
224,192,684,1,0,0:0:0:0:
224,176,922,1,8,0:0:0:0:
224,192,1160,1,0,0:0:0:0:
240,184,1517,1,8,0:0:0:0:
224,192,1636,1,0,0:0:0:0:
232,192,1874,1,8,0:0:0:0:
224,184,2112,1,0,0:0:0:0:
232,192,2469,1,8,0:0:0:0:
232,192,2588,1,0,0:0:0:0:
232,192,2827,1,8,0:0:0:0:
232,192,3065,1,0,0:0:0:0:
256,216,3422,1,8,0:0:0:0:
256,216,3541,1,8,0:0:0:0:
256,216,3779,1,0,0:0:0:0:
224,192,4017,1,0,0:0:0:0:
224,176,4374,1,8,0:0:0:0:
224,192,4493,1,0,0:0:0:0:
224,176,4731,1,8,0:0:0:0:
224,192,4969,1,0,0:0:0:0:
240,184,5327,1,8,0:0:0:0:
224,192,5446,1,0,0:0:0:0:
232,192,5684,1,8,0:0:0:0:
224,184,5922,1,0,0:0:0:0:
232,192,6279,1,8,0:0:0:0:
232,192,6398,1,0,0:0:0:0:
232,192,6636,1,8,0:0:0:0:
232,192,6874,1,0,0:0:0:0:
264,200,7112,1,8,0:0:0:0:
256,216,7231,1,8,0:0:0:0:
256,216,7350,1,8,0:0:0:0:
256,208,7827,1,0,0:0:0:0:
264,208,8065,1,8,0:0:0:0:
256,208,8184,1,8,0:0:0:0:
256,208,8303,1,0,0:0:0:0:
256,208,8541,1,8,0:0:0:0:
256,208,8779,1,0,0:0:0:0:
280,216,9136,1,8,0:0:0:0:
280,216,9255,1,0,0:0:0:0:
280,216,9493,1,8,0:0:0:0:
280,216,9731,1,0,0:0:0:0:
280,216,9969,1,8,0:0:0:0:
280,216,10088,1,8,0:0:0:0:
280,216,10207,1,0,0:0:0:0:
280,216,10446,1,8,0:0:0:0:
280,216,10684,1,0,0:0:0:0:
280,216,10803,1,8,0:0:0:0:
280,216,11160,1,8,0:0:0:0:
280,216,11398,1,8,0:0:0:0:
256,208,11636,1,0,0:0:0:0:
264,208,11874,1,8,0:0:0:0:
256,208,11993,1,8,0:0:0:0:
256,208,12112,1,0,0:0:0:0:
256,208,12350,1,8,0:0:0:0:
256,208,12588,1,0,0:0:0:0:
280,216,12946,1,8,0:0:0:0:
280,216,13065,1,0,0:0:0:0:
280,216,13303,1,8,0:0:0:0:
280,216,13541,1,0,0:0:0:0:
280,216,13779,1,8,0:0:0:0:
280,216,13898,1,8,0:0:0:0:
280,216,14017,1,0,0:0:0:0:
280,216,14255,1,8,0:0:0:0:
280,216,14493,1,8,0:0:0:0:
288,200,14731,1,8,0:0:0:0:
280,216,14850,1,0,0:0:0:0:
280,216,14969,1,8,0:0:0:0:
256,208,15446,1,0,0:0:0:0:
256,208,15684,1,8,0:0:0:0:
256,208,16160,1,8,0:0:0:0:
256,208,16279,1,8,0:0:0:0:
256,208,16517,1,0,0:0:0:0:
256,208,16874,1,8,0:0:0:0:
256,208,17112,1,8,0:0:0:0:
256,208,17350,1,0,0:0:0:0:
256,208,17827,1,8,0:0:0:0:
272,208,18065,1,8,0:0:0:0:
272,208,18184,1,8,0:0:0:0:
256,208,18422,1,0,0:0:0:0:
256,208,18660,1,0,0:0:0:0:
256,208,18779,1,0,0:0:0:0:
256,208,19017,1,0,0:0:0:0:
272,192,19255,1,8,0:0:0:0:
272,192,19493,1,0,0:0:0:0:
272,192,19612,1,0,0:0:0:0:
272,192,19731,1,8,0:0:0:0:
272,192,19969,1,0,0:0:0:0:
272,192,20088,1,8,0:0:0:0:
272,192,20327,1,0,0:0:0:0:
272,192,20684,1,8,0:0:0:0:
256,200,20922,1,8,0:0:0:0:
256,200,21160,1,0,0:0:0:0:
256,200,21279,1,0,0:0:0:0:
256,200,21398,1,0,0:0:0:0:
256,200,21636,1,8,0:0:0:0:
256,200,21755,1,0,0:0:0:0:
256,200,21993,1,8,0:0:0:0:
256,200,22231,1,8,0:0:0:0:
256,200,22588,1,8,0:0:0:0:
256,200,22827,1,8,0:0:0:0:
264,184,23065,1,0,0:0:0:0:
256,184,23303,1,0,0:0:0:0:
256,184,23422,1,0,0:0:0:0:
256,184,23541,1,8,0:0:0:0:
256,184,23779,1,8,0:0:0:0:
256,184,23898,1,8,0:0:0:0:
256,184,24136,1,0,0:0:0:0:
256,184,24493,1,0,0:0:0:0:
256,184,24731,1,8,0:0:0:0:
256,184,25327,1,0,0:0:0:0:
256,184,25446,1,8,0:0:0:0:
248,200,25684,1,0,0:0:0:0:
256,184,25803,1,8,0:0:0:0:
256,184,26041,1,8,0:0:0:0:
256,184,26279,1,0,0:0:0:0:
256,184,26398,1,0,0:0:0:0:
256,184,26636,1,0,0:0:0:0:
264,200,26874,1,0,0:0:0:0:
264,200,26993,1,0,0:0:0:0:
264,200,27112,1,8,0:0:0:0:
256,208,27350,1,8,0:0:0:0:
256,208,27469,1,0,0:0:0:0:
256,208,27707,1,0,0:0:0:0:
256,208,27946,1,0,0:0:0:0:
248,216,28303,1,8,0:0:0:0:
248,216,28541,1,0,0:0:0:0:
248,216,28779,1,8,0:0:0:0:
248,216,28898,1,0,0:0:0:0:
248,216,29017,1,8,0:0:0:0:
240,216,29255,1,8,0:0:0:0:
240,216,29493,1,0,0:0:0:0:
240,216,29612,1,8,0:0:0:0:
240,216,29850,1,0,0:0:0:0:
240,216,30207,1,8,0:0:0:0:
240,216,30446,1,0,0:0:0:0:
248,208,30684,1,8,0:0:0:0:
248,208,30803,1,8,0:0:0:0:
248,208,30922,1,8,0:0:0:0:
248,208,31160,1,0,0:0:0:0:
248,208,31279,1,0,0:0:0:0:
248,208,31517,1,8,0:0:0:0:
248,208,31755,1,0,0:0:0:0:
248,208,31993,1,0,0:0:0:0:
248,208,32112,1,8,0:0:0:0:
248,208,32350,1,8,0:0:0:0:
248,208,32946,1,0,0:0:0:0:
248,208,33065,1,8,0:0:0:0:
248,208,33184,1,0,0:0:0:0:
248,208,33422,1,8,0:0:0:0:
248,208,33660,1,0,0:0:0:0:
256,216,33898,1,0,0:0:0:0:
256,216,34017,1,8,0:0:0:0:
256,200,34255,1,8,0:0:0:0:
256,200,34493,1,0,0:0:0:0:
256,200,34612,1,0,0:0:0:0:
256,200,34731,1,0,0:0:0:0:
256,200,34969,1,8,0:0:0:0:
256,200,35207,1,0,0:0:0:0:
256,200,35327,1,8,0:0:0:0:
256,200,35565,1,8,0:0:0:0:
256,200,35922,1,0,0:0:0:0:
256,200,36160,1,8,0:0:0:0:
256,200,36398,1,8,0:0:0:0:
256,200,36517,1,0,0:0:0:0:
256,200,36636,1,0,0:0:0:0:
256,200,36874,1,8,0:0:0:0:
256,200,36993,1,8,0:0:0:0:
256,200,37231,1,0,0:0:0:0:
256,200,37469,1,0,0:0:0:0:
256,200,37827,1,8,0:0:0:0:
272,200,38065,1,8,0:0:0:0:
256,192,38303,1,8,0:0:0:0:
256,192,38541,1,0,0:0:0:0:
256,192,38660,1,0,0:0:0:0:
256,192,38779,1,8,0:0:0:0:
256,192,39017,1,0,0:0:0:0:
256,192,39136,1,8,0:0:0:0:
256,192,39374,1,0,0:0:0:0:
256,192,39731,1,0,0:0:0:0:
256,192,39969,1,8,0:0:0:0:
256,192,40565,1,0,0:0:0:0:
256,192,40684,1,8,0:0:0:0:
256,192,40803,1,0,0:0:0:0:
256,192,41041,1,8,0:0:0:0:
256,192,41279,1,8,0:0:0:0:
256,192,41517,1,0,0:0:0:0:
256,192,41636,1,0,0:0:0:0:
256,192,41874,1,8,0:0:0:0:
248,200,42469,1,0,0:0:0:0:
248,200,42588,1,8,0:0:0:0:
248,200,42707,1,0,0:0:0:0:
248,200,42946,1,8,0:0:0:0:
248,200,43184,1,8,0:0:0:0:
248,200,43541,1,0,0:0:0:0:
248,200,43779,1,8,0:0:0:0:
256,168,44017,1,0,0:0:0:0:
256,176,44255,1,0,0:0:0:0:
256,200,44374,1,8,0:0:0:0:
256,176,44493,1,0,0:0:0:0:
256,176,44612,1,8,0:0:0:0:
256,176,44850,1,0,0:0:0:0:
264,168,44969,1,8,0:0:0:0:
264,168,45327,1,8,0:0:0:0:
264,168,45565,1,8,0:0:0:0:
264,168,45684,1,8,0:0:0:0:
264,168,45803,1,8,0:0:0:0:
264,168,46279,1,8,0:0:0:0:
264,168,46398,1,0,0:0:0:0:
256,152,46636,1,0,0:0:0:0:
264,168,46874,1,0,0:0:0:0:
264,168,47350,1,0,0:0:0:0:
256,152,47588,1,8,0:0:0:0:
264,168,47827,1,0,0:0:0:0:
264,168,48184,1,8,0:0:0:0:
264,168,48303,1,0,0:0:0:0:
256,152,48541,1,0,0:0:0:0:
264,168,48779,1,0,0:0:0:0:
264,168,49255,1,0,0:0:0:0:
256,152,49493,1,8,0:0:0:0:
264,168,49731,1,0,0:0:0:0:
264,168,50088,1,8,0:0:0:0:
264,168,50207,1,0,0:0:0:0:
256,152,50446,1,0,0:0:0:0:
264,168,50684,1,0,0:0:0:0:
264,168,51160,1,0,0:0:0:0:
256,152,51398,1,0,0:0:0:0:
264,168,51636,1,0,0:0:0:0:
264,168,51993,1,8,0:0:0:0:
264,168,52112,1,0,0:0:0:0:
256,152,52350,1,0,0:0:0:0:
264,168,52588,1,0,0:0:0:0:
264,168,52946,1,8,0:0:0:0:
264,168,53065,1,0,0:0:0:0:
256,152,53303,1,8,0:0:0:0:
240,168,53541,1,0,0:0:0:0:
256,184,54017,1,8,0:0:0:0:
264,184,54255,1,0,0:0:0:0:
264,184,54493,1,8,0:0:0:0:
256,184,54612,1,0,0:0:0:0:
256,184,54850,1,8,0:0:0:0:
264,184,55207,1,0,0:0:0:0:
272,192,55327,1,0,0:0:0:0:
264,184,55446,1,8,0:0:0:0:
256,184,55684,1,0,0:0:0:0:
264,184,55922,1,8,0:0:0:0:
264,184,56160,1,0,0:0:0:0:
264,184,56398,1,8,0:0:0:0:
256,184,56517,1,8,0:0:0:0:
264,184,56755,1,0,0:0:0:0:
264,184,56993,1,8,0:0:0:0:
264,184,57231,1,0,0:0:0:0:
264,184,57350,1,0,0:0:0:0:
264,184,57588,1,8,0:0:0:0:
256,184,58065,1,8,0:0:0:0:
256,184,58184,1,0,0:0:0:0:
256,184,58303,1,0,0:0:0:0:
248,184,58541,1,0,0:0:0:0:
256,184,58660,1,8,0:0:0:0:
240,192,58898,1,8,0:0:0:0:
240,192,59136,1,0,0:0:0:0:
240,192,59255,1,0,0:0:0:0:
240,192,59493,1,0,0:0:0:0:
240,192,59731,1,8,0:0:0:0:
240,192,59969,1,0,0:0:0:0:
240,192,60207,1,8,0:0:0:0:
240,192,60327,1,8,0:0:0:0:
240,192,60565,1,0,0:0:0:0:
240,192,60803,1,8,0:0:0:0:
232,192,61160,1,0,0:0:0:0:
232,192,61636,1,8,0:0:0:0:
224,176,61755,1,8,0:0:0:0:
224,176,61874,1,0,0:0:0:0:
240,184,62112,1,8,0:0:0:0:
257,134,62231,1,0,0:0:0:0:
240,184,62469,1,8,0:0:0:0:
240,184,62827,1,0,0:0:0:0:
240,184,63065,1,8,0:0:0:0:
240,184,63303,1,0,0:0:0:0:
224,168,63541,1,8,0:0:0:0:
224,168,63779,1,8,0:0:0:0:
224,168,63898,1,8,0:0:0:0:
224,168,64017,1,0,0:0:0:0:
224,168,64255,1,0,0:0:0:0:
224,168,64374,1,0,0:0:0:0:
224,168,64612,1,8,0:0:0:0:
224,168,64850,1,0,0:0:0:0:
224,168,64969,1,0,0:0:0:0:
232,168,65207,1,8,0:0:0:0:
232,176,65684,1,0,0:0:0:0:
232,176,65922,1,8,0:0:0:0:
216,176,66041,1,8,0:0:0:0:
216,176,66279,1,0,0:0:0:0:
232,192,66517,1,0,0:0:0:0:
232,192,66755,1,0,0:0:0:0:
232,192,66874,1,8,0:0:0:0:
232,208,67112,1,8,0:0:0:0:
232,216,67350,1,0,0:0:0:0:
232,216,67469,1,0,0:0:0:0:
232,216,67588,1,8,0:0:0:0:
232,216,67707,1,8,0:0:0:0:
232,216,67827,1,0,0:0:0:0:
240,224,68144,1,0,0:0:0:0:
240,224,68303,1,8,0:0:0:0:
326,120,68461,1,8,0:0:0:0:
240,224,68620,1,8,0:0:0:0:
240,224,68779,1,0,0:0:0:0:
256,208,69255,1,8,0:0:0:0:
256,208,69374,1,8,0:0:0:0:
256,208,69493,1,8,0:0:0:0:
256,208,69731,1,0,0:0:0:0:
256,208,69850,1,8,0:0:0:0:
256,208,70088,1,0,0:0:0:0:
256,208,70327,1,8,0:0:0:0:
272,192,70684,1,0,0:0:0:0:
272,192,70922,1,0,0:0:0:0:
272,192,71160,1,8,0:0:0:0:
272,192,71279,1,8,0:0:0:0:
272,192,71398,1,0,0:0:0:0:
272,192,71636,1,0,0:0:0:0:
272,192,71755,1,8,0:0:0:0:
272,192,71993,1,0,0:0:0:0:
272,192,72231,1,8,0:0:0:0:
272,192,72469,1,0,0:0:0:0:
272,192,72588,1,8,0:0:0:0:
272,192,73065,1,8,0:0:0:0:
272,192,73303,1,0,0:0:0:0:
272,192,73422,1,0,0:0:0:0:
272,192,73541,1,8,0:0:0:0:
272,192,73779,1,0,0:0:0:0:
272,192,73898,1,8,0:0:0:0:
272,192,74136,1,8,0:0:0:0:
272,192,74374,1,0,0:0:0:0:
272,192,74493,1,0,0:0:0:0:
272,192,74731,1,8,0:0:0:0:
256,184,75207,1,8,0:0:0:0:
256,184,75446,1,0,0:0:0:0:
256,184,75565,1,8,0:0:0:0:
256,184,75803,1,8,0:0:0:0:
256,184,76041,1,8,0:0:0:0:
256,168,76398,1,0,0:0:0:0:
256,168,76755,1,0,0:0:0:0:
256,168,76874,1,8,0:0:0:0:
256,168,77112,1,8,0:0:0:0:
256,168,77350,1,0,0:0:0:0:
280,160,77469,1,0,0:0:0:0:
256,168,77707,1,8,0:0:0:0:
272,168,78065,1,0,0:0:0:0:
272,168,78303,1,8,0:0:0:0:
272,168,78541,1,8,0:0:0:0:
272,168,78779,1,0,0:0:0:0:
272,168,78898,1,0,0:0:0:0:
272,168,79017,1,0,0:0:0:0:
272,168,79255,1,8,0:0:0:0:
272,168,79374,1,8,0:0:0:0:
272,168,79612,1,0,0:0:0:0:
272,168,79850,1,8,0:0:0:0:
272,168,80088,1,0,0:0:0:0:
272,168,80207,1,0,0:0:0:0:
272,168,80446,1,8,0:0:0:0:
248,176,80922,1,0,0:0:0:0:
240,176,81160,1,0,0:0:0:0:
240,176,81279,1,0,0:0:0:0:
240,176,81517,1,8,0:0:0:0:
240,176,81755,1,8,0:0:0:0:
240,176,82112,1,0,0:0:0:0:
272,184,82588,1,8,0:0:0:0:
256,176,82827,1,8,0:0:0:0:
256,176,83065,1,0,0:0:0:0:
256,176,83382,1,0,0:0:0:0:
264,168,83541,1,8,0:0:0:0:
272,160,83700,1,8,0:0:0:0:
403,113,83858,1,8,0:0:0:0:
264,176,84017,1,0,0:0:0:0:
256,208,84493,1,8,0:0:0:0:
294,94,84612,1,8,0:0:0:0:
256,208,84731,1,0,0:0:0:0:
256,208,84969,1,0,0:0:0:0:
256,208,85088,1,0,0:0:0:0:
256,208,85327,1,8,0:0:0:0:
272,224,85684,1,8,0:0:0:0:
272,224,85922,1,0,0:0:0:0:
248,224,86160,1,0,0:0:0:0:
248,224,86398,1,8,0:0:0:0:
248,224,86517,1,8,0:0:0:0:
248,240,86755,1,0,0:0:0:0:
248,224,86874,1,0,0:0:0:0:
248,240,87231,1,0,0:0:0:0:
248,240,87469,1,8,0:0:0:0:
248,240,87707,1,0,0:0:0:0:
248,240,87827,1,0,0:0:0:0:
248,240,88065,1,8,0:0:0:0:
248,224,88541,1,8,0:0:0:0:
248,224,88660,1,0,0:0:0:0:
248,224,88779,1,0,0:0:0:0:
248,224,89017,1,0,0:0:0:0:
248,224,89136,1,8,0:0:0:0:
264,216,89493,1,8,0:0:0:0:
248,224,89731,1,0,0:0:0:0:
248,224,89969,1,0,0:0:0:0:
256,224,90207,1,0,0:0:0:0:
256,224,90327,1,0,0:0:0:0:
256,224,90446,1,8,0:0:0:0:
304,232,90684,1,0,0:0:0:0:
248,224,90922,1,0,0:0:0:0:
256,224,91041,1,8,0:0:0:0:
256,208,91279,1,8,0:0:0:0:
256,216,91636,1,0,0:0:0:0:
256,216,91993,1,0,0:0:0:0:
256,216,92112,1,8,0:0:0:0:
256,216,92350,1,8,0:0:0:0:
256,216,92588,1,0,0:0:0:0:
256,216,92707,1,0,0:0:0:0:
256,216,92946,1,8,0:0:0:0:
256,208,93184,1,8,0:0:0:0:
256,208,93422,1,0,0:0:0:0:
256,208,93541,1,0,0:0:0:0:
256,208,93779,1,0,0:0:0:0:
256,208,94017,1,8,0:0:0:0:
240,216,94255,1,8,0:0:0:0:
240,216,94374,1,0,0:0:0:0:
256,208,94493,1,8,0:0:0:0:
256,208,94731,1,0,0:0:0:0:
256,208,94850,1,8,0:0:0:0:
256,208,95088,1,0,0:0:0:0:
256,208,95327,1,0,0:0:0:0:
272,224,95446,1,8,0:0:0:0:
272,224,95684,1,8,0:0:0:0:
256,216,96160,1,0,0:0:0:0:
256,216,96398,1,8,0:0:0:0:
256,216,96517,1,0,0:0:0:0:
224,208,96755,1,0,0:0:0:0:
224,208,96993,1,8,0:0:0:0:
240,208,97231,1,0,0:0:0:0:
240,208,97350,1,0,0:0:0:0:
240,216,97588,1,0,0:0:0:0:
240,208,97707,1,0,0:0:0:0:
240,208,97827,1,8,0:0:0:0:
240,208,98065,1,8,0:0:0:0:
240,208,98303,1,8,0:0:0:0:
248,216,98461,1,0,0:0:0:0:
248,216,98620,1,0,0:0:0:0:
248,216,98779,1,0,0:0:0:0:
248,216,99255,1,0,0:0:0:0:
248,224,99612,1,8,0:0:0:0:
248,224,99731,1,0,0:0:0:0:
264,232,99969,1,8,0:0:0:0:
248,216,100207,1,0,0:0:0:0:
248,224,100565,1,8,0:0:0:0:
248,224,100684,1,0,0:0:0:0:
248,216,101160,1,0,0:0:0:0:
248,224,101517,1,8,0:0:0:0:
248,224,101636,1,0,0:0:0:0:
264,232,101874,1,8,0:0:0:0:
248,216,102112,1,0,0:0:0:0:
248,224,102469,1,8,0:0:0:0:
248,224,102588,1,0,0:0:0:0:
248,216,103065,1,0,0:0:0:0:
248,224,103422,1,0,0:0:0:0:
248,224,103541,1,0,0:0:0:0:
264,232,103779,1,0,0:0:0:0:
248,216,104017,1,0,0:0:0:0:
248,224,104374,1,0,0:0:0:0:
248,224,104493,1,0,0:0:0:0:
264,232,104969,1,0,0:0:0:0:
256,232,105327,1,0,0:0:0:0:
256,232,105684,1,0,0:0:0:0:
256,232,105922,1,0,0:0:0:0:
256,232,106279,1,0,0:0:0:0:
256,232,106636,1,0,0:0:0:0:
272,256,106874,1,0,0:0:0:0:
280,232,107350,1,8,0:0:0:0:
280,232,107827,1,0,0:0:0:0:
280,232,108303,1,8,0:0:0:0:
264,200,109017,1,0,0:0:0:0:
264,200,109255,1,0,0:0:0:0:
272,200,109493,1,8,0:0:0:0:
272,200,109731,1,8,0:0:0:0:
264,200,110207,1,0,0:0:0:0:
272,200,110446,1,0,0:0:0:0:
272,200,110684,1,8,0:0:0:0:
272,192,111160,1,0,0:0:0:0:
240,200,111636,1,0,0:0:0:0:
248,192,112112,1,8,0:0:0:0:
248,192,112588,1,8,0:0:0:0:
280,208,113065,1,0,0:0:0:0:
280,208,113541,1,8,0:0:0:0:
280,208,113779,1,0,0:0:0:0:
280,208,114017,1,8,0:0:0:0:
219,260,114255,1,0,0:0:0:0:
280,208,114493,1,0,0:0:0:0:
304,224,114969,1,8,0:0:0:0:
304,224,115446,1,0,0:0:0:0:
304,224,115922,1,8,0:0:0:0:
304,224,116636,1,8,0:0:0:0:
304,224,116874,1,0,0:0:0:0:
304,224,117112,1,0,0:0:0:0:
304,224,117350,1,8,0:0:0:0:
280,216,117827,1,0,0:0:0:0:
304,224,118065,1,0,0:0:0:0:
280,216,118303,1,8,0:0:0:0:
276,196,118779,1,0,0:0:0:0:
276,196,119731,1,0,0:0:0:0:
276,196,120207,1,8,0:0:0:0:
276,196,120684,1,0,0:0:0:0:
263,210,121160,1,8,0:0:0:0:
263,210,121636,1,0,0:0:0:0:
263,210,121874,1,0,0:0:0:0:
263,210,122112,1,0,0:0:0:0:
252,207,122588,1,8,0:0:0:0:
252,207,123065,1,0,0:0:0:0:
252,207,123541,1,8,0:0:0:0:
263,206,124017,1,0,0:0:0:0:
263,206,124255,1,8,0:0:0:0:
263,206,124493,1,8,0:0:0:0:
263,206,124731,1,0,0:0:0:0:
263,206,124969,1,8,0:0:0:0:
263,206,125446,1,0,0:0:0:0:
263,206,125684,1,0,0:0:0:0:
263,206,125922,1,8,0:0:0:0:
276,204,126398,1,8,0:0:0:0:
275,203,126874,1,0,0:0:0:0:
276,204,127350,1,8,0:0:0:0:
276,204,127827,1,8,0:0:0:0:
170,177,128065,1,0,0:0:0:0:
275,213,128779,1,8,0:0:0:0:
275,213,129255,1,8,0:0:0:0:
275,213,129493,1,0,0:0:0:0:
275,213,129731,1,0,0:0:0:0:
275,213,130207,1,8,0:0:0:0:
275,213,130684,1,0,0:0:0:0:
275,213,131160,1,8,0:0:0:0:
275,213,131636,1,0,0:0:0:0:
275,213,131874,1,0,0:0:0:0:
275,213,132112,1,8,0:0:0:0:
275,213,132350,1,8,0:0:0:0:
275,213,132588,1,8,0:0:0:0:
275,213,133065,1,0,0:0:0:0:
275,213,133303,1,0,0:0:0:0:
275,213,133541,1,0,0:0:0:0:
282,212,134017,1,8,0:0:0:0:
282,212,134969,1,8,0:0:0:0:
256,192,135446,12,0,137112,0:0:0:0:
244,189,137350,5,0,0:0:0:0:
258,183,137469,1,8,0:0:0:0:
256,183,137707,1,0,0:0:0:0:
256,183,137946,1,8,0:0:0:0:
256,183,138303,1,0,0:0:0:0:
256,183,138660,1,0,0:0:0:0:
256,183,138779,1,8,0:0:0:0:
256,183,139255,1,0,0:0:0:0:
256,183,139612,1,0,0:0:0:0:
256,183,139731,1,8,0:0:0:0:
256,183,139969,1,8,0:0:0:0:
256,183,140207,1,8,0:0:0:0:
256,183,140565,1,0,0:0:0:0:
256,183,140684,1,8,0:0:0:0:
264,192,141160,1,8,0:0:0:0:
248,192,141398,1,0,0:0:0:0:
240,192,141517,1,8,0:0:0:0:
248,192,141755,1,8,0:0:0:0:
248,192,141993,1,0,0:0:0:0:
256,192,142112,1,8,0:0:0:0:
256,192,142469,1,0,0:0:0:0:
256,192,142588,1,8,0:0:0:0:
256,192,143065,1,0,0:0:0:0:
256,192,143422,1,0,0:0:0:0:
256,192,143541,1,8,0:0:0:0:
256,192,143779,1,8,0:0:0:0:
256,192,144017,1,12,0:0:0:0:
256,192,144493,1,12,0:0:0:0:
244,189,144969,5,0,0:0:0:0:
258,183,145088,1,8,0:0:0:0:
256,183,145327,1,0,0:0:0:0:
256,183,145565,1,8,0:0:0:0:
256,183,145922,1,0,0:0:0:0:
256,183,146279,1,0,0:0:0:0:
256,183,146398,1,8,0:0:0:0:
256,183,146874,1,0,0:0:0:0:
256,183,147231,1,0,0:0:0:0:
256,183,147350,1,8,0:0:0:0:
256,183,147588,1,8,0:0:0:0:
256,183,147827,1,8,0:0:0:0:
256,183,148184,1,0,0:0:0:0:
256,183,148303,1,8,0:0:0:0:
264,192,148779,1,8,0:0:0:0:
248,192,149017,1,0,0:0:0:0:
240,192,149136,1,8,0:0:0:0:
248,192,149374,1,8,0:0:0:0:
248,192,149612,1,0,0:0:0:0:
256,192,149731,1,8,0:0:0:0:
256,192,150088,1,0,0:0:0:0:
256,192,150207,1,8,0:0:0:0:
256,192,150684,1,0,0:0:0:0:
256,192,151041,1,0,0:0:0:0:
256,192,151160,1,8,0:0:0:0:
256,192,151398,1,8,0:0:0:0:
256,192,151636,1,8,0:0:0:0:
272,208,151954,1,0,0:0:0:0:
256,192,152112,1,8,0:0:0:0:
256,208,152271,1,8,0:0:0:0:
320,117,152430,1,8,0:0:0:0:
256,192,152588,1,0,0:0:0:0:
272,200,153065,1,8,0:0:0:0:
272,200,153303,1,0,0:0:0:0:
272,200,153541,1,8,0:0:0:0:
272,200,153660,1,0,0:0:0:0:
272,200,153898,1,8,0:0:0:0:
280,216,154136,1,0,0:0:0:0:
280,216,154374,1,0,0:0:0:0:
280,208,154493,1,0,0:0:0:0:
280,208,154731,1,8,0:0:0:0:
280,216,154969,1,8,0:0:0:0:
280,216,155088,1,0,0:0:0:0:
280,208,155446,1,8,0:0:0:0:
280,208,155565,1,0,0:0:0:0:
280,216,155803,1,8,0:0:0:0:
280,216,156041,1,8,0:0:0:0:
280,208,156279,1,0,0:0:0:0:
280,208,156398,1,0,0:0:0:0:
280,216,156636,1,8,0:0:0:0:
280,208,157112,1,8,0:0:0:0:
280,208,157350,1,0,0:0:0:0:
272,208,157588,1,0,0:0:0:0:
280,208,157707,1,8,0:0:0:0:
280,208,157946,1,8,0:0:0:0:
296,192,158184,1,0,0:0:0:0:
296,200,158303,1,8,0:0:0:0:
288,208,158541,1,0,0:0:0:0:
288,208,158779,1,0,0:0:0:0:
288,208,158898,1,0,0:0:0:0:
288,208,159017,1,8,0:0:0:0:
288,208,159255,1,8,0:0:0:0:
288,208,159374,1,0,0:0:0:0:
288,208,159612,1,0,0:0:0:0:
288,208,159850,1,8,0:0:0:0:
264,216,160088,1,0,0:0:0:0:
304,216,160207,1,0,0:0:0:0:
288,216,160565,1,8,0:0:0:0:
288,216,160684,1,8,0:0:0:0:
288,216,160922,1,0,0:0:0:0:
288,216,161160,1,8,0:0:0:0:
288,216,161279,1,8,0:0:0:0:
288,216,161517,1,0,0:0:0:0:
288,216,161755,1,8,0:0:0:0:
288,216,162112,1,8,0:0:0:0:
288,216,162350,1,0,0:0:0:0:
288,216,162469,1,0,0:0:0:0:
288,216,162588,1,8,0:0:0:0:
296,232,162827,1,0,0:0:0:0:
288,216,163065,1,0,0:0:0:0:
304,224,163184,1,0,0:0:0:0:
304,224,163422,1,8,0:0:0:0:
296,232,163660,1,8,0:0:0:0:
304,224,164017,1,8,0:0:0:0:
304,224,164255,1,0,0:0:0:0:
304,224,164374,1,0,0:0:0:0:
296,232,164493,1,8,0:0:0:0:
304,224,164731,1,0,0:0:0:0:
304,224,164850,1,0,0:0:0:0:
304,224,164969,1,0,0:0:0:0:
304,224,165207,1,0,0:0:0:0:
304,224,165327,1,8,0:0:0:0:
304,224,165565,1,8,0:0:0:0:
304,224,165803,1,0,0:0:0:0:
304,224,165922,1,0,0:0:0:0:
288,216,166160,1,8,0:0:0:0:
264,216,166636,1,0,0:0:0:0:
264,216,166755,1,0,0:0:0:0:
264,216,166874,1,0,0:0:0:0:
272,216,166993,1,0,0:0:0:0:
264,216,167231,1,8,0:0:0:0:
264,216,167469,1,8,0:0:0:0:
288,224,167827,1,0,0:0:0:0:
280,224,168184,1,0,0:0:0:0:
272,216,168303,1,8,0:0:0:0:
272,216,168541,1,0,0:0:0:0:
272,216,168779,1,8,0:0:0:0:
280,224,168898,1,0,0:0:0:0:
280,224,169136,1,8,0:0:0:0:
272,216,169374,1,8,0:0:0:0:
272,216,169731,1,0,0:0:0:0:
272,216,169969,1,0,0:0:0:0:
272,216,170207,1,8,0:0:0:0:
272,216,170327,1,8,0:0:0:0:
272,216,170446,1,0,0:0:0:0:
272,216,170684,1,0,0:0:0:0:
272,216,170803,1,0,0:0:0:0:
272,216,171041,1,8,0:0:0:0:
272,216,171279,1,8,0:0:0:0:
272,216,171517,1,0,0:0:0:0:
272,216,171636,1,0,0:0:0:0:
272,216,171874,1,8,0:0:0:0:
272,216,172350,1,8,0:0:0:0:
298,237,172588,1,0,0:0:0:0:
272,216,172707,1,8,0:0:0:0:
296,241,172946,1,0,0:0:0:0:
272,216,173184,1,8,0:0:0:0:
272,216,173541,1,8,0:0:0:0:
272,216,173779,1,0,0:0:0:0:
272,216,174017,1,0,0:0:0:0:
272,216,174136,1,0,0:0:0:0:
272,216,174255,1,8,0:0:0:0:
272,216,174493,1,8,0:0:0:0:
272,216,174612,1,8,0:0:0:0:
272,216,174850,1,0,0:0:0:0:
272,216,175088,1,8,0:0:0:0:
272,216,175446,1,0,0:0:0:0:
232,192,175803,1,0,0:0:0:0:
272,208,175922,1,8,0:0:0:0:
288,208,176160,1,0,0:0:0:0:
288,208,176398,1,8,0:0:0:0:
288,208,176517,1,0,0:0:0:0:
288,208,176755,1,0,0:0:0:0:
280,200,176993,1,8,0:0:0:0:
288,208,177231,1,0,0:0:0:0:
288,208,177350,1,8,0:0:0:0:
280,200,177588,1,0,0:0:0:0:
280,200,177827,1,8,0:0:0:0:
280,200,178065,1,8,0:0:0:0:
280,200,178303,1,0,0:0:0:0:
280,200,178422,1,0,0:0:0:0:
280,200,178660,1,8,0:0:0:0:
280,200,178898,1,8,0:0:0:0:
280,200,179136,1,0,0:0:0:0:
280,200,179255,1,0,0:0:0:0:
280,200,179493,1,8,0:0:0:0:
272,192,179969,1,0,0:0:0:0:
272,192,180207,1,0,0:0:0:0:
272,192,180327,1,0,0:0:0:0:
272,192,180565,1,8,0:0:0:0:
272,192,180803,1,8,0:0:0:0:
288,216,181041,1,0,0:0:0:0:
288,216,181160,1,0,0:0:0:0:
280,208,181517,1,0,0:0:0:0:
280,208,181636,1,8,0:0:0:0:
280,208,181874,1,8,0:0:0:0:
280,208,182112,1,8,0:0:0:0:
304,208,182271,1,0,0:0:0:0:
304,208,182430,1,0,0:0:0:0:
280,208,182588,1,8,0:0:0:0:
252,237,183065,1,0,0:0:0:0:
223,249,183303,1,0,0:0:0:0:
223,249,183422,1,8,0:0:0:0:
223,249,183660,1,8,0:0:0:0:
223,249,183898,1,0,0:0:0:0:
223,249,184017,1,8,0:0:0:0:
223,249,184374,1,0,0:0:0:0:
223,249,184493,1,8,0:0:0:0:
223,249,184731,1,0,0:0:0:0:
223,249,184850,1,0,0:0:0:0:
223,249,184969,1,0,0:0:0:0:
186,247,185327,1,0,0:0:0:0:
186,247,185446,1,8,0:0:0:0:
191,247,185684,1,8,0:0:0:0:
191,247,185922,1,8,0:0:0:0:
191,247,186041,1,0,0:0:0:0:
186,247,186279,1,0,0:0:0:0:
186,247,186398,1,8,0:0:0:0:
202,241,186874,1,8,0:0:0:0:
202,243,187112,1,0,0:0:0:0:
202,241,187231,1,8,0:0:0:0:
202,241,187469,1,8,0:0:0:0:
202,241,187707,1,0,0:0:0:0:
215,245,187827,1,8,0:0:0:0:
215,245,188065,1,0,0:0:0:0:
202,243,188184,1,0,0:0:0:0:
215,245,188303,1,8,0:0:0:0:
215,239,188541,1,8,0:0:0:0:
215,245,188779,1,0,0:0:0:0:
215,235,189136,1,0,0:0:0:0:
215,235,189255,1,0,0:0:0:0:
215,239,189493,1,0,0:0:0:0:
215,235,189731,1,12,0:0:0:0:
215,235,190207,1,12,0:0:0:0:
252,237,190684,1,0,0:0:0:0:
223,249,190922,1,0,0:0:0:0:
223,249,191041,1,8,0:0:0:0:
223,249,191279,1,8,0:0:0:0:
223,249,191517,1,0,0:0:0:0:
223,249,191636,1,8,0:0:0:0:
217,256,191874,1,0,0:0:0:0:
223,249,191993,1,0,0:0:0:0:
223,249,192112,1,8,0:0:0:0:
223,249,192350,1,0,0:0:0:0:
223,249,192469,1,0,0:0:0:0:
223,249,192588,1,0,0:0:0:0:
186,247,192946,1,0,0:0:0:0:
186,247,193065,1,8,0:0:0:0:
191,247,193303,1,8,0:0:0:0:
191,247,193541,1,8,0:0:0:0:
191,247,193660,1,0,0:0:0:0:
171,242,193779,1,0,0:0:0:0:
186,247,193898,1,0,0:0:0:0:
186,247,194017,1,8,0:0:0:0:
202,241,194493,1,8,0:0:0:0:
202,243,194731,1,0,0:0:0:0:
202,241,194850,1,8,0:0:0:0:
202,241,195088,1,8,0:0:0:0:
202,241,195327,1,0,0:0:0:0:
215,245,195446,1,8,0:0:0:0:
215,245,195684,1,0,0:0:0:0:
202,243,195803,1,0,0:0:0:0:
215,245,195922,1,8,0:0:0:0:
215,239,196160,1,8,0:0:0:0:
215,245,196398,1,0,0:0:0:0:
226,243,196755,1,0,0:0:0:0:
226,243,196874,1,8,0:0:0:0:
226,243,197112,1,0,0:0:0:0:
226,243,197350,1,8,0:0:0:0:
226,243,197509,1,0,0:0:0:0:
226,243,197668,1,0,0:0:0:0:
226,243,197827,1,8,0:0:0:0:
226,243,197985,1,0,0:0:0:0:
226,243,198144,1,0,0:0:0:0:
256,192,198303,12,0,201636,0:0:0:0:
