osu file format v14

[General]
AudioFilename: audio.mp3
AudioLeadIn: 0
PreviewTime: 137281
Countdown: 1
SampleSet: Normal
StackLeniency: 0.7
Mode: 1
LetterboxInBreaks: 0
WidescreenStoryboard: 0

[Editor]
Bookmarks: 100197,181864
DistanceSpacing: 1.8
BeatDivisor: 4
GridSize: 8
TimelineZoom: 1.1

[Metadata]
Title:212 (feat. Lazy Jay)
TitleUnicode:212 (feat. Lazy Jay)
Artist:Azealia Banks
ArtistUnicode:Azealia Banks
Creator:Ney
Version:Inner Oni
Source:
Tags:broke with expensive taste 1991 ep english hip hop house rap miss bank$ basto! jef martens fieryrage vulkin
BeatmapID:1787971
BeatmapSetID:716931

[Difficulty]
HPDrainRate:6.2
CircleSize:2.1
OverallDifficulty:6.2
ApproachRate:2.1
SliderMultiplier:1.4
SliderTickRate:1

[Events]
//Background and Video events
0,0,"ab.png",0,50
//Break Periods
//Storyboard Layer 0 (Background)
//Storyboard Layer 1 (Fail)
//Storyboard Layer 2 (Pass)
//Storyboard Layer 3 (Foreground)
//Storyboard Layer 4 (Overlay)
//Storyboard Sound Samples

[TimingPoints]
208,476.190476190476,4,1,0,55,1,0
208,-111.111111111111,4,1,0,55,0,0
7827,-105.263157894737,4,1,0,65,0,0
15446,-100,4,1,0,75,0,0
46160,-105.263157894737,4,1,0,65,0,0
48065,-111.111111111111,4,1,0,55,0,0
49969,-117.647058823529,4,1,0,50,0,0
52946,-114.942528735632,4,1,0,55,0,0
53065,-111.111111111111,4,1,0,60,0,0
53303,-105.263157894737,4,1,0,65,0,0
53541,-100,4,1,0,70,0,0
67827,-99.009900990099,4,1,0,70,0,0
68303,-97.0873786407767,4,1,0,70,0,0
68779,-95.2380952380952,4,1,0,70,0,0
83065,-94.3396226415094,4,1,0,70,0,0
83541,-92.5925925925926,4,1,0,70,0,0
84017,-90.9090909090909,4,1,0,70,0,0
98065,-91.743119266055,4,1,0,70,0,0
98303,-92.5925925925926,4,1,0,70,0,0
98461,-93.4579439252336,4,1,0,70,0,0
98620,-95.2380952380952,4,1,0,70,0,0
98779,-96.1538461538461,4,1,0,70,0,0
98938,-97.0873786407767,4,1,0,70,0,0
99096,-99.009900990099,4,1,0,70,0,0
99255,-100,4,1,0,65,0,0
99731,-102.040816326531,4,1,0,65,0,0
100207,-104.166666666667,4,1,0,65,0,0
100684,-106.382978723404,4,1,0,65,0,0
101160,-108.695652173913,4,1,0,65,0,0
101636,-111.111111111111,4,1,0,65,0,0
102112,-113.636363636364,4,1,0,65,0,0
102588,-116.279069767442,4,1,0,65,0,0
103065,-117.647058823529,4,1,0,60,0,0
104374,-120.481927710843,4,1,0,60,0,0
105207,-125,4,1,0,55,0,0
137350,-100,4,1,0,75,0,0
151636,-99.009900990099,4,1,0,75,0,0
152112,-97.0873786407767,4,1,0,75,0,0
152588,-95.2380952380952,4,1,0,75,0,0
182112,-93.4579439252336,4,1,0,75,0,0
182271,-92.5925925925926,4,1,0,75,0,0
182430,-91.743119266055,4,1,0,75,0,0
182588,-90.0900900900901,4,1,0,75,0,0
182747,-89.2857142857143,4,1,0,75,0,0
182906,-88.4955752212389,4,1,0,75,0,0
183065,-86.9565217391304,4,1,0,80,0,1
197350,-88.4955752212389,4,1,0,80,0,1
197509,-90.0900900900901,4,1,0,80,0,1
197668,-91.743119266055,4,1,0,80,0,1
197827,-93.4579439252336,4,1,0,80,0,1
197985,-95.2380952380952,4,1,0,80,0,1
198144,-97.0873786407767,4,1,0,80,0,1
198303,-99.009900990099,4,1,0,70,0,0
200207,-100,4,1,0,50,0,0

[HitObjects]
251,182,208,5,0,0:0:0:0:
216,200,446,1,8,0:0:0:0:
251,182,565,1,8,0:0:0:0:
251,182,684,1,0,0:0:0:0:
251,182,922,1,8,0:0:0:0:
251,182,1160,1,0,0:0:0:0:
251,182,1517,1,8,0:0:0:0:
246,184,1636,1,0,0:0:0:0:
246,184,1874,1,8,0:0:0:0:
246,184,2112,1,0,0:0:0:0:
246,184,2350,1,8,0:0:0:0:
246,184,2469,1,8,0:0:0:0:
246,184,2588,1,0,0:0:0:0:
234,186,2827,1,8,0:0:0:0:
234,186,3065,1,0,0:0:0:0:
246,184,3422,1,8,0:0:0:0:
246,184,3541,1,8,0:0:0:0:
248,179,3779,1,0,0:0:0:0:
251,178,4017,1,0,0:0:0:0:
251,178,4255,1,8,0:0:0:0:
251,178,4374,1,8,0:0:0:0:
251,178,4493,1,0,0:0:0:0:
246,172,4731,1,8,0:0:0:0:
246,172,4969,1,0,0:0:0:0:
236,168,5327,1,8,0:0:0:0:
236,168,5446,1,0,0:0:0:0:
234,165,5684,1,8,0:0:0:0:
234,165,5922,1,0,0:0:0:0:
236,168,6160,1,8,0:0:0:0:
236,168,6279,1,8,0:0:0:0:
236,168,6398,1,0,0:0:0:0:
234,165,6636,1,8,0:0:0:0:
234,165,6874,1,0,0:0:0:0:
236,168,7112,1,8,0:0:0:0:
236,150,7231,1,0,0:0:0:0:
236,150,7350,1,8,0:0:0:0:
239,143,7588,1,0,0:0:0:0:
248,159,7827,1,0,0:0:0:0:
256,179,7946,1,0,0:0:0:0:
256,179,8065,1,8,0:0:0:0:
258,174,8184,1,8,0:0:0:0:
258,171,8303,1,0,0:0:0:0:
261,171,8541,1,8,0:0:0:0:
261,172,8779,1,0,0:0:0:0:
261,172,9017,1,8,0:0:0:0:
258,174,9136,1,0,0:0:0:0:
258,171,9255,1,0,0:0:0:0:
261,171,9493,1,8,0:0:0:0:
258,177,9731,1,0,0:0:0:0:
258,177,9850,1,0,0:0:0:0:
258,177,9969,1,8,0:0:0:0:
258,174,10088,1,8,0:0:0:0:
258,177,10207,1,0,0:0:0:0:
249,198,10446,1,8,0:0:0:0:
263,176,10684,1,0,0:0:0:0:
263,176,10803,1,8,0:0:0:0:
263,176,10922,1,0,0:0:0:0:
263,176,11041,1,0,0:0:0:0:
263,176,11160,1,8,0:0:0:0:
263,176,11398,1,8,0:0:0:0:
267,183,11636,1,0,0:0:0:0:
267,183,11755,1,0,0:0:0:0:
267,183,11874,1,8,0:0:0:0:
267,183,11993,1,8,0:0:0:0:
267,183,12112,1,0,0:0:0:0:
267,183,12350,1,8,0:0:0:0:
267,183,12588,1,0,0:0:0:0:
267,183,12827,1,8,0:0:0:0:
267,183,12946,1,0,0:0:0:0:
267,183,13065,1,0,0:0:0:0:
257,188,13303,1,8,0:0:0:0:
257,184,13541,1,0,0:0:0:0:
257,184,13660,1,0,0:0:0:0:
257,184,13779,1,8,0:0:0:0:
257,184,13898,1,8,0:0:0:0:
257,184,14017,1,0,0:0:0:0:
259,166,14255,1,8,0:0:0:0:
257,184,14493,1,0,0:0:0:0:
265,161,14612,1,0,0:0:0:0:
265,161,14731,1,8,0:0:0:0:
251,161,14850,1,8,0:0:0:0:
251,161,14969,1,8,0:0:0:0:
251,150,15207,1,0,0:0:0:0:
245,146,15446,1,0,0:0:0:0:
245,146,15684,1,8,0:0:0:0:
245,146,15922,1,0,0:0:0:0:
245,146,16160,1,8,0:0:0:0:
245,146,16279,1,8,0:0:0:0:
245,146,16398,1,0,0:0:0:0:
245,146,16517,1,8,0:0:0:0:
245,146,16755,1,0,0:0:0:0:
245,146,16874,1,8,0:0:0:0:
245,146,17112,1,8,0:0:0:0:
251,187,17350,1,0,0:0:0:0:
251,187,17707,1,0,0:0:0:0:
251,187,17827,1,8,0:0:0:0:
251,187,17946,1,8,0:0:0:0:
251,187,18065,1,0,0:0:0:0:
251,187,18184,1,8,0:0:0:0:
251,187,18422,1,0,0:0:0:0:
251,187,18660,1,0,0:0:0:0:
251,187,18779,1,0,0:0:0:0:
245,176,19017,1,8,0:0:0:0:
245,177,19255,1,8,0:0:0:0:
245,177,19493,1,0,0:0:0:0:
245,177,19612,1,0,0:0:0:0:
245,177,19731,1,8,0:0:0:0:
245,176,19850,1,8,0:0:0:0:
245,176,19969,1,0,0:0:0:0:
245,177,20088,1,8,0:0:0:0:
245,177,20327,1,8,0:0:0:0:
245,177,20565,1,0,0:0:0:0:
245,177,20684,1,8,0:0:0:0:
248,182,20922,1,0,0:0:0:0:
252,183,21160,1,0,0:0:0:0:
252,183,21279,1,0,0:0:0:0:
252,183,21398,1,8,0:0:0:0:
252,183,21517,1,0,0:0:0:0:
256,183,21636,1,8,0:0:0:0:
256,183,21755,1,0,0:0:0:0:
256,183,21874,1,0,0:0:0:0:
252,183,21993,1,8,0:0:0:0:
252,183,22231,1,8,0:0:0:0:
252,183,22350,1,0,0:0:0:0:
243,182,22469,1,0,0:0:0:0:
243,182,22588,1,8,0:0:0:0:
243,180,22827,1,8,0:0:0:0:
230,173,23065,1,8,0:0:0:0:
235,180,23303,1,0,0:0:0:0:
235,176,23422,1,0,0:0:0:0:
235,176,23541,1,8,0:0:0:0:
235,176,23660,1,8,0:0:0:0:
235,176,23779,1,0,0:0:0:0:
235,176,23898,1,8,0:0:0:0:
232,170,24136,1,8,0:0:0:0:
232,170,24374,1,0,0:0:0:0:
232,170,24493,1,0,0:0:0:0:
232,170,24731,1,8,0:0:0:0:
236,161,24969,1,0,0:0:0:0:
236,161,25207,1,0,0:0:0:0:
236,161,25327,1,0,0:0:0:0:
236,161,25446,1,8,0:0:0:0:
236,159,25684,1,0,0:0:0:0:
236,161,25803,1,8,0:0:0:0:
238,166,26041,1,8,0:0:0:0:
232,152,26160,1,0,0:0:0:0:
224,168,26279,1,0,0:0:0:0:
238,166,26398,1,8,0:0:0:0:
224,160,26636,1,0,0:0:0:0:
238,166,26874,1,8,0:0:0:0:
232,168,26993,1,0,0:0:0:0:
216,208,27112,1,8,0:0:0:0:
238,166,27231,1,0,0:0:0:0:
232,168,27350,1,8,0:0:0:0:
224,152,27469,1,0,0:0:0:0:
232,152,27707,1,8,0:0:0:0:
240,144,27946,1,8,0:0:0:0:
232,144,28184,1,0,0:0:0:0:
232,144,28303,1,8,0:0:0:0:
232,144,28541,1,8,0:0:0:0:
240,144,28779,1,0,0:0:0:0:
240,144,28898,1,8,0:0:0:0:
240,144,29017,1,8,0:0:0:0:
240,144,29136,1,0,0:0:0:0:
240,144,29255,1,8,0:0:0:0:
240,144,29374,1,0,0:0:0:0:
240,144,29493,1,0,0:0:0:0:
240,144,29612,1,8,0:0:0:0:
232,136,29850,1,0,0:0:0:0:
264,192,30088,1,0,0:0:0:0:
264,192,30207,1,8,0:0:0:0:
240,176,30446,1,0,0:0:0:0:
240,176,30684,1,8,0:0:0:0:
240,176,30803,1,8,0:0:0:0:
240,184,30922,1,0,0:0:0:0:
240,184,31041,1,0,0:0:0:0:
240,176,31160,1,8,0:0:0:0:
250,175,31279,1,0,0:0:0:0:
240,176,31517,1,8,0:0:0:0:
232,160,31755,1,0,0:0:0:0:
232,160,31993,1,8,0:0:0:0:
232,160,32112,1,8,0:0:0:0:
232,160,32350,1,8,0:0:0:0:
232,168,32588,1,0,0:0:0:0:
232,168,32827,1,0,0:0:0:0:
232,168,32946,1,8,0:0:0:0:
232,168,33065,1,8,0:0:0:0:
232,168,33184,1,0,0:0:0:0:
232,168,33422,1,8,0:0:0:0:
248,176,33660,1,0,0:0:0:0:
240,176,33898,1,0,0:0:0:0:
240,176,34017,1,8,0:0:0:0:
240,176,34255,1,8,0:0:0:0:
248,176,34493,1,8,0:0:0:0:
248,176,34612,1,8,0:0:0:0:
248,176,34731,1,0,0:0:0:0:
248,176,34850,1,0,0:0:0:0:
248,176,34969,1,8,0:0:0:0:
248,176,35207,1,0,0:0:0:0:
248,176,35327,1,8,0:0:0:0:
248,176,35565,1,8,0:0:0:0:
248,176,35803,1,8,0:0:0:0:
248,176,35922,1,0,0:0:0:0:
248,176,36160,1,8,0:0:0:0:
248,176,36398,1,8,0:0:0:0:
248,176,36517,1,0,0:0:0:0:
248,176,36636,1,0,0:0:0:0:
248,176,36755,1,0,0:0:0:0:
248,176,36874,1,8,0:0:0:0:
248,168,36993,1,8,0:0:0:0:
248,168,37231,1,0,0:0:0:0:
248,168,37469,1,8,0:0:0:0:
248,168,37707,1,0,0:0:0:0:
248,168,37827,1,8,0:0:0:0:
248,168,38065,1,8,0:0:0:0:
248,168,38303,1,8,0:0:0:0:
232,224,38422,1,8,0:0:0:0:
240,160,38541,1,0,0:0:0:0:
256,168,38660,1,0,0:0:0:0:
256,168,38779,1,8,0:0:0:0:
256,168,38898,1,0,0:0:0:0:
256,168,39136,1,8,0:0:0:0:
256,152,39374,1,0,0:0:0:0:
256,152,39612,1,8,0:0:0:0:
256,152,39731,1,0,0:0:0:0:
256,152,39969,1,8,0:0:0:0:
264,144,40207,1,0,0:0:0:0:
264,144,40446,1,0,0:0:0:0:
264,144,40565,1,0,0:0:0:0:
264,144,40684,1,8,0:0:0:0:
256,128,40803,1,0,0:0:0:0:
256,128,41041,1,8,0:0:0:0:
248,120,41279,1,8,0:0:0:0:
248,120,41517,1,8,0:0:0:0:
248,120,41636,1,0,0:0:0:0:
248,120,41874,1,8,0:0:0:0:
248,136,42112,1,0,0:0:0:0:
248,136,42350,1,0,0:0:0:0:
248,136,42469,1,8,0:0:0:0:
248,136,42588,1,8,0:0:0:0:
248,136,42707,1,0,0:0:0:0:
240,136,42946,1,8,0:0:0:0:
248,128,43184,1,8,0:0:0:0:
248,128,43422,1,0,0:0:0:0:
248,128,43541,1,8,0:0:0:0:
248,128,43779,1,8,0:0:0:0:
248,144,44017,1,0,0:0:0:0:
248,144,44255,1,8,0:0:0:0:
248,144,44374,1,8,0:0:0:0:
240,152,44493,1,0,0:0:0:0:
248,144,44612,1,8,0:0:0:0:
240,152,44850,1,0,0:0:0:0:
248,144,44969,1,8,0:0:0:0:
240,152,45207,1,0,0:0:0:0:
248,144,45327,1,8,0:0:0:0:
240,152,45446,1,0,0:0:0:0:
248,144,45565,1,8,0:0:0:0:
240,152,45684,1,0,0:0:0:0:
248,144,45803,1,8,0:0:0:0:
240,152,45922,1,0,0:0:0:0:
248,136,46160,1,0,0:0:0:0:
248,136,46279,1,0,0:0:0:0:
248,136,46398,1,8,0:0:0:0:
248,136,46517,1,0,0:0:0:0:
240,136,46755,1,8,0:0:0:0:
248,128,46993,1,0,0:0:0:0:
248,128,47231,1,0,0:0:0:0:
248,128,47350,1,8,0:0:0:0:
248,128,47588,1,8,0:0:0:0:
248,136,48184,1,0,0:0:0:0:
248,136,48303,1,8,0:0:0:0:
248,136,48422,1,0,0:0:0:0:
240,136,48660,1,8,0:0:0:0:
248,128,48898,1,0,0:0:0:0:
248,128,49136,1,0,0:0:0:0:
248,128,49255,1,0,0:0:0:0:
248,128,49493,1,8,0:0:0:0:
256,184,49731,1,0,0:0:0:0:
256,184,50088,1,8,0:0:0:0:
256,184,50207,1,0,0:0:0:0:
256,184,50446,1,0,0:0:0:0:
256,184,50684,1,0,0:0:0:0:
256,184,51041,1,8,0:0:0:0:
256,184,51160,1,0,0:0:0:0:
256,184,51398,1,0,0:0:0:0:
256,184,51636,1,0,0:0:0:0:
256,184,51993,1,8,0:0:0:0:
256,184,52112,1,0,0:0:0:0:
256,184,52350,1,0,0:0:0:0:
256,184,52588,1,0,0:0:0:0:
256,184,52946,1,8,0:0:0:0:
256,184,53065,1,0,0:0:0:0:
256,184,53303,1,8,0:0:0:0:
256,184,53541,1,0,0:0:0:0:
264,184,54017,1,8,0:0:0:0:
264,184,54136,1,0,0:0:0:0:
264,184,54255,1,0,0:0:0:0:
264,184,54374,1,0,0:0:0:0:
264,184,54493,1,8,0:0:0:0:
272,192,54612,1,0,0:0:0:0:
272,192,54850,1,8,0:0:0:0:
240,224,55088,1,0,0:0:0:0:
256,208,55327,1,0,0:0:0:0:
240,224,55446,1,8,0:0:0:0:
256,208,55684,1,0,0:0:0:0:
256,208,55922,1,8,0:0:0:0:
256,208,56160,1,0,0:0:0:0:
256,208,56279,1,0,0:0:0:0:
256,208,56398,1,8,0:0:0:0:
256,208,56517,1,8,0:0:0:0:
256,208,56755,1,0,0:0:0:0:
256,208,56993,1,8,0:0:0:0:
256,208,57231,1,0,0:0:0:0:
256,216,57350,1,0,0:0:0:0:
256,208,57588,1,0,0:0:0:0:
256,216,57827,1,8,0:0:0:0:
256,216,58065,1,8,0:0:0:0:
256,216,58184,1,0,0:0:0:0:
256,216,58303,1,0,0:0:0:0:
256,216,58422,1,8,0:0:0:0:
256,216,58660,1,0,0:0:0:0:
256,216,58898,1,8,0:0:0:0:
256,216,59136,1,0,0:0:0:0:
256,216,59255,1,0,0:0:0:0:
256,216,59493,1,8,0:0:0:0:
256,216,59731,1,8,0:0:0:0:
256,216,59850,1,0,0:0:0:0:
256,216,59969,1,8,0:0:0:0:
256,216,60088,1,8,0:0:0:0:
256,216,60207,1,0,0:0:0:0:
256,216,60327,1,0,0:0:0:0:
256,216,60565,1,8,0:0:0:0:
256,216,60803,1,8,0:0:0:0:
256,216,61160,1,0,0:0:0:0:
256,216,61398,1,0,0:0:0:0:
256,216,61636,1,8,0:0:0:0:
256,216,61755,1,8,0:0:0:0:
256,216,61874,1,0,0:0:0:0:
256,216,61993,1,0,0:0:0:0:
256,216,62112,1,8,0:0:0:0:
256,216,62231,1,0,0:0:0:0:
256,216,62469,1,8,0:0:0:0:
248,224,62707,1,8,0:0:0:0:
248,224,62946,1,0,0:0:0:0:
248,224,63065,1,8,0:0:0:0:
248,224,63303,1,0,0:0:0:0:
248,224,63541,1,8,0:0:0:0:
240,224,63779,1,8,0:0:0:0:
240,224,63898,1,0,0:0:0:0:
240,224,64017,1,8,0:0:0:0:
240,224,64136,1,0,0:0:0:0:
240,224,64374,1,8,0:0:0:0:
240,224,64612,1,8,0:0:0:0:
240,208,64850,1,8,0:0:0:0:
240,208,64969,1,0,0:0:0:0:
240,208,65207,1,8,0:0:0:0:
240,208,65446,1,0,0:0:0:0:
248,208,65684,1,8,0:0:0:0:
248,208,65803,1,0,0:0:0:0:
248,208,65922,1,0,0:0:0:0:
248,208,66041,1,8,0:0:0:0:
248,208,66279,1,8,0:0:0:0:
248,208,66517,1,8,0:0:0:0:
248,208,66755,1,0,0:0:0:0:
248,208,66874,1,0,0:0:0:0:
248,208,67112,1,8,0:0:0:0:
248,208,67350,1,8,0:0:0:0:
248,208,67469,1,0,0:0:0:0:
248,208,67588,1,8,0:0:0:0:
240,216,67707,1,8,0:0:0:0:
240,216,67827,1,8,0:0:0:0:
248,208,67985,1,0,0:0:0:0:
248,208,68144,1,8,0:0:0:0:
248,208,68303,1,8,0:0:0:0:
248,208,68461,1,8,0:0:0:0:
248,208,68620,1,0,0:0:0:0:
248,208,68779,1,0,0:0:0:0:
256,200,69255,1,8,0:0:0:0:
256,200,69374,1,0,0:0:0:0:
256,200,69493,1,8,0:0:0:0:
256,200,69612,1,0,0:0:0:0:
256,200,69731,1,8,0:0:0:0:
256,200,69850,1,0,0:0:0:0:
264,208,70088,1,8,0:0:0:0:
264,208,70327,1,8,0:0:0:0:
264,208,70565,1,0,0:0:0:0:
264,208,70684,1,8,0:0:0:0:
264,208,70803,1,0,0:0:0:0:
264,208,70922,1,0,0:0:0:0:
264,208,71041,1,8,0:0:0:0:
264,208,71160,1,8,0:0:0:0:
264,208,71279,1,8,0:0:0:0:
264,208,71398,1,0,0:0:0:0:
264,208,71517,1,0,0:0:0:0:
264,208,71636,1,8,0:0:0:0:
264,208,71755,1,0,0:0:0:0:
264,208,71993,1,8,0:0:0:0:
264,208,72231,1,8,0:0:0:0:
264,208,72469,1,0,0:0:0:0:
280,208,72588,1,0,0:0:0:0:
280,216,72707,1,0,0:0:0:0:
280,216,72827,1,8,0:0:0:0:
280,200,72946,1,0,0:0:0:0:
280,224,73065,1,8,0:0:0:0:
280,200,73184,1,8,0:0:0:0:
280,200,73303,1,8,0:0:0:0:
272,192,73422,1,0,0:0:0:0:
272,192,73541,1,8,0:0:0:0:
272,208,73660,1,0,0:0:0:0:
272,208,73898,1,8,0:0:0:0:
272,208,74136,1,0,0:0:0:0:
272,208,74374,1,0,0:0:0:0:
272,208,74493,1,8,0:0:0:0:
272,208,74731,1,8,0:0:0:0:
280,216,74969,1,0,0:0:0:0:
280,224,75207,1,0,0:0:0:0:
272,224,75327,1,0,0:0:0:0:
272,224,75446,1,8,0:0:0:0:
272,224,75565,1,0,0:0:0:0:
272,224,75803,1,8,0:0:0:0:
272,224,76041,1,8,0:0:0:0:
264,224,76398,1,0,0:0:0:0:
264,216,76636,1,0,0:0:0:0:
264,208,76874,1,8,0:0:0:0:
264,208,76993,1,0,0:0:0:0:
264,208,77112,1,8,0:0:0:0:
264,208,77231,1,8,0:0:0:0:
264,208,77350,1,8,0:0:0:0:
264,208,77469,1,0,0:0:0:0:
264,208,77707,1,8,0:0:0:0:
264,192,77946,1,8,0:0:0:0:
264,192,78184,1,0,0:0:0:0:
264,192,78303,1,8,0:0:0:0:
264,192,78541,1,8,0:0:0:0:
264,192,78779,1,0,0:0:0:0:
264,192,78898,1,0,0:0:0:0:
264,192,79017,1,8,0:0:0:0:
264,192,79136,1,8,0:0:0:0:
264,192,79255,1,0,0:0:0:0:
264,192,79374,1,8,0:0:0:0:
264,192,79612,1,0,0:0:0:0:
264,192,79850,1,8,0:0:0:0:
264,192,80088,1,8,0:0:0:0:
264,192,80207,1,0,0:0:0:0:
264,192,80446,1,8,0:0:0:0:
256,192,80684,1,0,0:0:0:0:
240,192,80922,1,0,0:0:0:0:
240,192,81041,1,0,0:0:0:0:
240,192,81160,1,8,0:0:0:0:
240,192,81279,1,0,0:0:0:0:
240,192,81517,1,0,0:0:0:0:
240,192,81755,1,8,0:0:0:0:
256,200,82112,1,0,0:0:0:0:
263,215,82469,1,0,0:0:0:0:
256,200,82588,1,8,0:0:0:0:
256,200,82827,1,8,0:0:0:0:
256,200,82946,1,8,0:0:0:0:
256,200,83065,1,8,0:0:0:0:
256,200,83223,1,0,0:0:0:0:
256,200,83382,1,8,0:0:0:0:
256,200,83541,1,8,0:0:0:0:
256,200,83700,1,8,0:0:0:0:
248,192,83858,1,0,0:0:0:0:
248,192,84017,1,0,0:0:0:0:
256,200,84493,1,8,0:0:0:0:
256,200,84612,1,0,0:0:0:0:
256,200,84731,1,8,0:0:0:0:
256,192,84850,1,8,0:0:0:0:
256,192,84969,1,0,0:0:0:0:
256,200,85088,1,0,0:0:0:0:
256,200,85327,1,0,0:0:0:0:
256,200,85565,1,8,0:0:0:0:
256,192,85803,1,0,0:0:0:0:
256,192,85922,1,0,0:0:0:0:
256,200,86160,1,8,0:0:0:0:
256,200,86398,1,8,0:0:0:0:
256,200,86517,1,0,0:0:0:0:
256,192,86636,1,0,0:0:0:0:
256,192,86755,1,0,0:0:0:0:
256,192,86874,1,8,0:0:0:0:
256,200,86993,1,0,0:0:0:0:
256,200,87231,1,8,0:0:0:0:
264,184,87469,1,8,0:0:0:0:
264,184,87707,1,0,0:0:0:0:
280,192,87827,1,0,0:0:0:0:
280,168,88065,1,8,0:0:0:0:
264,184,88303,1,0,0:0:0:0:
272,192,88541,1,8,0:0:0:0:
272,192,88660,1,0,0:0:0:0:
272,192,88779,1,0,0:0:0:0:
272,192,88898,1,8,0:0:0:0:
257,131,89136,1,0,0:0:0:0:
280,184,89374,1,8,0:0:0:0:
272,184,89612,1,8,0:0:0:0:
272,184,89731,1,0,0:0:0:0:
272,184,89969,1,0,0:0:0:0:
272,184,90207,1,8,0:0:0:0:
272,184,90327,1,0,0:0:0:0:
272,184,90446,1,8,0:0:0:0:
272,184,90565,1,8,0:0:0:0:
272,184,90684,1,8,0:0:0:0:
272,184,90803,1,0,0:0:0:0:
272,184,91041,1,8,0:0:0:0:
272,184,91279,1,0,0:0:0:0:
272,176,91636,1,0,0:0:0:0:
272,176,91874,1,8,0:0:0:0:
272,176,91993,1,0,0:0:0:0:
272,176,92112,1,8,0:0:0:0:
272,176,92231,1,8,0:0:0:0:
272,176,92350,1,0,0:0:0:0:
272,176,92469,1,0,0:0:0:0:
272,176,92588,1,8,0:0:0:0:
272,176,92707,1,0,0:0:0:0:
272,176,92946,1,8,0:0:0:0:
256,168,93184,1,8,0:0:0:0:
256,168,93422,1,0,0:0:0:0:
256,168,93541,1,0,0:0:0:0:
256,176,93779,1,8,0:0:0:0:
256,176,94017,1,8,0:0:0:0:
264,192,94255,1,8,0:0:0:0:
264,192,94374,1,0,0:0:0:0:
264,192,94493,1,8,0:0:0:0:
264,192,94731,1,0,0:0:0:0:
264,192,94850,1,8,0:0:0:0:
264,192,95088,1,8,0:0:0:0:
264,192,95327,1,0,0:0:0:0:
264,192,95446,1,8,0:0:0:0:
273,110,95565,1,8,0:0:0:0:
264,192,95684,1,0,0:0:0:0:
264,184,95922,1,8,0:0:0:0:
264,176,96160,1,8,0:0:0:0:
264,176,96279,1,0,0:0:0:0:
272,176,96398,1,8,0:0:0:0:
264,184,96517,1,8,0:0:0:0:
256,192,96755,1,0,0:0:0:0:
256,192,96993,1,8,0:0:0:0:
256,192,97231,1,0,0:0:0:0:
256,192,97350,1,0,0:0:0:0:
256,192,97588,1,0,0:0:0:0:
272,192,97707,1,0,0:0:0:0:
256,192,97827,1,8,0:0:0:0:
289,192,97946,1,8,0:0:0:0:
256,192,98065,1,8,0:0:0:0:
248,200,98184,1,0,0:0:0:0:
248,200,98303,1,8,0:0:0:0:
256,192,98461,1,0,0:0:0:0:
256,192,98620,1,8,0:0:0:0:
256,192,98779,1,8,0:0:0:0:
256,192,98938,1,8,0:0:0:0:
256,192,99096,1,0,0:0:0:0:
256,184,99255,1,0,0:0:0:0:
264,184,99612,1,8,0:0:0:0:
264,184,99731,1,0,0:0:0:0:
256,176,99969,1,8,0:0:0:0:
256,184,100207,1,0,0:0:0:0:
264,184,100565,1,8,0:0:0:0:
264,184,100684,1,0,0:0:0:0:
256,176,100922,1,8,0:0:0:0:
256,184,101160,1,0,0:0:0:0:
264,184,101517,1,8,0:0:0:0:
264,184,101636,1,0,0:0:0:0:
256,176,101874,1,8,0:0:0:0:
256,184,102112,1,0,0:0:0:0:
264,184,102469,1,8,0:0:0:0:
264,184,102588,1,0,0:0:0:0:
256,176,102827,1,8,0:0:0:0:
256,184,103065,1,0,0:0:0:0:
256,184,103422,1,0,0:0:0:0:
256,184,103541,1,0,0:0:0:0:
256,184,103779,1,0,0:0:0:0:
256,184,104017,1,0,0:0:0:0:
256,184,104374,1,0,0:0:0:0:
256,184,104493,1,0,0:0:0:0:
256,192,104731,1,0,0:0:0:0:
256,192,104969,1,0,0:0:0:0:
256,192,105327,1,0,0:0:0:0:
256,192,105684,1,0,0:0:0:0:
256,192,105922,1,0,0:0:0:0:
256,192,106279,1,0,0:0:0:0:
256,192,106636,1,0,0:0:0:0:
256,192,106874,1,0,0:0:0:0:
272,176,107350,1,8,0:0:0:0:
256,192,107827,1,0,0:0:0:0:
264,184,108303,1,8,0:0:0:0:
256,192,109017,1,0,0:0:0:0:
256,192,109255,1,0,0:0:0:0:
256,192,109493,1,8,0:0:0:0:
256,192,109731,1,8,0:0:0:0:
256,192,110088,1,0,0:0:0:0:
256,192,110207,1,0,0:0:0:0:
256,192,110446,1,0,0:0:0:0:
256,192,110684,1,8,0:0:0:0:
248,192,111160,1,0,0:0:0:0:
264,184,111636,1,0,0:0:0:0:
272,192,112112,1,8,0:0:0:0:
272,192,112588,1,8,0:0:0:0:
272,192,113065,1,0,0:0:0:0:
272,192,113541,1,8,0:0:0:0:
272,192,113779,1,0,0:0:0:0:
272,192,114017,1,8,0:0:0:0:
272,176,114255,1,0,0:0:0:0:
272,192,114493,1,0,0:0:0:0:
272,192,114969,1,8,0:0:0:0:
272,192,115446,1,0,0:0:0:0:
272,192,115922,1,8,0:0:0:0:
280,192,116636,1,8,0:0:0:0:
280,192,116874,1,0,0:0:0:0:
280,192,117112,1,0,0:0:0:0:
280,192,117350,1,8,0:0:0:0:
280,192,117588,1,8,0:0:0:0:
280,192,117827,1,0,0:0:0:0:
280,192,118065,1,0,0:0:0:0:
264,176,118303,1,8,0:0:0:0:
264,184,118779,1,0,0:0:0:0:
354,105,119255,1,0,0:0:0:0:
264,184,119731,1,0,0:0:0:0:
264,184,120207,1,8,0:0:0:0:
264,184,120684,1,0,0:0:0:0:
264,184,121160,1,8,0:0:0:0:
256,176,121517,1,0,0:0:0:0:
256,176,121636,1,0,0:0:0:0:
256,176,121874,1,0,0:0:0:0:
264,176,122112,1,0,0:0:0:0:
256,176,122588,1,8,0:0:0:0:
256,184,123065,1,0,0:0:0:0:
256,184,123541,1,8,0:0:0:0:
256,184,124017,1,0,0:0:0:0:
256,184,124255,1,8,0:0:0:0:
256,184,124493,1,8,0:0:0:0:
256,184,124731,1,0,0:0:0:0:
256,184,124969,1,8,0:0:0:0:
256,184,125327,1,0,0:0:0:0:
256,184,125446,1,0,0:0:0:0:
256,184,125684,1,0,0:0:0:0:
256,184,125922,1,8,0:0:0:0:
256,184,126398,1,8,0:0:0:0:
256,184,126874,1,0,0:0:0:0:
256,184,127350,1,8,0:0:0:0:
256,184,127827,1,8,0:0:0:0:
264,180,128065,1,0,0:0:0:0:
264,180,128541,1,0,0:0:0:0:
272,192,128779,1,8,0:0:0:0:
272,192,129136,1,0,0:0:0:0:
272,192,129255,1,8,0:0:0:0:
272,192,129493,1,0,0:0:0:0:
272,192,129731,1,0,0:0:0:0:
264,176,130088,1,0,0:0:0:0:
264,176,130207,1,8,0:0:0:0:
256,224,130446,1,0,0:0:0:0:
264,176,130684,1,0,0:0:0:0:
264,176,131041,1,0,0:0:0:0:
264,176,131160,1,8,0:0:0:0:
256,224,131398,1,0,0:0:0:0:
264,176,131636,1,0,0:0:0:0:
264,176,131874,1,0,0:0:0:0:
264,176,132112,1,8,0:0:0:0:
264,176,132350,1,8,0:0:0:0:
264,176,132588,1,8,0:0:0:0:
264,176,132946,1,8,0:0:0:0:
264,176,133065,1,0,0:0:0:0:
264,176,133303,1,0,0:0:0:0:
264,176,133541,1,0,0:0:0:0:
256,224,133898,1,0,0:0:0:0:
256,200,134017,1,8,0:0:0:0:
256,224,134255,1,0,0:0:0:0:
256,224,134493,1,0,0:0:0:0:
256,192,134850,1,8,0:0:0:0:
200,224,134969,1,0,0:0:0:0:
256,192,135446,12,0,137112,0:0:0:0:
256,192,137350,5,0,0:0:0:0:
256,192,137469,1,8,0:0:0:0:
264,184,137707,1,0,0:0:0:0:
264,184,137946,1,8,0:0:0:0:
272,192,138184,1,0,0:0:0:0:
272,184,138303,1,8,0:0:0:0:
272,184,138422,1,8,0:0:0:0:
272,192,138660,1,0,0:0:0:0:
272,192,138779,1,8,0:0:0:0:
208,248,139017,1,8,0:0:0:0:
272,184,139255,1,0,0:0:0:0:
272,192,139612,1,0,0:0:0:0:
272,192,139731,1,8,0:0:0:0:
272,184,139969,1,8,0:0:0:0:
272,184,140207,1,8,0:0:0:0:
272,184,140327,1,8,0:0:0:0:
272,192,140565,1,0,0:0:0:0:
272,192,140684,1,8,0:0:0:0:
138,165,140922,1,0,0:0:0:0:
264,184,141160,1,8,0:0:0:0:
272,184,141398,1,0,0:0:0:0:
272,184,141517,1,8,0:0:0:0:
272,184,141755,1,8,0:0:0:0:
272,184,141993,1,0,0:0:0:0:
272,184,142112,1,8,0:0:0:0:
272,184,142231,1,8,0:0:0:0:
272,184,142469,1,0,0:0:0:0:
272,192,142588,1,8,0:0:0:0:
232,248,142827,1,0,0:0:0:0:
280,192,143065,1,0,0:0:0:0:
280,192,143303,1,0,0:0:0:0:
280,192,143422,1,8,0:0:0:0:
280,192,143541,1,8,0:0:0:0:
280,192,143779,1,8,0:0:0:0:
280,192,144017,1,12,0:0:0:0:
280,192,144493,1,12,0:0:0:0:
256,192,144969,5,0,0:0:0:0:
256,192,145088,1,8,0:0:0:0:
264,184,145327,1,0,0:0:0:0:
264,184,145565,1,8,0:0:0:0:
272,192,145803,1,0,0:0:0:0:
272,184,145922,1,8,0:0:0:0:
272,184,146041,1,8,0:0:0:0:
272,192,146279,1,0,0:0:0:0:
272,192,146398,1,8,0:0:0:0:
224,240,146636,1,0,0:0:0:0:
272,184,146874,1,0,0:0:0:0:
272,192,147231,1,0,0:0:0:0:
272,192,147350,1,8,0:0:0:0:
272,184,147588,1,8,0:0:0:0:
272,184,147827,1,8,0:0:0:0:
272,184,147946,1,8,0:0:0:0:
272,192,148184,1,0,0:0:0:0:
272,192,148303,1,8,0:0:0:0:
123,154,148541,1,0,0:0:0:0:
264,184,148779,1,8,0:0:0:0:
272,184,149017,1,0,0:0:0:0:
272,184,149136,1,8,0:0:0:0:
272,184,149374,1,8,0:0:0:0:
272,184,149612,1,0,0:0:0:0:
272,184,149731,1,8,0:0:0:0:
272,184,149850,1,8,0:0:0:0:
272,184,150088,1,0,0:0:0:0:
272,192,150207,1,8,0:0:0:0:
272,232,150446,1,0,0:0:0:0:
280,192,150684,1,0,0:0:0:0:
280,192,150922,1,0,0:0:0:0:
280,192,151041,1,8,0:0:0:0:
280,192,151160,1,8,0:0:0:0:
280,184,151279,1,0,0:0:0:0:
280,192,151398,1,8,0:0:0:0:
256,184,151636,1,8,0:0:0:0:
248,176,151795,1,0,0:0:0:0:
256,184,151954,1,8,0:0:0:0:
248,176,152112,1,8,0:0:0:0:
248,176,152271,1,0,0:0:0:0:
248,176,152430,1,0,0:0:0:0:
248,176,152588,1,0,0:0:0:0:
248,176,152827,1,0,0:0:0:0:
248,176,152946,1,0,0:0:0:0:
248,176,153065,1,8,0:0:0:0:
248,176,153184,1,0,0:0:0:0:
248,176,153303,1,8,0:0:0:0:
248,176,153422,1,8,0:0:0:0:
248,176,153541,1,8,0:0:0:0:
248,176,153660,1,0,0:0:0:0:
248,176,153898,1,8,0:0:0:0:
240,160,154136,1,8,0:0:0:0:
240,160,154374,1,0,0:0:0:0:
240,160,154493,1,0,0:0:0:0:
240,160,154731,1,8,0:0:0:0:
240,160,154969,1,8,0:0:0:0:
224,168,155088,1,0,0:0:0:0:
232,160,155327,1,0,0:0:0:0:
232,160,155446,1,8,0:0:0:0:
232,160,155565,1,0,0:0:0:0:
232,160,155803,1,8,0:0:0:0:
240,160,156041,1,8,0:0:0:0:
232,264,156279,1,8,0:0:0:0:
232,264,156398,1,0,0:0:0:0:
224,264,156636,1,8,0:0:0:0:
248,176,156874,1,8,0:0:0:0:
248,176,156993,1,0,0:0:0:0:
248,184,157112,1,8,0:0:0:0:
248,184,157231,1,8,0:0:0:0:
248,184,157350,1,0,0:0:0:0:
240,176,157588,1,0,0:0:0:0:
248,192,157707,1,8,0:0:0:0:
347,105,157946,1,8,0:0:0:0:
240,184,158065,1,0,0:0:0:0:
248,192,158184,1,0,0:0:0:0:
240,184,158303,1,8,0:0:0:0:
272,208,158541,1,0,0:0:0:0:
272,208,158779,1,8,0:0:0:0:
264,192,158898,1,0,0:0:0:0:
264,192,159017,1,8,0:0:0:0:
264,192,159136,1,8,0:0:0:0:
264,192,159255,1,8,0:0:0:0:
264,184,159374,1,0,0:0:0:0:
264,184,159612,1,8,0:0:0:0:
264,184,159850,1,8,0:0:0:0:
264,184,160088,1,0,0:0:0:0:
264,184,160207,1,0,0:0:0:0:
256,192,160565,1,0,0:0:0:0:
256,192,160684,1,8,0:0:0:0:
264,184,160803,1,0,0:0:0:0:
264,184,160922,1,8,0:0:0:0:
264,184,161041,1,8,0:0:0:0:
264,184,161160,1,8,0:0:0:0:
264,184,161279,1,0,0:0:0:0:
264,184,161517,1,8,0:0:0:0:
264,184,161755,1,8,0:0:0:0:
264,184,161993,1,0,0:0:0:0:
264,184,162112,1,8,0:0:0:0:
264,184,162231,1,0,0:0:0:0:
264,184,162350,1,8,0:0:0:0:
264,184,162469,1,0,0:0:0:0:
264,184,162588,1,8,0:0:0:0:
264,184,162707,1,8,0:0:0:0:
264,184,162827,1,0,0:0:0:0:
264,184,162946,1,0,0:0:0:0:
264,184,163065,1,8,0:0:0:0:
264,184,163184,1,0,0:0:0:0:
264,184,163422,1,8,0:0:0:0:
264,184,163660,1,8,0:0:0:0:
272,176,163898,1,0,0:0:0:0:
272,176,164017,1,8,0:0:0:0:
272,184,164255,1,0,0:0:0:0:
272,184,164374,1,0,0:0:0:0:
272,184,164493,1,8,0:0:0:0:
272,184,164612,1,8,0:0:0:0:
272,184,164731,1,0,0:0:0:0:
272,184,164850,1,8,0:0:0:0:
272,184,164969,1,8,0:0:0:0:
272,184,165088,1,0,0:0:0:0:
272,184,165327,1,8,0:0:0:0:
272,184,165446,1,0,0:0:0:0:
272,184,165565,1,8,0:0:0:0:
272,184,165803,1,0,0:0:0:0:
272,184,165922,1,8,0:0:0:0:
256,168,166160,1,8,0:0:0:0:
256,168,166398,1,0,0:0:0:0:
272,184,166517,1,8,0:0:0:0:
256,168,166636,1,8,0:0:0:0:
256,168,166755,1,0,0:0:0:0:
256,168,166874,1,8,0:0:0:0:
256,168,167033,1,0,0:0:0:0:
256,168,167192,1,8,0:0:0:0:
256,168,167350,1,8,0:0:0:0:
248,160,167509,1,0,0:0:0:0:
248,160,167668,1,0,0:0:0:0:
248,160,167827,1,0,0:0:0:0:
240,144,168184,1,0,0:0:0:0:
248,152,168303,1,8,0:0:0:0:
248,152,168422,1,8,0:0:0:0:
240,144,168541,1,0,0:0:0:0:
240,144,168660,1,0,0:0:0:0:
248,152,168779,1,8,0:0:0:0:
240,144,168898,1,0,0:0:0:0:
240,144,169136,1,8,0:0:0:0:
248,144,169374,1,8,0:0:0:0:
248,144,169612,1,0,0:0:0:0:
248,144,169731,1,8,0:0:0:0:
248,144,169969,1,8,0:0:0:0:
264,184,170207,1,0,0:0:0:0:
264,184,170327,1,0,0:0:0:0:
264,184,170446,1,8,0:0:0:0:
264,184,170565,1,8,0:0:0:0:
264,184,170684,1,8,0:0:0:0:
264,184,170803,1,0,0:0:0:0:
264,184,171041,1,8,0:0:0:0:
240,256,171279,1,8,0:0:0:0:
264,184,171517,1,0,0:0:0:0:
240,256,171636,1,8,0:0:0:0:
264,184,171874,1,8,0:0:0:0:
264,184,172112,1,0,0:0:0:0:
258,176,172350,1,8,0:0:0:0:
258,176,172469,1,0,0:0:0:0:
258,176,172588,1,0,0:0:0:0:
258,176,172707,1,8,0:0:0:0:
248,200,172946,1,0,0:0:0:0:
232,208,173184,1,8,0:0:0:0:
258,176,173422,1,0,0:0:0:0:
258,176,173541,1,8,0:0:0:0:
258,176,173779,1,0,0:0:0:0:
258,176,174017,1,8,0:0:0:0:
258,176,174136,1,8,0:0:0:0:
258,176,174255,1,0,0:0:0:0:
258,176,174374,1,0,0:0:0:0:
258,176,174493,1,8,0:0:0:0:
258,176,174612,1,0,0:0:0:0:
258,176,174850,1,8,0:0:0:0:
258,176,175088,1,0,0:0:0:0:
240,184,175327,1,0,0:0:0:0:
240,184,175446,1,0,0:0:0:0:
240,184,175803,1,0,0:0:0:0:
240,184,175922,1,8,0:0:0:0:
240,184,176041,1,8,0:0:0:0:
240,184,176160,1,0,0:0:0:0:
240,184,176279,1,0,0:0:0:0:
240,184,176398,1,8,0:0:0:0:
240,184,176517,1,0,0:0:0:0:
240,184,176755,1,8,0:0:0:0:
240,176,176993,1,0,0:0:0:0:
240,176,177231,1,0,0:0:0:0:
240,176,177350,1,8,0:0:0:0:
248,168,177588,1,0,0:0:0:0:
248,168,177827,1,8,0:0:0:0:
248,168,178065,1,0,0:0:0:0:
248,168,178184,1,0,0:0:0:0:
248,168,178303,1,8,0:0:0:0:
248,168,178422,1,0,0:0:0:0:
248,168,178660,1,8,0:0:0:0:
248,168,178898,1,8,0:0:0:0:
248,168,179136,1,0,0:0:0:0:
248,168,179255,1,0,0:0:0:0:
248,168,179493,1,8,0:0:0:0:
264,184,179731,1,0,0:0:0:0:
248,176,179969,1,0,0:0:0:0:
248,176,180088,1,0,0:0:0:0:
248,176,180207,1,8,0:0:0:0:
248,176,180327,1,0,0:0:0:0:
248,176,180565,1,8,0:0:0:0:
256,208,180803,1,8,0:0:0:0:
248,176,180922,1,0,0:0:0:0:
256,184,181160,1,0,0:0:0:0:
256,184,181517,1,0,0:0:0:0:
256,184,181636,1,8,0:0:0:0:
240,184,181755,1,8,0:0:0:0:
256,192,181874,1,8,0:0:0:0:
248,200,181993,1,0,0:0:0:0:
248,200,182112,1,8,0:0:0:0:
256,192,182271,1,0,0:0:0:0:
256,192,182430,1,8,0:0:0:0:
256,192,182588,1,8,0:0:0:0:
256,192,182747,1,8,0:0:0:0:
256,192,182906,1,0,0:0:0:0:
256,184,183065,1,0,0:0:0:0:
256,192,183303,1,8,0:0:0:0:
256,192,183422,1,0,0:0:0:0:
256,192,183541,1,8,0:0:0:0:
256,192,183660,1,8,0:0:0:0:
256,192,183779,1,0,0:0:0:0:
249,179,183898,1,8,0:0:0:0:
249,179,184017,1,0,0:0:0:0:
256,184,184136,1,8,0:0:0:0:
240,184,184374,1,0,0:0:0:0:
256,192,184493,1,8,0:0:0:0:
248,200,184731,1,8,0:0:0:0:
240,192,184850,1,0,0:0:0:0:
240,192,184969,1,0,0:0:0:0:
240,192,185088,1,8,0:0:0:0:
240,192,185327,1,8,0:0:0:0:
239,189,185446,1,8,0:0:0:0:
257,189,185684,1,8,0:0:0:0:
240,192,185922,1,8,0:0:0:0:
257,189,186041,1,0,0:0:0:0:
257,189,186160,1,0,0:0:0:0:
257,189,186279,1,8,0:0:0:0:
257,189,186398,1,8,0:0:0:0:
257,189,186636,1,0,0:0:0:0:
257,189,186874,1,8,0:0:0:0:
257,189,186993,1,0,0:0:0:0:
257,189,187112,1,8,0:0:0:0:
257,189,187231,1,8,0:0:0:0:
257,189,187350,1,0,0:0:0:0:
257,189,187469,1,8,0:0:0:0:
257,189,187588,1,0,0:0:0:0:
257,189,187707,1,0,0:0:0:0:
257,189,187827,1,8,0:0:0:0:
245,200,188065,1,0,0:0:0:0:
245,200,188184,1,8,0:0:0:0:
245,200,188303,1,8,0:0:0:0:
245,200,188541,1,8,0:0:0:0:
245,200,188660,1,0,0:0:0:0:
245,200,188779,1,0,0:0:0:0:
245,200,189017,1,0,0:0:0:0:
245,200,189136,1,8,0:0:0:0:
245,200,189255,1,0,0:0:0:0:
245,200,189493,1,0,0:0:0:0:
245,200,189731,1,12,0:0:0:0:
235,217,189969,1,0,0:0:0:0:
245,200,190207,1,12,0:0:0:0:
235,217,190446,1,0,0:0:0:0:
256,193,190684,1,8,0:0:0:0:
256,193,190803,1,8,0:0:0:0:
256,193,191041,1,0,0:0:0:0:
256,193,191160,1,8,0:0:0:0:
260,189,191279,1,8,0:0:0:0:
260,189,191398,1,0,0:0:0:0:
260,189,191517,1,0,0:0:0:0:
260,189,191636,1,8,0:0:0:0:
260,189,191755,1,8,0:0:0:0:
260,189,191993,1,8,0:0:0:0:
260,189,192112,1,8,0:0:0:0:
260,189,192350,1,8,0:0:0:0:
248,192,192469,1,0,0:0:0:0:
260,189,192588,1,0,0:0:0:0:
260,189,192707,1,8,0:0:0:0:
260,189,192946,1,8,0:0:0:0:
260,189,193065,1,8,0:0:0:0:
260,189,193184,1,0,0:0:0:0:
260,189,193303,1,8,0:0:0:0:
260,189,193541,1,8,0:0:0:0:
260,189,193660,1,8,0:0:0:0:
260,189,193779,1,0,0:0:0:0:
240,224,193898,1,8,0:0:0:0:
260,189,194017,1,8,0:0:0:0:
260,189,194136,1,0,0:0:0:0:
260,189,194255,1,0,0:0:0:0:
260,189,194493,1,8,0:0:0:0:
260,189,194731,1,8,0:0:0:0:
260,189,194850,1,8,0:0:0:0:
260,189,194969,1,0,0:0:0:0:
260,189,195088,1,8,0:0:0:0:
260,189,195207,1,0,0:0:0:0:
260,189,195327,1,8,0:0:0:0:
260,189,195446,1,8,0:0:0:0:
260,189,195565,1,0,0:0:0:0:
260,189,195684,1,0,0:0:0:0:
260,189,195803,1,8,0:0:0:0:
260,189,195922,1,8,0:0:0:0:
260,189,196160,1,0,0:0:0:0:
240,240,196279,1,0,0:0:0:0:
260,189,196398,1,0,0:0:0:0:
260,189,196636,1,0,0:0:0:0:
260,189,196755,1,8,0:0:0:0:
260,189,196874,1,8,0:0:0:0:
260,189,196993,1,0,0:0:0:0:
260,189,197112,1,8,0:0:0:0:
260,189,197231,1,0,0:0:0:0:
260,189,197350,1,8,0:0:0:0:
260,189,197509,1,0,0:0:0:0:
260,189,197668,1,8,0:0:0:0:
260,189,197827,1,8,0:0:0:0:
260,189,197985,1,0,0:0:0:0:
260,189,198144,1,0,0:0:0:0:
256,192,198303,12,0,201636,0:0:0:0:
