osu file format v14

[General]
AudioFilename: audio.mp3
AudioLeadIn: 0
PreviewTime: 137281
Countdown: 1
SampleSet: Normal
StackLeniency: 0.7
Mode: 1
LetterboxInBreaks: 0
WidescreenStoryboard: 1

[Editor]
DistanceSpacing: 1.8
BeatDivisor: 2
GridSize: 32
TimelineZoom: 1.1

[Metadata]
Title:212 (feat. Lazy Jay)
TitleUnicode:212 (feat. Lazy Jay)
Artist:Azealia Banks
ArtistUnicode:Azealia Banks
Creator:Ney
Version:Fiery's Futsuu
Source:
Tags:broke with expensive taste 1991 ep english hip hop house rap miss bank$ basto! jef martens fieryrage vulkin
BeatmapID:1620615
BeatmapSetID:716931

[Difficulty]
HPDrainRate:7
CircleSize:2
OverallDifficulty:4
ApproachRate:5
SliderMultiplier:1.4
SliderTickRate:1

[Events]
//Background and Video events
0,0,"ab.png",0,50
//Break Periods
//Storyboard Layer 0 (Background)
//Storyboard Layer 1 (Fail)
//Storyboard Layer 2 (Pass)
//Storyboard Layer 3 (Foreground)
//Storyboard Layer 4 (Overlay)
//Storyboard Sound Samples

[TimingPoints]
208,476.190476190476,4,1,0,55,1,0
208,-100,4,1,0,55,0,0
7827,-100,4,1,0,65,0,0
15446,-100,4,1,0,75,0,0
46160,-100,4,1,0,65,0,0
48065,-100,4,1,0,55,0,0
49731,-100,4,1,0,50,0,0
53541,-100,4,1,0,70,0,0
99255,-100,4,1,0,65,0,0
103065,-100,4,1,0,60,0,0
104969,-100,4,1,0,55,0,0
137350,-100,4,1,0,75,0,0
183065,-100,4,1,0,80,0,1
198303,-100,4,1,0,80,0,0
198422,-100,4,1,0,70,0,0
198541,-100,4,1,0,70,0,0
200207,-100,4,1,0,50,0,0

[HitObjects]
96,160,208,5,0,0:0:0:0:
416,160,684,1,8,0:0:0:0:
96,160,1160,1,0,0:0:0:0:
96,160,2112,1,0,0:0:0:0:
416,160,2588,1,8,0:0:0:0:
96,160,3065,1,0,0:0:0:0:
96,160,4017,1,8,0:0:0:0:
416,160,4493,1,0,0:0:0:0:
96,160,4969,1,8,0:0:0:0:
96,160,5922,1,8,0:0:0:0:
416,160,6398,1,0,0:0:0:0:
96,160,6874,1,8,0:0:0:0:
96,160,7827,1,0,0:0:0:0:
416,160,8303,1,8,0:0:0:0:
96,160,8541,1,8,0:0:0:0:
96,160,8779,1,0,0:0:0:0:
416,160,9255,1,8,0:0:0:0:
96,160,9731,1,0,0:0:0:0:
416,160,10207,1,8,0:0:0:0:
96,160,10684,1,0,0:0:0:0:
96,160,11636,1,8,0:0:0:0:
416,160,12112,1,0,0:0:0:0:
96,160,12350,1,0,0:0:0:0:
96,160,12588,1,8,0:0:0:0:
416,160,13065,1,8,0:0:0:0:
96,160,13541,1,0,0:0:0:0:
416,160,14017,1,8,0:0:0:0:
96,160,14493,1,0,0:0:0:0:
96,32,15446,1,0,0:0:0:0:
416,160,15922,1,8,0:0:0:0:
96,160,16398,1,0,0:0:0:0:
416,160,16874,1,8,0:0:0:0:
94,37,17112,1,8,0:0:0:0:
218,75,17350,1,0,0:0:0:0:
416,160,17827,1,8,0:0:0:0:
416,160,18303,1,0,0:0:0:0:
206,184,18779,1,8,0:0:0:0:
206,184,19017,1,0,0:0:0:0:
96,160,19255,1,8,0:0:0:0:
416,160,19731,1,8,0:0:0:0:
96,160,20207,1,0,0:0:0:0:
416,160,20684,1,8,0:0:0:0:
416,160,20922,1,8,0:0:0:0:
214,106,21160,1,0,0:0:0:0:
416,160,21636,1,0,0:0:0:0:
96,160,22112,1,8,0:0:0:0:
96,160,23065,1,0,0:0:0:0:
416,160,23541,1,8,0:0:0:0:
180,43,24017,1,0,0:0:0:0:
416,160,24493,1,0,0:0:0:0:
416,160,24731,1,8,0:0:0:0:
96,160,24969,1,0,0:0:0:0:
416,160,25446,1,8,0:0:0:0:
188,66,25922,1,0,0:0:0:0:
250,185,26398,1,8,0:0:0:0:
184,226,26636,1,8,0:0:0:0:
96,160,26874,1,8,0:0:0:0:
416,160,27350,1,8,0:0:0:0:
96,160,27827,1,8,0:0:0:0:
122,40,28065,1,0,0:0:0:0:
416,160,28303,1,8,0:0:0:0:
96,160,28779,1,0,0:0:0:0:
416,160,29255,1,8,0:0:0:0:
221,156,29731,1,0,0:0:0:0:
96,160,30684,1,8,0:0:0:0:
416,160,31160,1,8,0:0:0:0:
96,160,31636,1,0,0:0:0:0:
416,160,32112,1,0,0:0:0:0:
96,160,32350,1,8,0:0:0:0:
96,160,32588,1,8,0:0:0:0:
204,52,33065,1,8,0:0:0:0:
96,160,33541,1,0,0:0:0:0:
176,122,34017,1,8,0:0:0:0:
80,72,34255,1,8,0:0:0:0:
241,165,34493,1,0,0:0:0:0:
416,160,34969,1,8,0:0:0:0:
96,160,35446,1,0,0:0:0:0:
96,160,35684,1,0,0:0:0:0:
416,160,35922,1,8,0:0:0:0:
96,160,36398,1,8,0:0:0:0:
416,160,36874,1,8,0:0:0:0:
250,97,37350,1,0,0:0:0:0:
167,188,38303,1,0,0:0:0:0:
416,160,38779,1,8,0:0:0:0:
96,160,39255,1,0,0:0:0:0:
416,160,39731,1,8,0:0:0:0:
96,160,39969,1,8,0:0:0:0:
194,51,40207,1,0,0:0:0:0:
106,64,40684,1,8,0:0:0:0:
96,160,41160,1,8,0:0:0:0:
180,158,41636,1,0,0:0:0:0:
180,158,41874,1,8,0:0:0:0:
235,113,42112,1,0,0:0:0:0:
416,160,42588,1,8,0:0:0:0:
96,160,43065,1,0,0:0:0:0:
416,160,43541,1,8,0:0:0:0:
96,160,43779,1,8,0:0:0:0:
221,201,44017,1,0,0:0:0:0:
416,160,44493,1,8,0:0:0:0:
96,160,44731,1,0,0:0:0:0:
96,160,44969,1,8,0:0:0:0:
416,160,45446,1,0,0:0:0:0:
96,160,45922,1,12,0:0:0:0:
207,88,46874,1,0,0:0:0:0:
416,160,47350,1,8,0:0:0:0:
96,160,47827,1,0,0:0:0:0:
182,47,48779,1,0,0:0:0:0:
416,160,49255,1,8,0:0:0:0:
96,160,49731,1,0,0:0:0:0:
189,105,50684,1,0,0:0:0:0:
416,160,51160,1,8,0:0:0:0:
166,44,51636,1,0,0:0:0:0:
257,60,52588,1,0,0:0:0:0:
96,160,53541,1,4,0:0:0:0:
416,160,54017,1,8,0:0:0:0:
96,160,54493,1,8,0:0:0:0:
192,34,54731,1,0,0:0:0:0:
416,160,54969,1,8,0:0:0:0:
70,76,55446,1,0,0:0:0:0:
416,160,55922,1,8,0:0:0:0:
96,160,56398,1,0,0:0:0:0:
96,160,57350,1,0,0:0:0:0:
416,160,57827,1,8,0:0:0:0:
184,67,58303,1,0,0:0:0:0:
184,67,58541,1,0,0:0:0:0:
416,160,58779,1,8,0:0:0:0:
232,153,59255,1,0,0:0:0:0:
416,160,59731,1,8,0:0:0:0:
96,160,60207,1,0,0:0:0:0:
96,160,61160,1,0,0:0:0:0:
416,160,61636,1,8,0:0:0:0:
96,160,62112,1,0,0:0:0:0:
218,82,62350,1,8,0:0:0:0:
416,160,62588,1,0,0:0:0:0:
159,48,63065,1,0,0:0:0:0:
416,160,63541,1,8,0:0:0:0:
96,160,64017,1,0,0:0:0:0:
96,160,64969,1,0,0:0:0:0:
416,160,65446,1,8,0:0:0:0:
96,160,65922,1,0,0:0:0:0:
96,160,66160,1,8,0:0:0:0:
416,160,66398,1,8,0:0:0:0:
201,89,66874,1,0,0:0:0:0:
416,160,67350,1,8,0:0:0:0:
96,160,67827,1,8,0:0:0:0:
96,160,68779,1,4,0:0:0:0:
96,160,69731,1,8,0:0:0:0:
96,160,69969,1,0,0:0:0:0:
416,160,70207,1,8,0:0:0:0:
185,197,70684,1,0,0:0:0:0:
416,160,71160,1,8,0:0:0:0:
96,160,71636,1,0,0:0:0:0:
204,71,71874,1,8,0:0:0:0:
416,160,72112,1,0,0:0:0:0:
96,160,72588,1,0,0:0:0:0:
416,160,73065,1,8,0:0:0:0:
96,160,73541,1,0,0:0:0:0:
192,83,73779,1,8,0:0:0:0:
416,160,74017,1,8,0:0:0:0:
235,205,74493,1,0,0:0:0:0:
94,158,75446,1,8,0:0:0:0:
93,45,75922,1,8,0:0:0:0:
94,158,76398,1,0,0:0:0:0:
416,160,76874,1,8,0:0:0:0:
94,158,77350,1,0,0:0:0:0:
172,236,77588,1,0,0:0:0:0:
416,160,77827,1,8,0:0:0:0:
199,38,78303,1,0,0:0:0:0:
416,160,78779,1,8,0:0:0:0:
97,158,79255,1,8,0:0:0:0:
223,68,79493,1,0,0:0:0:0:
416,160,79731,1,8,0:0:0:0:
97,158,80207,1,0,0:0:0:0:
223,64,80684,1,8,0:0:0:0:
97,158,81160,1,0,0:0:0:0:
131,44,81398,1,0,0:0:0:0:
416,160,81636,1,8,0:0:0:0:
227,108,82112,1,0,0:0:0:0:
416,160,82588,1,8,0:0:0:0:
98,159,83065,1,8,0:0:0:0:
98,159,84017,1,0,0:0:0:0:
416,160,84493,1,8,0:0:0:0:
98,159,84969,1,0,0:0:0:0:
98,159,85207,1,8,0:0:0:0:
416,160,85446,1,8,0:0:0:0:
178,52,85922,1,0,0:0:0:0:
416,160,86398,1,8,0:0:0:0:
98,159,86874,1,8,0:0:0:0:
220,81,87112,1,0,0:0:0:0:
416,160,87350,1,8,0:0:0:0:
98,159,87827,1,0,0:0:0:0:
416,160,88303,1,8,0:0:0:0:
98,159,88779,1,0,0:0:0:0:
98,159,89017,1,0,0:0:0:0:
416,160,89255,1,8,0:0:0:0:
118,86,89731,1,0,0:0:0:0:
416,160,90207,1,8,0:0:0:0:
98,159,90684,1,8,0:0:0:0:
98,159,91636,1,0,0:0:0:0:
416,160,92112,1,8,0:0:0:0:
98,159,92350,1,0,0:0:0:0:
98,159,92588,1,8,0:0:0:0:
416,160,93065,1,8,0:0:0:0:
210,83,93541,1,0,0:0:0:0:
416,160,94017,1,8,0:0:0:0:
98,159,94493,1,8,0:0:0:0:
98,159,94731,1,8,0:0:0:0:
416,160,94969,1,8,0:0:0:0:
98,159,95446,1,0,0:0:0:0:
416,160,95922,1,8,0:0:0:0:
98,159,96398,1,0,0:0:0:0:
169,228,96636,1,0,0:0:0:0:
416,160,96874,1,8,0:0:0:0:
98,159,97350,1,0,0:0:0:0:
194,43,97827,1,8,0:0:0:0:
171,180,98303,1,8,0:0:0:0:
155,213,99255,1,0,0:0:0:0:
416,160,99731,1,8,0:0:0:0:
98,159,100207,1,0,0:0:0:0:
416,160,101160,1,0,0:0:0:0:
98,159,101636,1,8,0:0:0:0:
416,160,102112,1,0,0:0:0:0:
416,160,103065,1,8,0:0:0:0:
192,74,104017,1,8,0:0:0:0:
416,160,104969,1,0,0:0:0:0:
416,160,105922,1,0,0:0:0:0:
98,159,106874,1,8,0:0:0:0:
416,160,107350,1,0,0:0:0:0:
98,159,107827,1,8,0:0:0:0:
416,160,108303,1,0,0:0:0:0:
416,160,109255,1,0,0:0:0:0:
98,159,109731,1,8,0:0:0:0:
416,160,110207,1,8,0:0:0:0:
98,159,110684,1,0,0:0:0:0:
416,160,111160,1,8,0:0:0:0:
416,160,112112,1,8,0:0:0:0:
98,159,112588,1,8,0:0:0:0:
176,96,113541,1,8,0:0:0:0:
416,160,114017,1,0,0:0:0:0:
82,213,114493,1,0,0:0:0:0:
416,160,114969,1,8,0:0:0:0:
98,159,115446,1,0,0:0:0:0:
416,160,115922,1,8,0:0:0:0:
416,160,116874,1,8,0:0:0:0:
98,159,117350,1,0,0:0:0:0:
416,160,117827,1,0,0:0:0:0:
98,159,118303,1,8,0:0:0:0:
416,160,118779,1,8,0:0:0:0:
98,159,119731,1,0,0:0:0:0:
416,160,120207,1,8,0:0:0:0:
416,160,121160,1,8,0:0:0:0:
141,194,122112,1,0,0:0:0:0:
416,160,122588,1,8,0:0:0:0:
98,159,123065,1,0,0:0:0:0:
416,160,123541,1,8,0:0:0:0:
416,160,124493,1,8,0:0:0:0:
98,159,124969,1,8,0:0:0:0:
416,160,125446,1,0,0:0:0:0:
98,159,125922,1,8,0:0:0:0:
416,160,126398,1,8,0:0:0:0:
416,160,127350,1,8,0:0:0:0:
99,159,127827,1,0,0:0:0:0:
99,159,128779,1,8,0:0:0:0:
416,160,129255,1,0,0:0:0:0:
186,226,129731,1,0,0:0:0:0:
416,160,130207,1,8,0:0:0:0:
99,159,130684,1,0,0:0:0:0:
416,160,131160,1,8,0:0:0:0:
416,160,132112,1,0,0:0:0:0:
99,159,132588,1,8,0:0:0:0:
416,160,133065,1,8,0:0:0:0:
181,217,133541,1,0,0:0:0:0:
416,160,134017,1,8,0:0:0:0:
416,160,134969,1,8,0:0:0:0:
162,49,135446,1,0,0:0:0:0:
99,159,136398,1,8,0:0:0:0:
99,159,137350,1,4,0:0:0:0:
416,160,137827,1,8,0:0:0:0:
116,174,138303,1,8,0:0:0:0:
199,54,138541,1,0,0:0:0:0:
416,160,138779,1,8,0:0:0:0:
134,67,139255,1,0,0:0:0:0:
416,160,139731,1,8,0:0:0:0:
103,152,140207,1,8,0:0:0:0:
103,152,140446,1,8,0:0:0:0:
416,160,140684,1,8,0:0:0:0:
103,152,141160,1,0,0:0:0:0:
416,160,141636,1,8,0:0:0:0:
103,152,142112,1,8,0:0:0:0:
187,89,142350,1,0,0:0:0:0:
416,160,142588,1,8,0:0:0:0:
219,202,143541,1,0,0:0:0:0:
109,158,144017,1,8,0:0:0:0:
144,65,144493,1,8,0:0:0:0:
90,162,144969,1,0,0:0:0:0:
416,160,145446,1,8,0:0:0:0:
90,162,145922,1,0,0:0:0:0:
90,162,146160,1,0,0:0:0:0:
416,160,146398,1,8,0:0:0:0:
195,85,146874,1,0,0:0:0:0:
416,160,147350,1,8,0:0:0:0:
94,157,147827,1,8,0:0:0:0:
94,157,148065,1,0,0:0:0:0:
416,160,148303,1,8,0:0:0:0:
94,157,148779,1,0,0:0:0:0:
416,160,149255,1,8,0:0:0:0:
94,157,149731,1,0,0:0:0:0:
94,157,149969,1,0,0:0:0:0:
416,160,150207,1,8,0:0:0:0:
218,66,150684,1,0,0:0:0:0:
416,160,151160,1,8,0:0:0:0:
94,157,151636,1,8,0:0:0:0:
86,169,152588,1,0,0:0:0:0:
416,160,153065,1,8,0:0:0:0:
86,169,153541,1,8,0:0:0:0:
86,169,153779,1,0,0:0:0:0:
416,160,154017,1,8,0:0:0:0:
176,63,154493,1,0,0:0:0:0:
416,160,154969,1,8,0:0:0:0:
86,169,155446,1,0,0:0:0:0:
86,169,155684,1,8,0:0:0:0:
416,160,155922,1,8,0:0:0:0:
86,169,156398,1,0,0:0:0:0:
416,160,156874,1,8,0:0:0:0:
214,210,157350,1,0,0:0:0:0:
227,62,157588,1,0,0:0:0:0:
416,160,157827,1,8,0:0:0:0:
86,169,158303,1,0,0:0:0:0:
416,160,158779,1,8,0:0:0:0:
214,210,159255,1,0,0:0:0:0:
84,169,160207,1,0,0:0:0:0:
224,108,160684,1,8,0:0:0:0:
91,168,161160,1,0,0:0:0:0:
174,64,161398,1,8,0:0:0:0:
416,160,161636,1,0,0:0:0:0:
215,225,162112,1,0,0:0:0:0:
416,160,162588,1,8,0:0:0:0:
91,168,163065,1,0,0:0:0:0:
91,168,163303,1,8,0:0:0:0:
416,160,163541,1,8,0:0:0:0:
91,168,164017,1,0,0:0:0:0:
416,160,164493,1,8,0:0:0:0:
91,168,164969,1,0,0:0:0:0:
174,39,165207,1,8,0:0:0:0:
416,160,165446,1,8,0:0:0:0:
241,213,165922,1,0,0:0:0:0:
416,160,166398,1,8,0:0:0:0:
91,168,166874,1,8,0:0:0:0:
219,129,167827,1,0,0:0:0:0:
219,129,168303,1,8,0:0:0:0:
203,227,168779,1,8,0:0:0:0:
116,174,169017,1,0,0:0:0:0:
416,160,169255,1,8,0:0:0:0:
216,227,169731,1,0,0:0:0:0:
416,160,170207,1,8,0:0:0:0:
116,174,170684,1,0,0:0:0:0:
116,174,170922,1,0,0:0:0:0:
416,160,171160,1,8,0:0:0:0:
116,174,171636,1,0,0:0:0:0:
416,160,172112,1,8,0:0:0:0:
116,174,172588,1,8,0:0:0:0:
209,227,172827,1,8,0:0:0:0:
416,160,173065,1,0,0:0:0:0:
176,246,173541,1,8,0:0:0:0:
416,160,174017,1,8,0:0:0:0:
202,65,174493,1,8,0:0:0:0:
116,174,175446,1,0,0:0:0:0:
156,51,175922,1,8,0:0:0:0:
116,174,176398,1,0,0:0:0:0:
249,57,176636,1,0,0:0:0:0:
416,160,176874,1,8,0:0:0:0:
243,271,177350,1,0,0:0:0:0:
416,160,177827,1,8,0:0:0:0:
116,174,178303,1,8,0:0:0:0:
116,174,178541,1,0,0:0:0:0:
416,160,178779,1,8,0:0:0:0:
116,174,179255,1,0,0:0:0:0:
416,160,179731,1,8,0:0:0:0:
116,174,180207,1,0,0:0:0:0:
249,263,180446,1,0,0:0:0:0:
416,160,180684,1,8,0:0:0:0:
189,72,181160,1,0,0:0:0:0:
416,160,181636,1,8,0:0:0:0:
116,174,182112,1,8,0:0:0:0:
99,159,183065,1,4,0:0:0:0:
416,160,183541,1,8,0:0:0:0:
116,174,184017,1,8,0:0:0:0:
237,94,184255,1,8,0:0:0:0:
416,160,184493,1,0,0:0:0:0:
178,49,184969,1,0,0:0:0:0:
416,160,185446,1,8,0:0:0:0:
228,246,185684,1,8,0:0:0:0:
103,152,185922,1,0,0:0:0:0:
103,152,186160,1,0,0:0:0:0:
416,160,186398,1,8,0:0:0:0:
103,152,186874,1,0,0:0:0:0:
416,160,187350,1,8,0:0:0:0:
103,152,187827,1,0,0:0:0:0:
182,243,188065,1,0,0:0:0:0:
416,160,188303,1,8,0:0:0:0:
227,34,189255,1,0,0:0:0:0:
109,158,189731,1,8,0:0:0:0:
416,160,190207,1,8,0:0:0:0:
90,162,190684,1,8,0:0:0:0:
416,160,191160,1,8,0:0:0:0:
90,162,191398,1,0,0:0:0:0:
90,162,191636,1,8,0:0:0:0:
416,160,192112,1,8,0:0:0:0:
199,60,192588,1,0,0:0:0:0:
416,160,193065,1,0,0:0:0:0:
94,157,193303,1,0,0:0:0:0:
94,157,193541,1,8,0:0:0:0:
77,32,193779,1,8,0:0:0:0:
416,160,194017,1,0,0:0:0:0:
94,157,194493,1,0,0:0:0:0:
416,160,194969,1,8,0:0:0:0:
94,157,195446,1,8,0:0:0:0:
203,250,195684,1,0,0:0:0:0:
416,160,195922,1,8,0:0:0:0:
196,44,196398,1,0,0:0:0:0:
94,157,197350,1,8,0:0:0:0:
416,160,197827,1,8,0:0:0:0:
86,169,198303,1,4,0:0:0:0:
256,192,198541,12,0,201636,0:0:0:0:
