osu file format v14

[General]
AudioFilename: audio.mp3
AudioLeadIn: 0
PreviewTime: 93212
Countdown: 0
SampleSet: Normal
StackLeniency: 0.7
Mode: 1
LetterboxInBreaks: 0
WidescreenStoryboard: 1

[Editor]
DistanceSpacing: 0.6
BeatDivisor: 4
GridSize: 4
TimelineZoom: 1

[Metadata]
Title:Casino
TitleUnicode:Casino
Artist:Azari
ArtistUnicode:Azari
Creator:neonat
Version:Oni
Source:
Tags:vflower v_flower flower vocaloid electronic japanese jerry
BeatmapID:3525946
BeatmapSetID:1720271

[Difficulty]
HPDrainRate:5
CircleSize:5
OverallDifficulty:5
ApproachRate:5
SliderMultiplier:1.4
SliderTickRate:1

[Events]
//Background and Video events
0,0,"heart_kijiyakazu.png",0,120
//Break Periods
//Storyboard Layer 0 (Background)
//Storyboard Layer 1 (Fail)
//Storyboard Layer 2 (Pass)
//Storyboard Layer 3 (Foreground)
//Storyboard Layer 4 (Overlay)
//Storyboard Sound Samples

[TimingPoints]
1827.79020224146,461.538461538462,4,1,0,60,1,0
4597,-105.263157894737,4,1,0,60,0,0
5520,461.538461538462,4,1,0,60,1,0
20289,-95.2380952380952,4,1,0,85,0,1
34366,-97.0873786407767,4,1,0,85,0,1
34827,-99.009900990099,4,1,0,85,0,1
35058,-100,4,1,0,80,0,0
41981,-102.040816326531,4,1,0,80,0,0
42212,-104.166666666667,4,1,0,80,0,0
42327,-106.382978723404,4,1,0,80,0,0
42443,-108.695652173913,4,1,0,80,0,0
42904,-111.111111111111,4,1,0,80,0,0
43366,-108.695652173913,4,1,0,80,0,0
43596,-106.382978723404,4,1,0,80,0,0
43827,-104.166666666667,4,1,0,80,0,0
44058,-102.040816326531,4,1,0,80,0,0
44289,-100,4,1,0,80,0,0
82596,-83.3333333333333,4,1,0,80,0,0
83058,-100,4,1,0,80,0,0
86289,-83.3333333333333,4,1,0,80,0,0
86750,-100,4,1,0,80,0,0
89981,-83.3333333333333,4,1,0,80,0,0
90443,-100,4,1,0,80,0,0
92289,-97.0873786407767,4,1,0,80,0,0
92750,-94.3396226415094,4,1,0,80,0,0
93212,-91.743119266055,4,1,0,80,0,0
93443,-90.0900900900901,4,1,0,80,0,0
93558,-88.4955752212389,4,1,0,80,0,0
93673,-86.9565217391304,4,1,0,80,0,0
93789,-85.4700854700855,4,1,0,80,0,0
93904,-84.0336134453781,4,1,0,80,0,0
94135,-83.3333333333333,4,1,0,85,0,1
94366,-95.2380952380952,4,1,0,85,0,1
107981,-96.1538461538461,4,1,0,85,0,1
108135,-97.0873786407767,4,1,0,85,0,1
108289,-98.0392156862745,4,1,0,85,0,1
108443,-99.009900990099,4,1,0,80,0,0
108673,-100,4,1,0,80,0,0
108904,-90.9090909090909,4,1,0,85,0,1
122981,-92.5925925925926,4,1,0,85,0,1
123096,-94.3396226415094,4,1,0,85,0,1
123212,-96.1538461538461,4,1,0,85,0,1
123443,-98.0392156862745,4,1,0,85,0,1
123673,-100,4,1,0,75,0,0
123904,-105.263157894737,4,1,0,75,0,0
138904,-100,4,1,0,60,0,0

[HitObjects]
135,129,4827,5,8,0:0:0:0:
135,129,5058,1,0,0:0:0:0:
135,129,5289,1,0,0:0:0:0:
135,129,5520,1,8,0:0:0:0:
135,129,5981,1,0,0:0:0:0:
135,129,6443,1,8,0:0:0:0:
135,129,6673,1,0,0:0:0:0:
135,129,6789,1,8,0:0:0:0:
135,129,7020,1,8,0:0:0:0:
135,129,7135,1,8,0:0:0:0:
135,129,7366,1,8,0:0:0:0:
135,129,7827,1,0,0:0:0:0:
135,129,8520,1,0,0:0:0:0:
135,129,8750,1,8,0:0:0:0:
135,129,8981,1,0,0:0:0:0:
135,129,9212,1,8,0:0:0:0:
135,129,9673,1,0,0:0:0:0:
135,129,10135,1,8,0:0:0:0:
135,129,10481,1,0,0:0:0:0:
135,129,10827,1,8,0:0:0:0:
135,129,11058,1,0,0:0:0:0:
135,129,11289,1,0,0:0:0:0:
135,129,11520,1,8,0:0:0:0:
135,129,11750,1,8,0:0:0:0:
135,129,12212,1,8,0:0:0:0:
135,129,12443,1,0,0:0:0:0:
135,129,12673,1,0,0:0:0:0:
135,129,12904,1,8,0:0:0:0:
153,121,13135,1,0,0:0:0:0:
135,129,13366,1,0,0:0:0:0:
135,129,13827,1,0,0:0:0:0:
135,129,14058,1,0,0:0:0:0:
135,129,14173,1,8,0:0:0:0:
135,129,14404,1,8,0:0:0:0:
135,129,14520,1,8,0:0:0:0:
135,129,14750,1,8,0:0:0:0:
254,234,14981,1,0,0:0:0:0:
135,129,15212,1,0,0:0:0:0:
135,129,15904,1,0,0:0:0:0:
135,129,16135,1,8,0:0:0:0:
135,129,16366,1,0,0:0:0:0:
135,129,16596,1,8,0:0:0:0:
153,121,16827,1,0,0:0:0:0:
135,129,17058,1,0,0:0:0:0:
135,129,17520,1,8,0:0:0:0:
135,129,17750,1,0,0:0:0:0:
135,129,17866,1,8,0:0:0:0:
135,129,18096,1,0,0:0:0:0:
135,129,18212,1,8,0:0:0:0:
135,129,18443,1,0,0:0:0:0:
135,129,18673,1,8,0:0:0:0:
135,129,18904,1,0,0:0:0:0:
135,129,19135,1,0,0:0:0:0:
135,129,19481,1,0,0:0:0:0:
135,129,19596,1,8,0:0:0:0:
135,129,19827,1,8,0:0:0:0:
135,129,20058,1,8,0:0:0:0:
135,129,20289,1,12,0:0:0:0:
135,129,20750,1,0,0:0:0:0:
135,129,21212,1,8,0:0:0:0:
135,129,21443,1,0,0:0:0:0:
135,129,21558,1,8,0:0:0:0:
135,129,21789,1,8,0:0:0:0:
135,129,21904,1,8,0:0:0:0:
116,119,22135,1,8,0:0:0:0:
116,119,22250,1,0,0:0:0:0:
116,119,22366,1,0,0:0:0:0:
135,129,22596,1,8,0:0:0:0:
120,150,22827,1,0,0:0:0:0:
135,129,23289,1,0,0:0:0:0:
135,129,23520,1,8,0:0:0:0:
135,129,23750,1,0,0:0:0:0:
135,129,23981,1,8,0:0:0:0:
143,137,24096,1,8,0:0:0:0:
132,133,24212,1,8,0:0:0:0:
135,129,24443,1,0,0:0:0:0:
135,129,24904,1,0,0:0:0:0:
135,129,25135,1,8,0:0:0:0:
135,129,25250,1,0,0:0:0:0:
135,129,25481,1,8,0:0:0:0:
135,129,25596,1,0,0:0:0:0:
143,137,25827,1,0,0:0:0:0:
135,129,26058,1,0,0:0:0:0:
143,137,26173,1,0,0:0:0:0:
135,129,26289,1,8,0:0:0:0:
135,129,26520,1,0,0:0:0:0:
141,129,26635,1,8,0:0:0:0:
135,129,26750,1,8,0:0:0:0:
137,129,26866,1,8,0:0:0:0:
135,133,26981,1,8,0:0:0:0:
135,129,27212,1,8,0:0:0:0:
135,129,27443,1,0,0:0:0:0:
135,129,27673,1,8,0:0:0:0:
135,129,28135,1,0,0:0:0:0:
135,129,28596,1,8,0:0:0:0:
135,129,28827,1,0,0:0:0:0:
135,129,28943,1,8,0:0:0:0:
135,129,29173,1,8,0:0:0:0:
135,129,29289,1,8,0:0:0:0:
135,129,29520,1,8,0:0:0:0:
130,125,29635,1,8,0:0:0:0:
130,125,29750,1,0,0:0:0:0:
135,129,29981,1,8,0:0:0:0:
137,117,30212,1,0,0:0:0:0:
135,129,30673,1,0,0:0:0:0:
135,129,30904,1,8,0:0:0:0:
135,129,31135,1,0,0:0:0:0:
135,129,31366,1,8,0:0:0:0:
124,123,31481,1,8,0:0:0:0:
130,127,31596,1,8,0:0:0:0:
135,129,31827,1,0,0:0:0:0:
135,129,32289,1,8,0:0:0:0:
135,129,32520,1,0,0:0:0:0:
135,129,32635,1,8,0:0:0:0:
135,129,32866,1,0,0:0:0:0:
135,129,32981,1,8,0:0:0:0:
135,129,33212,1,0,0:0:0:0:
135,129,33443,1,8,0:0:0:0:
130,123,33558,1,0,0:0:0:0:
135,129,33673,1,8,0:0:0:0:
135,129,33904,1,0,0:0:0:0:
128,113,34135,1,0,0:0:0:0:
135,129,34366,1,8,0:0:0:0:
135,129,34481,1,8,0:0:0:0:
135,129,34596,1,8,0:0:0:0:
135,129,34827,1,8,0:0:0:0:
135,129,35058,1,0,0:0:0:0:
135,129,35520,1,0,0:0:0:0:
135,129,35750,1,8,0:0:0:0:
135,129,35981,1,0,0:0:0:0:
135,129,36212,1,0,0:0:0:0:
135,129,36443,1,8,0:0:0:0:
135,129,36673,1,8,0:0:0:0:
135,129,36904,1,0,0:0:0:0:
135,129,37366,1,0,0:0:0:0:
135,129,37596,1,8,0:0:0:0:
135,129,37827,1,0,0:0:0:0:
135,129,38058,1,0,0:0:0:0:
135,129,38289,1,8,0:0:0:0:
135,129,38520,1,0,0:0:0:0:
135,129,38750,1,8,0:0:0:0:
143,118,39212,1,0,0:0:0:0:
135,129,39443,1,8,0:0:0:0:
135,129,39673,1,8,0:0:0:0:
135,129,39904,1,0,0:0:0:0:
135,129,40135,1,0,0:0:0:0:
135,129,40366,1,8,0:0:0:0:
135,129,40596,1,0,0:0:0:0:
143,118,41058,1,0,0:0:0:0:
135,129,41289,1,8,0:0:0:0:
135,129,41520,1,8,0:0:0:0:
135,129,41750,1,0,0:0:0:0:
135,129,41981,1,8,0:0:0:0:
135,129,42212,1,8,0:0:0:0:
128,131,42327,1,0,0:0:0:0:
135,129,42443,1,0,0:0:0:0:
135,129,43135,1,8,0:0:0:0:
135,129,43366,1,0,0:0:0:0:
135,129,43596,1,0,0:0:0:0:
135,129,43827,1,8,0:0:0:0:
135,129,44058,1,8,0:0:0:0:
135,129,44289,1,0,0:0:0:0:
143,118,44750,1,0,0:0:0:0:
135,129,44981,1,8,0:0:0:0:
135,129,45212,1,0,0:0:0:0:
135,129,45443,1,0,0:0:0:0:
135,129,45673,1,8,0:0:0:0:
135,129,45904,1,0,0:0:0:0:
135,129,46135,1,8,0:0:0:0:
145,115,46596,1,0,0:0:0:0:
135,129,46827,1,8,0:0:0:0:
135,129,47058,1,8,0:0:0:0:
135,129,47289,1,0,0:0:0:0:
135,129,47520,1,0,0:0:0:0:
135,129,47750,1,8,0:0:0:0:
135,129,47981,1,0,0:0:0:0:
145,115,48443,1,0,0:0:0:0:
135,129,48673,1,8,0:0:0:0:
135,129,48904,1,8,0:0:0:0:
135,129,49135,1,0,0:0:0:0:
135,129,49366,1,8,0:0:0:0:
135,129,49596,1,8,0:0:0:0:
135,129,49712,1,8,0:0:0:0:
135,129,49827,1,0,0:0:0:0:
135,129,50289,1,8,0:0:0:0:
135,129,50520,1,0,0:0:0:0:
135,129,50750,1,8,0:0:0:0:
135,129,50981,1,0,0:0:0:0:
135,129,51212,1,8,0:0:0:0:
135,129,51443,1,8,0:0:0:0:
135,129,51673,1,0,0:0:0:0:
135,129,52135,1,8,0:0:0:0:
135,129,52366,1,0,0:0:0:0:
135,129,52481,1,8,0:0:0:0:
135,129,52596,1,0,0:0:0:0:
135,129,52827,1,0,0:0:0:0:
135,129,53058,1,8,0:0:0:0:
135,129,53289,1,8,0:0:0:0:
135,129,53520,1,0,0:0:0:0:
139,134,53981,1,8,0:0:0:0:
135,129,54212,1,0,0:0:0:0:
139,125,54327,1,0,0:0:0:0:
135,129,54443,1,8,0:0:0:0:
135,129,54673,1,0,0:0:0:0:
135,129,54904,1,8,0:0:0:0:
135,129,55135,1,0,0:0:0:0:
135,129,55366,1,8,0:0:0:0:
223,155,55596,1,8,0:0:0:0:
135,129,55712,1,8,0:0:0:0:
135,129,55827,1,0,0:0:0:0:
135,129,56058,1,8,0:0:0:0:
135,129,56289,1,0,0:0:0:0:
135,129,56520,1,0,0:0:0:0:
135,129,56750,1,8,0:0:0:0:
126,121,56866,1,0,0:0:0:0:
128,121,57096,1,0,0:0:0:0:
135,129,57212,1,8,0:0:0:0:
143,117,57673,1,8,0:0:0:0:
135,129,57904,1,8,0:0:0:0:
135,129,58020,1,8,0:0:0:0:
135,129,58135,1,0,0:0:0:0:
135,129,58366,1,0,0:0:0:0:
135,129,58596,1,8,0:0:0:0:
126,119,58827,1,8,0:0:0:0:
135,129,59058,1,0,0:0:0:0:
135,122,59520,1,8,0:0:0:0:
135,129,59750,1,0,0:0:0:0:
135,129,59866,1,8,0:0:0:0:
135,129,59981,1,0,0:0:0:0:
135,129,60212,1,0,0:0:0:0:
135,129,60443,1,8,0:0:0:0:
122,115,60673,1,8,0:0:0:0:
135,129,60904,1,0,0:0:0:0:
135,122,61366,1,8,0:0:0:0:
135,129,61596,1,8,0:0:0:0:
135,129,61712,1,0,0:0:0:0:
135,129,61827,1,8,0:0:0:0:
135,129,62058,1,0,0:0:0:0:
135,129,62289,1,8,0:0:0:0:
213,125,62520,1,8,0:0:0:0:
118,119,62635,1,8,0:0:0:0:
213,125,62750,1,0,0:0:0:0:
118,119,62981,1,0,0:0:0:0:
213,125,63212,1,8,0:0:0:0:
213,125,63443,1,0,0:0:0:0:
213,125,63673,1,0,0:0:0:0:
213,125,63904,1,0,0:0:0:0:
213,125,64135,1,8,0:0:0:0:
213,125,64596,1,8,0:0:0:0:
213,125,64827,1,0,0:0:0:0:
213,125,65058,1,8,0:0:0:0:
213,125,65289,1,8,0:0:0:0:
213,125,65404,1,0,0:0:0:0:
213,125,65520,1,8,0:0:0:0:
213,125,65750,1,0,0:0:0:0:
213,125,65981,1,8,0:0:0:0:
213,125,66443,1,8,0:0:0:0:
213,125,66673,1,0,0:0:0:0:
213,125,66789,1,8,0:0:0:0:
213,125,66904,1,8,0:0:0:0:
213,125,67135,1,8,0:0:0:0:
213,125,67250,1,0,0:0:0:0:
213,125,67366,1,8,0:0:0:0:
213,125,67596,1,0,0:0:0:0:
213,125,67827,1,8,0:0:0:0:
213,125,68289,1,8,0:0:0:0:
213,125,68520,1,8,0:0:0:0:
213,125,68635,1,8,0:0:0:0:
213,125,68750,1,0,0:0:0:0:
213,125,68981,1,0,0:0:0:0:
213,125,69096,1,8,0:0:0:0:
213,125,69212,1,0,0:0:0:0:
213,125,69443,1,0,0:0:0:0:
213,125,69673,1,8,0:0:0:0:
213,125,70135,1,8,0:0:0:0:
213,125,70366,1,0,0:0:0:0:
213,125,70481,1,8,0:0:0:0:
213,125,70596,1,8,0:0:0:0:
213,125,70827,1,8,0:0:0:0:
213,125,70943,1,0,0:0:0:0:
213,125,71058,1,0,0:0:0:0:
213,125,71289,1,8,0:0:0:0:
213,125,71520,1,0,0:0:0:0:
217,135,71635,1,0,0:0:0:0:
213,135,71866,1,0,0:0:0:0:
213,125,71981,1,8,0:0:0:0:
213,125,72212,1,8,0:0:0:0:
213,125,72327,1,0,0:0:0:0:
213,125,72443,1,8,0:0:0:0:
213,125,72673,1,0,0:0:0:0:
213,125,72789,1,0,0:0:0:0:
213,125,72904,1,8,0:0:0:0:
213,125,73135,1,0,0:0:0:0:
213,125,73366,1,8,0:0:0:0:
213,125,73827,1,8,0:0:0:0:
213,125,74058,1,0,0:0:0:0:
213,125,74173,1,8,0:0:0:0:
213,125,74289,1,8,0:0:0:0:
213,125,74520,1,0,0:0:0:0:
213,125,74635,1,0,0:0:0:0:
213,125,74750,1,8,0:0:0:0:
213,125,74981,1,0,0:0:0:0:
213,125,75212,1,8,0:0:0:0:
213,125,75673,1,8,0:0:0:0:
213,125,75904,1,8,0:0:0:0:
213,125,76020,1,0,0:0:0:0:
213,125,76135,1,8,0:0:0:0:
213,125,76366,1,0,0:0:0:0:
213,125,76481,1,8,0:0:0:0:
213,125,76596,1,0,0:0:0:0:
213,125,76827,1,0,0:0:0:0:
213,125,77058,1,8,0:0:0:0:
213,125,77520,1,8,0:0:0:0:
213,125,77750,1,0,0:0:0:0:
213,125,77866,1,8,0:0:0:0:
213,125,77981,1,8,0:0:0:0:
213,125,78212,1,0,0:0:0:0:
213,125,78327,1,8,0:0:0:0:
213,125,78443,1,0,0:0:0:0:
213,125,78673,1,0,0:0:0:0:
213,125,78789,1,0,0:0:0:0:
213,125,78904,1,8,0:0:0:0:
207,120,79135,1,0,0:0:0:0:
149,187,79366,2,0,B|190:187|362:82|362:82|317:228|317:228|217:84,1,560
165,255,82596,1,8,0:0:0:0:
149,187,83058,6,0,B|190:187|362:82|362:82|317:228|317:228|217:84,1,560
159,239,86289,1,8,0:0:0:0:
149,187,86750,2,0,B|190:187|362:82|362:82|317:228|317:228|217:84,1,560
207,214,89981,1,8,0:0:0:0:
149,187,90443,2,0,B|190:187|362:82|362:82|317:228|317:228|217:211,1,490
213,125,92289,1,0,0:0:0:0:
213,125,92404,1,8,0:0:0:0:
213,125,92750,1,8,0:0:0:0:
213,125,93212,1,0,0:0:0:0:
213,125,93443,1,8,0:0:0:0:
213,125,93558,1,0,0:0:0:0:
213,125,93673,1,8,0:0:0:0:
213,125,93789,1,8,0:0:0:0:
213,125,93904,1,0,0:0:0:0:
213,125,94135,1,12,0:0:0:0:
213,125,94596,1,0,0:0:0:0:
213,125,95058,1,8,0:0:0:0:
213,125,95289,1,0,0:0:0:0:
213,125,95404,1,8,0:0:0:0:
213,125,95635,1,8,0:0:0:0:
213,125,95750,1,8,0:0:0:0:
213,125,95981,1,8,0:0:0:0:
163,135,96096,1,0,0:0:0:0:
163,129,96212,1,0,0:0:0:0:
213,125,96443,1,8,0:0:0:0:
184,138,96673,1,0,0:0:0:0:
213,125,97135,1,0,0:0:0:0:
213,125,97366,1,8,0:0:0:0:
213,125,97596,1,0,0:0:0:0:
213,125,97827,1,8,0:0:0:0:
223,129,97943,1,8,0:0:0:0:
223,129,98058,1,8,0:0:0:0:
213,125,98289,1,0,0:0:0:0:
213,125,98750,1,8,0:0:0:0:
213,125,98981,1,0,0:0:0:0:
213,125,99096,1,8,0:0:0:0:
213,125,99327,1,0,0:0:0:0:
213,125,99443,1,8,0:0:0:0:
213,125,99673,1,0,0:0:0:0:
213,125,99904,1,0,0:0:0:0:
228,129,100020,1,0,0:0:0:0:
213,125,100135,1,8,0:0:0:0:
213,125,100366,1,0,0:0:0:0:
205,171,100481,1,8,0:0:0:0:
205,171,100596,1,8,0:0:0:0:
205,171,100712,1,8,0:0:0:0:
213,125,100827,1,8,0:0:0:0:
213,125,101058,1,8,0:0:0:0:
213,125,101289,1,0,0:0:0:0:
213,125,101520,1,8,0:0:0:0:
213,125,101981,1,0,0:0:0:0:
213,125,102443,1,8,0:0:0:0:
213,125,102673,1,0,0:0:0:0:
213,125,102789,1,8,0:0:0:0:
213,125,103020,1,8,0:0:0:0:
213,125,103135,1,8,0:0:0:0:
213,125,103366,1,8,0:0:0:0:
201,191,103481,1,0,0:0:0:0:
201,191,103596,1,0,0:0:0:0:
213,125,103827,1,8,0:0:0:0:
190,131,104058,1,0,0:0:0:0:
213,125,104520,1,0,0:0:0:0:
213,125,104750,1,8,0:0:0:0:
213,125,104981,1,0,0:0:0:0:
213,125,105212,1,8,0:0:0:0:
203,187,105327,1,8,0:0:0:0:
203,187,105443,1,8,0:0:0:0:
213,125,105673,1,0,0:0:0:0:
213,125,106135,1,8,0:0:0:0:
213,125,106366,1,0,0:0:0:0:
213,125,106481,1,8,0:0:0:0:
213,125,106712,1,0,0:0:0:0:
197,179,106827,1,8,0:0:0:0:
192,169,106943,1,8,0:0:0:0:
213,125,107058,1,8,0:0:0:0:
213,125,107289,1,8,0:0:0:0:
213,125,107520,1,8,0:0:0:0:
213,125,107750,1,0,0:0:0:0:
213,125,107981,1,0,0:0:0:0:
213,125,108135,1,0,0:0:0:0:
213,125,108289,1,0,0:0:0:0:
203,131,108443,1,8,0:0:0:0:
205,127,108673,1,8,0:0:0:0:
213,125,108904,1,12,0:0:0:0:
213,125,109366,1,0,0:0:0:0:
213,125,109827,1,8,0:0:0:0:
213,125,110058,1,0,0:0:0:0:
213,125,110173,1,8,0:0:0:0:
213,125,110404,1,8,0:0:0:0:
213,125,110520,1,8,0:0:0:0:
213,125,110750,1,8,0:0:0:0:
223,138,110866,1,0,0:0:0:0:
213,125,110981,1,0,0:0:0:0:
201,133,111212,1,8,0:0:0:0:
209,113,111443,1,0,0:0:0:0:
213,125,111904,1,0,0:0:0:0:
213,125,112135,1,8,0:0:0:0:
213,125,112366,1,8,0:0:0:0:
265,160,112596,1,8,0:0:0:0:
248,146,112712,1,8,0:0:0:0:
250,144,112827,1,8,0:0:0:0:
265,160,113058,1,0,0:0:0:0:
219,168,113289,1,8,0:0:0:0:
265,160,113520,1,0,0:0:0:0:
265,160,113750,1,8,0:0:0:0:
265,160,113866,1,0,0:0:0:0:
265,160,114096,1,8,0:0:0:0:
265,160,114212,1,0,0:0:0:0:
265,160,114443,1,0,0:0:0:0:
265,160,114673,1,0,0:0:0:0:
246,168,114789,1,0,0:0:0:0:
265,160,114904,1,8,0:0:0:0:
265,160,115135,1,0,0:0:0:0:
244,152,115250,1,8,0:0:0:0:
244,152,115366,1,8,0:0:0:0:
244,152,115481,1,8,0:0:0:0:
244,152,115596,1,8,0:0:0:0:
265,160,115827,1,0,0:0:0:0:
265,160,116058,1,8,0:0:0:0:
255,158,116173,1,0,0:0:0:0:
265,160,116289,1,8,0:0:0:0:
265,160,116750,1,0,0:0:0:0:
265,160,117212,1,8,0:0:0:0:
265,160,117443,1,0,0:0:0:0:
265,160,117558,1,8,0:0:0:0:
265,160,117789,1,8,0:0:0:0:
265,160,117904,1,8,0:0:0:0:
265,160,118135,1,8,0:0:0:0:
265,160,118250,1,0,0:0:0:0:
265,160,118366,1,0,0:0:0:0:
265,160,118596,1,8,0:0:0:0:
257,140,118827,1,0,0:0:0:0:
265,160,119289,1,0,0:0:0:0:
265,160,119520,1,8,0:0:0:0:
265,160,119750,1,8,0:0:0:0:
267,164,119981,1,8,0:0:0:0:
265,160,120096,1,8,0:0:0:0:
267,164,120212,1,8,0:0:0:0:
265,160,120443,1,0,0:0:0:0:
265,160,120904,1,8,0:0:0:0:
265,160,121135,1,0,0:0:0:0:
265,160,121250,1,8,0:0:0:0:
265,160,121481,1,0,0:0:0:0:
269,166,121596,1,8,0:0:0:0:
269,166,121712,1,8,0:0:0:0:
265,160,121827,1,0,0:0:0:0:
265,160,122058,1,8,0:0:0:0:
265,160,122289,1,8,0:0:0:0:
269,162,122404,1,0,0:0:0:0:
265,160,122520,1,0,0:0:0:0:
269,166,122635,1,8,0:0:0:0:
269,166,122750,1,8,0:0:0:0:
265,160,122981,1,8,0:0:0:0:
265,160,123096,1,0,0:0:0:0:
265,160,123212,1,8,0:0:0:0:
265,160,123443,1,8,0:0:0:0:
265,160,123673,1,0,0:0:0:0:
209,197,124135,1,0,0:0:0:0:
269,154,124366,1,0,0:0:0:0:
269,154,124481,1,8,0:0:0:0:
269,154,124827,1,8,0:0:0:0:
209,197,125058,1,0,0:0:0:0:
273,142,125520,1,0,0:0:0:0:
209,197,125981,1,0,0:0:0:0:
273,142,126212,1,0,0:0:0:0:
273,142,126327,1,8,0:0:0:0:
273,142,126673,1,8,0:0:0:0:
209,197,126904,1,0,0:0:0:0:
273,142,127366,1,0,0:0:0:0:
209,197,127827,1,0,0:0:0:0:
273,142,128058,1,0,0:0:0:0:
273,142,128173,1,8,0:0:0:0:
166,168,128520,1,8,0:0:0:0:
209,197,128750,1,0,0:0:0:0:
238,179,129212,1,0,0:0:0:0:
209,197,129673,1,0,0:0:0:0:
238,179,129904,1,0,0:0:0:0:
238,179,130020,1,8,0:0:0:0:
238,179,130366,1,8,0:0:0:0:
209,197,130596,1,0,0:0:0:0:
209,197,131058,1,0,0:0:0:0:
236,166,131289,1,8,0:0:0:0:
209,197,131520,1,0,0:0:0:0:
209,197,131866,1,8,0:0:0:0:
209,197,132096,1,0,0:0:0:0:
209,197,132212,1,8,0:0:0:0:
209,197,132443,1,0,0:0:0:0:
209,197,132904,1,0,0:0:0:0:
209,197,133135,1,8,0:0:0:0:
209,197,133366,1,0,0:0:0:0:
209,197,133712,1,8,0:0:0:0:
213,200,133943,1,0,0:0:0:0:
209,197,134058,1,8,0:0:0:0:
209,197,134289,1,0,0:0:0:0:
209,197,134750,1,0,0:0:0:0:
209,197,134981,1,8,0:0:0:0:
209,197,135212,1,0,0:0:0:0:
209,197,135558,1,8,0:0:0:0:
205,193,135789,1,0,0:0:0:0:
209,197,135904,1,8,0:0:0:0:
209,197,136135,1,0,0:0:0:0:
209,197,136596,1,0,0:0:0:0:
209,197,136827,1,8,0:0:0:0:
209,197,137058,1,0,0:0:0:0:
209,197,137404,1,8,0:0:0:0:
205,193,137635,1,0,0:0:0:0:
209,197,137750,1,8,0:0:0:0:
209,197,137981,1,0,0:0:0:0:
209,197,138443,1,0,0:0:0:0:
256,192,138673,12,0,141212,0:0:0:0:
