osu file format v14

[General]
AudioFilename: audio.mp3
AudioLeadIn: 0
PreviewTime: 93212
Countdown: 0
SampleSet: Normal
StackLeniency: 0.7
Mode: 1
LetterboxInBreaks: 0
WidescreenStoryboard: 1

[Editor]
DistanceSpacing: 0.6
BeatDivisor: 4
GridSize: 4
TimelineZoom: 1

[Metadata]
Title:Casino
TitleUnicode:Casino
Artist:Azari
ArtistUnicode:Azari
Creator:neonat
Version:Muzukashii
Source:
Tags:vflower v_flower flower vocaloid electronic japanese jerry
BeatmapID:3525945
BeatmapSetID:1720271

[Difficulty]
HPDrainRate:6
CircleSize:5
OverallDifficulty:4
ApproachRate:5
SliderMultiplier:1.4
SliderTickRate:1

[Events]
//Background and Video events
0,0,"heart_kijiyakazu.png",0,120
//Break Periods
//Storyboard Layer 0 (Background)
//Storyboard Layer 1 (Fail)
//Storyboard Layer 2 (Pass)
//Storyboard Layer 3 (Foreground)
//Storyboard Layer 4 (Overlay)
//Storyboard Sound Samples

[TimingPoints]
1827.79020224146,461.538461538462,4,1,0,60,1,0
5520,461.538461538462,4,1,0,60,1,0
20289,-100,4,1,0,85,0,1
35058,-100,4,1,0,80,0,0
94135,-100,4,1,0,85,0,1
108212,-99.009900990099,4,1,0,85,0,1
108443,-98.0392156862745,4,1,0,80,0,0
108673,-97.0873786407767,4,1,0,80,0,0
108904,-96.1538461538461,4,1,0,85,0,1
122750,-97.0873786407767,4,1,0,85,0,1
122981,-98.0392156862745,4,1,0,85,0,1
123443,-99.009900990099,4,1,0,85,0,1
123673,-100,4,1,0,75,0,0
138673,-100,4,1,0,60,0,0

[HitObjects]
216,161,4827,5,8,0:0:0:0:
216,161,5058,1,0,0:0:0:0:
216,161,5289,1,0,0:0:0:0:
216,161,5520,1,8,0:0:0:0:
226,161,5981,1,0,0:0:0:0:
228,163,6443,1,8,0:0:0:0:
226,161,6789,1,8,0:0:0:0:
228,163,7135,1,0,0:0:0:0:
228,163,7366,1,8,0:0:0:0:
230,165,7827,1,0,0:0:0:0:
235,165,8520,1,0,0:0:0:0:
235,165,8750,1,8,0:0:0:0:
235,165,8981,1,0,0:0:0:0:
235,165,9212,1,8,0:0:0:0:
239,165,9673,1,0,0:0:0:0:
241,167,10135,1,8,0:0:0:0:
239,165,10481,1,0,0:0:0:0:
241,167,10827,1,8,0:0:0:0:
241,167,11058,1,0,0:0:0:0:
239,165,11289,1,0,0:0:0:0:
241,167,11520,1,8,0:0:0:0:
241,167,11750,1,8,0:0:0:0:
243,169,12212,1,8,0:0:0:0:
245,169,12443,1,8,0:0:0:0:
245,169,12673,1,0,0:0:0:0:
243,169,12904,1,8,0:0:0:0:
245,169,13366,1,0,0:0:0:0:
243,169,13827,1,8,0:0:0:0:
245,169,14173,1,8,0:0:0:0:
249,171,14520,1,0,0:0:0:0:
249,171,14750,1,8,0:0:0:0:
249,171,15212,1,0,0:0:0:0:
263,178,15904,1,0,0:0:0:0:
263,178,16135,1,8,0:0:0:0:
263,178,16366,1,0,0:0:0:0:
201,184,16596,1,8,0:0:0:0:
203,188,17058,1,0,0:0:0:0:
203,188,17520,1,8,0:0:0:0:
203,188,17866,1,0,0:0:0:0:
203,188,18212,1,0,0:0:0:0:
334,250,18443,1,8,0:0:0:0:
334,250,18673,1,8,0:0:0:0:
334,250,18904,1,0,0:0:0:0:
334,250,19135,1,0,0:0:0:0:
334,250,19827,1,8,0:0:0:0:
334,250,20058,1,8,0:0:0:0:
334,250,20289,1,12,0:0:0:0:
334,250,20750,1,0,0:0:0:0:
334,250,21212,1,8,0:0:0:0:
334,250,21443,1,0,0:0:0:0:
334,250,21558,1,0,0:0:0:0:
334,250,21789,1,8,0:0:0:0:
334,250,21904,1,8,0:0:0:0:
334,250,22135,1,8,0:0:0:0:
334,250,22596,1,0,0:0:0:0:
334,250,23289,1,0,0:0:0:0:
334,250,23520,1,8,0:0:0:0:
334,250,23750,1,0,0:0:0:0:
334,250,23981,1,8,0:0:0:0:
334,250,24443,1,0,0:0:0:0:
334,250,24904,1,8,0:0:0:0:
334,250,25135,1,0,0:0:0:0:
334,250,25250,1,0,0:0:0:0:
334,250,25481,1,8,0:0:0:0:
334,250,25596,1,8,0:0:0:0:
334,250,25827,1,0,0:0:0:0:
334,250,25943,1,0,0:0:0:0:
334,250,26058,1,0,0:0:0:0:
334,250,26289,1,8,0:0:0:0:
334,250,26520,1,8,0:0:0:0:
224,240,26981,1,8,0:0:0:0:
224,240,27212,1,8,0:0:0:0:
224,240,27443,1,0,0:0:0:0:
224,240,27673,1,8,0:0:0:0:
224,240,28135,1,0,0:0:0:0:
228,242,28596,1,8,0:0:0:0:
228,242,28827,1,0,0:0:0:0:
228,242,28943,1,0,0:0:0:0:
232,244,29173,1,8,0:0:0:0:
232,244,29289,1,8,0:0:0:0:
232,244,29520,1,8,0:0:0:0:
228,242,29981,1,0,0:0:0:0:
228,242,30673,1,0,0:0:0:0:
228,242,30904,1,8,0:0:0:0:
228,242,31135,1,0,0:0:0:0:
228,242,31366,1,8,0:0:0:0:
228,242,31827,1,0,0:0:0:0:
228,242,32289,1,8,0:0:0:0:
228,242,32520,1,0,0:0:0:0:
228,242,32635,1,0,0:0:0:0:
228,242,32866,1,8,0:0:0:0:
228,242,32981,1,8,0:0:0:0:
228,242,33212,1,0,0:0:0:0:
237,238,33443,1,8,0:0:0:0:
228,242,33558,1,8,0:0:0:0:
228,242,33673,1,8,0:0:0:0:
228,242,33904,1,0,0:0:0:0:
228,242,34366,1,8,0:0:0:0:
239,237,34481,1,8,0:0:0:0:
228,242,34596,1,8,0:0:0:0:
228,242,34827,1,8,0:0:0:0:
228,242,35058,1,0,0:0:0:0:
283,188,35750,1,8,0:0:0:0:
283,188,35981,1,0,0:0:0:0:
283,188,36212,1,8,0:0:0:0:
283,188,36443,1,0,0:0:0:0:
283,188,36673,1,8,0:0:0:0:
283,188,36904,1,0,0:0:0:0:
283,188,37596,1,8,0:0:0:0:
283,188,37827,1,0,0:0:0:0:
283,188,38058,1,8,0:0:0:0:
283,188,38289,1,8,0:0:0:0:
283,188,38520,1,0,0:0:0:0:
283,188,38750,1,8,0:0:0:0:
283,188,39443,1,8,0:0:0:0:
283,188,39673,1,8,0:0:0:0:
283,188,39904,1,0,0:0:0:0:
281,180,40135,1,8,0:0:0:0:
281,180,40366,1,8,0:0:0:0:
281,180,40596,1,0,0:0:0:0:
281,180,41289,1,8,0:0:0:0:
281,180,41520,1,0,0:0:0:0:
281,180,41750,1,0,0:0:0:0:
281,180,41981,1,8,0:0:0:0:
281,180,42212,1,8,0:0:0:0:
281,180,42443,1,0,0:0:0:0:
281,180,43827,1,8,0:0:0:0:
281,180,44289,1,0,0:0:0:0:
281,180,44981,1,8,0:0:0:0:
281,180,45212,1,0,0:0:0:0:
281,180,45443,1,0,0:0:0:0:
281,180,45673,1,8,0:0:0:0:
281,180,45904,1,8,0:0:0:0:
281,180,46135,1,0,0:0:0:0:
281,180,46827,1,8,0:0:0:0:
281,180,47058,1,0,0:0:0:0:
281,180,47289,1,0,0:0:0:0:
281,180,47520,1,8,0:0:0:0:
281,180,47750,1,0,0:0:0:0:
281,180,47981,1,8,0:0:0:0:
241,197,48673,1,8,0:0:0:0:
241,197,48904,1,0,0:0:0:0:
241,197,49135,1,0,0:0:0:0:
241,197,49366,1,8,0:0:0:0:
241,197,49596,1,0,0:0:0:0:
241,197,49712,1,0,0:0:0:0:
241,197,49827,1,0,0:0:0:0:
167,232,50520,1,0,0:0:0:0:
167,232,50750,1,8,0:0:0:0:
167,232,50981,1,0,0:0:0:0:
167,232,51212,1,8,0:0:0:0:
173,226,51443,1,8,0:0:0:0:
167,232,51673,1,0,0:0:0:0:
173,226,52366,1,8,0:0:0:0:
173,226,52596,1,8,0:0:0:0:
173,226,52827,1,0,0:0:0:0:
173,226,53058,1,8,0:0:0:0:
173,226,53289,1,8,0:0:0:0:
173,226,53520,1,0,0:0:0:0:
173,226,54212,1,8,0:0:0:0:
190,234,54327,1,8,0:0:0:0:
173,226,54443,1,8,0:0:0:0:
173,226,54673,1,0,0:0:0:0:
173,226,54904,1,8,0:0:0:0:
173,226,55135,1,8,0:0:0:0:
173,226,55366,1,0,0:0:0:0:
173,226,55827,1,0,0:0:0:0:
173,226,56058,1,8,0:0:0:0:
173,226,56289,1,0,0:0:0:0:
173,226,56520,1,0,0:0:0:0:
173,226,56750,1,8,0:0:0:0:
190,199,56981,1,8,0:0:0:0:
173,226,57212,1,0,0:0:0:0:
190,199,57904,1,8,0:0:0:0:
190,199,58020,1,8,0:0:0:0:
190,199,58135,1,8,0:0:0:0:
190,199,58366,1,0,0:0:0:0:
190,199,58596,1,8,0:0:0:0:
190,199,58827,1,8,0:0:0:0:
190,199,59058,1,0,0:0:0:0:
190,199,59750,1,0,0:0:0:0:
173,195,59866,1,0,0:0:0:0:
190,199,59981,1,0,0:0:0:0:
190,199,60212,1,0,0:0:0:0:
190,199,60443,1,8,0:0:0:0:
190,199,60673,1,8,0:0:0:0:
190,199,60904,1,0,0:0:0:0:
190,199,61596,1,8,0:0:0:0:
181,193,61712,1,8,0:0:0:0:
190,199,61827,1,8,0:0:0:0:
190,199,62058,1,0,0:0:0:0:
190,199,62289,1,8,0:0:0:0:
190,199,62520,1,0,0:0:0:0:
190,199,62750,1,8,0:0:0:0:
194,201,63212,1,8,0:0:0:0:
256,213,63443,1,0,0:0:0:0:
256,213,63673,1,0,0:0:0:0:
256,213,63904,1,0,0:0:0:0:
256,213,64135,1,8,0:0:0:0:
380,158,64596,1,8,0:0:0:0:
254,153,65289,1,0,0:0:0:0:
264,155,65404,1,0,0:0:0:0:
254,153,65520,1,0,0:0:0:0:
254,153,65750,1,0,0:0:0:0:
254,153,65981,1,8,0:0:0:0:
254,153,66443,1,8,0:0:0:0:
254,153,67135,1,0,0:0:0:0:
264,155,67250,1,0,0:0:0:0:
254,153,67366,1,0,0:0:0:0:
254,153,67596,1,0,0:0:0:0:
254,153,67827,1,8,0:0:0:0:
254,153,68289,1,8,0:0:0:0:
254,153,68981,1,0,0:0:0:0:
264,155,69096,1,0,0:0:0:0:
254,153,69212,1,0,0:0:0:0:
254,153,69443,1,0,0:0:0:0:
254,153,69673,1,8,0:0:0:0:
254,153,70135,1,8,0:0:0:0:
255,158,70366,1,8,0:0:0:0:
254,153,70481,1,8,0:0:0:0:
254,153,70596,1,8,0:0:0:0:
254,153,70827,1,0,0:0:0:0:
254,153,70943,1,0,0:0:0:0:
254,153,71058,1,0,0:0:0:0:
253,151,71289,1,8,0:0:0:0:
254,153,71520,1,0,0:0:0:0:
254,153,71981,1,8,0:0:0:0:
254,153,72673,1,0,0:0:0:0:
264,155,72789,1,0,0:0:0:0:
254,153,72904,1,0,0:0:0:0:
254,153,73135,1,0,0:0:0:0:
254,153,73366,1,8,0:0:0:0:
254,153,73827,1,8,0:0:0:0:
264,155,74520,1,0,0:0:0:0:
266,155,74635,1,0,0:0:0:0:
254,153,74750,1,0,0:0:0:0:
254,153,74981,1,0,0:0:0:0:
254,153,75212,1,8,0:0:0:0:
254,153,75673,1,8,0:0:0:0:
254,153,76366,1,0,0:0:0:0:
266,155,76481,1,0,0:0:0:0:
254,153,76596,1,0,0:0:0:0:
254,153,76827,1,0,0:0:0:0:
254,153,77058,1,8,0:0:0:0:
254,153,77520,1,8,0:0:0:0:
248,158,77750,1,8,0:0:0:0:
254,153,77866,1,8,0:0:0:0:
254,153,77981,1,8,0:0:0:0:
250,156,78212,1,0,0:0:0:0:
254,153,78327,1,0,0:0:0:0:
254,153,78443,1,0,0:0:0:0:
254,153,78673,1,0,0:0:0:0:
254,153,78904,1,8,0:0:0:0:
254,153,79135,1,0,0:0:0:0:
254,153,79366,2,0,P|277:203|258:108,1,560
113,213,82596,1,8,0:0:0:0:
254,153,83058,2,0,P|277:203|258:108,1,560
233,278,86289,1,8,0:0:0:0:
254,153,86750,2,0,P|277:203|258:108,1,560
235,277,89981,1,8,0:0:0:0:
254,153,90443,2,0,P|277:203|258:108,1,560
254,180,93212,1,0,0:0:0:0:
299,182,93327,1,0,0:0:0:0:
254,180,93443,1,0,0:0:0:0:
254,180,93673,1,8,0:0:0:0:
254,180,93904,1,0,0:0:0:0:
254,180,94135,1,12,0:0:0:0:
297,238,94596,1,0,0:0:0:0:
297,238,95058,1,8,0:0:0:0:
297,238,95289,1,0,0:0:0:0:
297,238,95404,1,0,0:0:0:0:
297,238,95635,1,8,0:0:0:0:
297,238,95750,1,8,0:0:0:0:
297,238,95981,1,8,0:0:0:0:
297,238,96443,1,0,0:0:0:0:
297,238,97135,1,0,0:0:0:0:
297,238,97366,1,8,0:0:0:0:
297,238,97596,1,0,0:0:0:0:
297,238,97827,1,8,0:0:0:0:
297,238,98289,1,0,0:0:0:0:
297,238,98750,1,8,0:0:0:0:
297,238,99096,1,8,0:0:0:0:
297,238,99443,1,8,0:0:0:0:
297,238,99673,1,0,0:0:0:0:
297,238,99789,1,0,0:0:0:0:
297,238,99904,1,0,0:0:0:0:
297,238,100135,1,8,0:0:0:0:
297,238,100366,1,8,0:0:0:0:
376,131,100827,1,8,0:0:0:0:
376,131,101058,1,8,0:0:0:0:
376,131,101289,1,0,0:0:0:0:
376,131,101520,1,8,0:0:0:0:
376,131,101981,1,0,0:0:0:0:
376,131,102443,1,8,0:0:0:0:
376,131,102673,1,0,0:0:0:0:
376,131,102789,1,0,0:0:0:0:
376,131,103020,1,8,0:0:0:0:
376,131,103135,1,8,0:0:0:0:
376,131,103366,1,8,0:0:0:0:
376,131,103827,1,0,0:0:0:0:
376,131,104520,1,0,0:0:0:0:
376,131,104750,1,8,0:0:0:0:
376,131,104981,1,0,0:0:0:0:
376,131,105212,1,8,0:0:0:0:
376,131,105673,1,0,0:0:0:0:
376,131,106135,1,8,0:0:0:0:
376,131,106366,1,0,0:0:0:0:
376,131,106481,1,0,0:0:0:0:
376,131,106712,1,8,0:0:0:0:
376,131,106827,1,8,0:0:0:0:
376,131,107058,1,0,0:0:0:0:
376,131,107289,1,8,0:0:0:0:
376,131,107520,1,8,0:0:0:0:
376,131,107750,1,0,0:0:0:0:
376,131,108212,1,0,0:0:0:0:
376,131,108443,1,8,0:0:0:0:
376,131,108673,1,8,0:0:0:0:
376,131,108904,1,12,0:0:0:0:
376,131,109366,1,0,0:0:0:0:
328,164,109827,1,8,0:0:0:0:
328,164,110058,1,0,0:0:0:0:
328,164,110173,1,0,0:0:0:0:
328,164,110404,1,8,0:0:0:0:
328,164,110520,1,8,0:0:0:0:
328,164,110750,1,8,0:0:0:0:
328,164,111212,1,0,0:0:0:0:
328,164,111904,1,0,0:0:0:0:
328,164,112135,1,8,0:0:0:0:
328,164,112366,1,0,0:0:0:0:
328,164,112596,1,8,0:0:0:0:
328,164,113058,1,0,0:0:0:0:
328,164,113520,1,8,0:0:0:0:
328,164,113750,1,0,0:0:0:0:
328,164,113866,1,0,0:0:0:0:
328,164,114096,1,8,0:0:0:0:
328,164,114212,1,8,0:0:0:0:
328,164,114443,1,0,0:0:0:0:
328,164,114558,1,0,0:0:0:0:
328,164,114673,1,0,0:0:0:0:
328,164,114904,1,8,0:0:0:0:
328,164,115135,1,8,0:0:0:0:
328,164,115596,1,8,0:0:0:0:
296,164,115827,1,0,0:0:0:0:
328,164,115943,1,0,0:0:0:0:
328,164,116058,1,0,0:0:0:0:
328,164,116289,1,8,0:0:0:0:
328,164,116750,1,0,0:0:0:0:
328,164,117212,1,8,0:0:0:0:
328,164,117443,1,0,0:0:0:0:
328,164,117558,1,0,0:0:0:0:
328,164,117789,1,8,0:0:0:0:
328,164,117904,1,8,0:0:0:0:
328,164,118135,1,8,0:0:0:0:
328,164,118596,1,0,0:0:0:0:
328,164,119289,1,0,0:0:0:0:
328,164,119520,1,8,0:0:0:0:
328,164,119750,1,0,0:0:0:0:
328,164,119981,1,8,0:0:0:0:
328,164,120443,1,0,0:0:0:0:
328,164,120904,1,8,0:0:0:0:
328,164,121135,1,0,0:0:0:0:
328,164,121250,1,0,0:0:0:0:
328,164,121481,1,8,0:0:0:0:
328,164,121596,1,8,0:0:0:0:
328,164,121827,1,0,0:0:0:0:
328,164,121943,1,0,0:0:0:0:
328,164,122058,1,0,0:0:0:0:
328,164,122289,1,8,0:0:0:0:
328,164,122520,1,0,0:0:0:0:
328,164,122981,1,8,0:0:0:0:
328,164,123096,1,8,0:0:0:0:
328,164,123212,1,8,0:0:0:0:
328,164,123443,1,8,0:0:0:0:
328,164,123673,1,0,0:0:0:0:
328,164,124135,1,0,0:0:0:0:
328,164,124481,1,8,0:0:0:0:
328,164,125058,1,0,0:0:0:0:
328,164,125981,1,0,0:0:0:0:
328,164,126327,1,8,0:0:0:0:
326,155,126904,1,0,0:0:0:0:
326,155,127366,1,8,0:0:0:0:
326,155,127827,1,0,0:0:0:0:
326,155,128173,1,8,0:0:0:0:
326,155,128750,1,0,0:0:0:0:
326,155,129673,1,0,0:0:0:0:
326,155,130020,1,8,0:0:0:0:
326,155,130366,1,8,0:0:0:0:
326,155,130596,1,0,0:0:0:0:
326,155,131058,1,8,0:0:0:0:
326,155,131520,1,0,0:0:0:0:
326,155,131866,1,8,0:0:0:0:
326,155,132212,1,8,0:0:0:0:
326,155,132443,1,0,0:0:0:0:
332,159,133135,1,8,0:0:0:0:
326,155,133366,1,0,0:0:0:0:
326,155,133712,1,8,0:0:0:0:
326,155,134058,1,8,0:0:0:0:
326,155,134289,1,0,0:0:0:0:
326,155,134750,1,8,0:0:0:0:
326,155,135212,1,0,0:0:0:0:
326,155,135558,1,8,0:0:0:0:
326,155,135904,1,8,0:0:0:0:
326,155,136135,1,0,0:0:0:0:
330,155,136827,1,8,0:0:0:0:
326,155,137058,1,0,0:0:0:0:
326,155,137404,1,8,0:0:0:0:
326,155,137750,1,8,0:0:0:0:
326,155,137981,1,0,0:0:0:0:
326,155,138443,1,0,0:0:0:0:
256,192,138673,12,0,141212,0:0:0:0:
